<?xml version="1.0" standalone="no"?>
<!DOCTYPE svg PUBLIC "-//W3C//DTD SVG 1.1//EN" "http://www.w3.org/Graphics/SVG/1.1/DTD/svg11.dtd" >
<svg xmlns="http://www.w3.org/2000/svg">
<metadata>Generated by IcoMoon</metadata>
<defs>
<font id="boxicons" horiz-adv-x="1024">
<font-face units-per-em="1024" ascent="960" descent="-64" />
<missing-glyph horiz-adv-x="1024" />
<glyph unicode="&#x20;" horiz-adv-x="512" d="" />
<glyph unicode="&#xe900;" glyph-name="adjust" d="M512 874.667c-231.296 0-426.667-195.413-426.667-426.667s195.371-426.667 426.667-426.667 426.667 195.413 426.667 426.667-195.371 426.667-426.667 426.667zM512 106.667c-185.045 0-341.333 156.331-341.333 341.333s156.288 341.333 341.333 341.333 341.333-156.331 341.333-341.333-156.288-341.333-341.333-341.333zM512 704v-512c140.032 0 256 116.011 256 256 0 140.117-115.968 256-256 256z" />
<glyph unicode="&#xe901;" glyph-name="alarm" d="M512 789.333c-208.171 0-384-175.829-384-384s175.829-384 384-384 384 175.829 384 384-175.829 384-384 384zM512 106.667c-161.877 0-298.667 136.789-298.667 298.667s136.789 298.667 298.667 298.667 298.667-136.789 298.667-298.667-136.789-298.667-298.667-298.667zM554.667 448v170.667h-85.333v-256h256v85.333zM737.44 801.823l60.254 60.425 128.402-128.039-60.254-60.425-128.402 128.039zM285.775 801.885l-127.588-127.949-60.425 60.254 127.588 127.949 60.425-60.254z" />
<glyph unicode="&#xe902;" glyph-name="alarm-off" d="M926.165 94.165l-768 768-60.331-60.331 33.749-33.749-33.792-33.92 60.416-60.245 33.707 33.835 41.771-41.771c-64.896-69.12-105.685-160.939-105.685-260.651 0-208.171 175.829-384 384-384 99.712 0 191.531 40.789 260.608 105.728l93.227-93.227 60.331 60.331zM512 106.667c-161.877 0-298.667 136.789-298.667 298.667 0 76.544 30.976 147.157 80.341 200.661l175.659-175.659v-67.669h67.669l175.659-175.659c-53.504-49.365-124.117-80.341-200.661-80.341zM865.862 673.808l-128.438 128.021 60.245 60.442 128.438-128.021-60.245-60.442zM877.056 288.939c12.16 36.949 18.944 76.032 18.944 116.395 0 208.171-175.829 384-384 384-40.363 0-79.445-6.784-116.395-18.944l70.443-70.443c15.061 2.432 30.336 4.053 45.952 4.053 161.877 0 298.667-136.789 298.667-298.667 0-15.616-1.621-30.891-4.096-45.909l70.485-70.485z" />
<glyph unicode="&#xe903;" glyph-name="album" d="M597.333 448.299c0-47.293-38.339-85.632-85.632-85.632s-85.632 38.339-85.632 85.632c0 47.293 38.339 85.632 85.632 85.632s85.632-38.339 85.632-85.632zM512 874.667c-235.264 0-426.667-191.403-426.667-426.667s191.403-426.667 426.667-426.667 426.667 191.403 426.667 426.667-191.403 426.667-426.667 426.667zM512 106.667c-188.203 0-341.333 153.131-341.333 341.333s153.131 341.333 341.333 341.333 341.333-153.131 341.333-341.333-153.131-341.333-341.333-341.333zM512 704c-141.184 0-256-114.816-256-256h85.333c0 94.123 76.544 170.667 170.667 170.667v85.333z" />
<glyph unicode="&#xe904;" glyph-name="align-left" d="M128 149.333h768v-85.333h-768v85.333zM128 320h512v-85.333h-512v85.333zM128 490.667h768v-85.333h-768v85.333zM128 832h768v-85.333h-768v85.333zM128 661.333h512v-85.333h-512v85.333z" />
<glyph unicode="&#xe905;" glyph-name="align-middle" d="M128 149.333h768v-85.333h-768v85.333zM256 320h512v-85.333h-512v85.333zM128 490.667h768v-85.333h-768v85.333zM128 832h768v-85.333h-768v85.333zM256 661.333h512v-85.333h-512v85.333z" />
<glyph unicode="&#xe906;" glyph-name="align-right" d="M128 832h768v-85.333h-768v85.333zM128 149.333h768v-85.333h-768v85.333zM341.333 320h554.667v-85.333h-554.667v85.333zM128 490.667h768v-85.333h-768v85.333zM341.333 661.333h554.667v-85.333h-554.667v85.333z" />
<glyph unicode="&#xe907;" glyph-name="anchor" d="M810.667 405.333h-85.333v-85.333h38.955c-18.56-105.387-104.235-190.763-209.621-209.323v294.656h85.333v85.333h-85.333v70.997c65.835 19.584 115.797 82.048 115.797 154.496 0 87.424-71.083 158.507-158.464 158.507s-158.464-71.083-158.464-158.507c0-72.448 49.963-134.912 115.797-154.496v-70.997h-85.333v-85.333h85.333v-294.656c-105.387 18.56-191.104 103.936-209.621 209.323h38.955v85.333h-85.333c-23.595 0-42.667-19.072-42.667-42.667 0-170.581 132.907-316.416 298.667-338.219v-3.115h85.333v3.115c165.76 21.803 298.667 167.637 298.667 338.219 0 23.595-19.072 42.667-42.667 42.667zM438.869 716.16c0 40.32 32.811 73.173 73.131 73.173s73.131-32.853 73.131-73.173c0-40.576-34.176-76.16-73.131-76.16s-73.131 35.584-73.131 76.16z" />
<glyph unicode="&#xe908;" glyph-name="aperture" d="M512 874.667c-231.296 0-426.667-195.371-426.667-426.667s195.371-426.667 426.667-426.667 426.667 195.371 426.667 426.667-195.371 426.667-426.667 426.667zM602.155 320h-176.085l-73.515 132.011 82.731 123.989h159.403l79.829-130.645-72.363-125.355zM170.667 448c0 40.661 7.936 79.787 21.675 116.352l136.021-244.352h-131.669c-16.64 39.765-26.027 82.987-26.027 128zM694.741 576h132.523c16.683-39.765 26.069-82.987 26.069-128 0-36.011-6.101-70.827-16.939-103.765l-141.653 231.765zM776.021 661.333h-283.861l81.28 121.899c80.469-15.317 151.979-59.861 202.581-121.899zM473.301 786.816l-83.669-125.483h-5.632v-8.405l-78.080-117.12-64.853 116.395c55.467 72.661 138.624 123.52 232.235 134.613zM247.979 234.667h304.939l-72.917-126.336c-92.416 9.088-175.317 56.789-232.021 126.336zM581.973 114.347l143.232 248.107 65.877-107.776c-49.237-70.059-123.776-121.771-209.109-140.331z" />
<glyph unicode="&#xe909;" glyph-name="archive" d="M256 448h512v-85.333h-512v85.333zM936.448 589.44l-85.333 256.043c-5.76 17.451-22.059 29.184-40.448 29.184h-597.333c-18.389 0-34.645-11.733-40.448-29.184l-85.333-256 0.512-0.171c-1.493-4.224-2.731-8.576-2.731-13.312v-426.667c0-23.595 19.072-42.667 42.667-42.667h768c23.595 0 42.667 19.072 42.667 42.667v426.667c0 4.693-1.237 9.045-2.688 13.312l0.469 0.128zM244.096 789.333h535.851l56.875-170.667h-649.643l56.917 170.667zM853.333 192h-682.667v341.333h682.667v-341.333z" />
<glyph unicode="&#xe90a;" glyph-name="archive-in" d="M554.667 106.667v170.667h128l-170.667 170.667-170.667-170.667h128v-170.667zM936.448 589.525l-85.333 255.957c-5.76 17.451-22.059 29.184-40.448 29.184h-597.333c-18.389 0-34.645-11.733-40.448-29.184l-85.333-256 0.512-0.171c-1.493-4.224-2.731-8.576-2.731-13.312v-426.667c0-23.595 19.072-42.667 42.667-42.667h256v85.333h-213.333v341.333h682.667v-341.333h-213.333v-85.333h256c23.595 0 42.667 19.072 42.667 42.667v426.667c0 4.736-1.237 9.131-2.688 13.355l0.469 0.171zM187.179 618.667l56.917 170.667h535.851l56.917-170.667h-649.685z" />
<glyph unicode="&#xe90b;" glyph-name="archive-out" d="M469.333 448v-170.667h-128l170.667-170.667 170.667 170.667h-128v170.667zM936.448 589.525l-85.333 255.957c-5.76 17.451-22.059 29.184-40.448 29.184h-597.333c-18.389 0-34.645-11.733-40.448-29.184l-85.333-256 0.512-0.171c-1.493-4.224-2.731-8.576-2.731-13.312v-426.667c0-23.595 19.072-42.667 42.667-42.667h213.333v85.333h-170.667v341.333h682.667v-341.333h-170.667v-85.333h213.333c23.595 0 42.667 19.072 42.667 42.667v426.667c0 4.736-1.237 9.131-2.688 13.355l0.469 0.171zM187.179 618.667l56.917 170.667h535.851l56.917-170.667h-649.685z" />
<glyph unicode="&#xe90c;" glyph-name="arrow-back" d="M563.499 264.832l-140.501 140.501h345.003v85.333h-345.003l140.501 140.501-60.331 60.331-243.499-243.499 243.499-243.499z" />
<glyph unicode="&#xe90d;" glyph-name="asterisk" d="M469.333 704v-182.101l-157.696 91.051-42.667-73.899 157.696-91.051-157.653-91.051 42.667-73.899 157.653 91.051v-182.101h85.333v182.101l157.653-91.051 42.667 73.899-157.653 91.051 157.696 91.051-42.667 73.899-157.696-91.051v182.101z" />
<glyph unicode="&#xe90e;" glyph-name="at" d="M512 874.667c-235.264 0-426.667-191.403-426.667-426.667s191.403-426.667 426.667-426.667c62.549 0 126.336 15.829 189.525 47.104l-37.76 76.501c-51.371-25.387-102.443-38.272-151.765-38.272-188.203 0-341.333 153.131-341.333 341.333s153.131 341.333 341.333 341.333 341.333-153.131 341.333-341.333v-42.667c0-29.525-13.355-85.333-64-85.333-59.563 0-63.744 77.611-64 85.333v213.333h-85.333v-1.067c-35.755 27.051-79.787 43.733-128 43.733-117.632 0-213.333-95.701-213.333-213.333s95.701-213.333 213.333-213.333c61.867 0 117.248 26.923 156.245 69.163 22.357-37.973 60.075-69.163 121.088-69.163 96.981 0 149.333 87.936 149.333 170.667v42.667c0 235.264-191.403 426.667-426.667 426.667zM512 320c-70.571 0-128 57.429-128 128s57.429 128 128 128 128-57.429 128-128-57.429-128-128-128z" />
<glyph unicode="&#xe90f;" glyph-name="award" d="M213.333 576.043c0-81.152 32.64-154.752 85.333-208.64v-303.403c0-14.805 7.68-28.501 20.224-36.309 12.587-7.851 28.331-8.448 41.515-1.877l151.595 75.819 151.595-75.776c6.016-3.029 12.544-4.523 19.072-4.523 7.808 0 15.573 2.133 22.4 6.357 12.587 7.808 20.267 21.504 20.267 36.309v303.36c52.693 53.888 85.333 127.488 85.333 208.683 0 164.651-133.973 298.624-298.667 298.624s-298.667-133.973-298.667-298.624zM531.072 187.52c-11.989 6.016-26.155 6.016-38.187 0l-108.885-54.485v173.525c38.869-18.517 82.176-29.227 128-29.227s89.131 10.667 128 29.227v-173.483l-108.928 54.443zM512 789.333c117.589 0 213.333-95.659 213.333-213.291 0-117.675-95.701-213.376-213.333-213.376s-213.333 95.701-213.333 213.376c0 117.632 95.701 213.291 213.333 213.291z" />
<glyph unicode="&#xe910;" glyph-name="bar-chart" d="M341.333 746.667h85.333v-682.667h-85.333v682.667zM512 661.333h85.333v-597.333h-85.333v597.333zM682.667 832h85.333v-768h-85.333v768zM170.667 448h85.333v-384h-85.333v384z" />
<glyph unicode="&#xe911;" glyph-name="bar-chart-alt" d="M554.667 704h85.333v-469.333h-85.333v469.333zM725.333 832h85.333v-597.333h-85.333v597.333zM384 576h85.333v-341.333h-85.333v341.333zM213.333 448h85.333v-213.333h-85.333v213.333zM170.667 149.333h682.667v-85.333h-682.667v85.333z" />
<glyph unicode="&#xe912;" glyph-name="bar-chart-square" d="M128 789.333v-682.667c0-23.552 19.072-42.667 42.667-42.667h682.667c23.595 0 42.667 19.115 42.667 42.667v682.667c0 23.552-19.072 42.667-42.667 42.667h-682.667c-23.595 0-42.667-19.115-42.667-42.667zM213.333 746.667h597.333v-597.333h-597.333v597.333zM469.333 661.333h85.333v-426.667h-85.333v426.667zM640 533.333h85.333v-298.667h-85.333v298.667zM298.667 448h85.333v-213.333h-85.333v213.333z" />
<glyph unicode="&#xe913;" glyph-name="barcode" d="M896 789.333h-768c-23.552 0-42.667-19.115-42.667-42.667v-597.333c0-23.552 19.115-42.667 42.667-42.667h768c23.595 0 42.667 19.115 42.667 42.667v597.333c0 23.552-19.072 42.667-42.667 42.667zM853.333 192h-682.667v512h682.667v-512zM256 618.667h85.333v-341.333h-85.333v341.333zM384 618.667h42.667v-341.333h-42.667v341.333zM725.333 618.667h42.667v-341.333h-42.667v341.333zM554.667 618.667h128v-341.333h-128v341.333zM469.333 618.667h42.667v-341.333h-42.667v341.333z" />
<glyph unicode="&#xe914;" glyph-name="basketball" d="M512 874.667c-235.264 0-426.667-191.403-426.667-426.667s191.403-426.667 426.667-426.667 426.667 191.403 426.667 426.667-191.403 426.667-426.667 426.667zM225.493 632.875c36.651-37.675 60.928-87.936 69.461-142.208h-121.344c6.571 51.925 24.661 100.224 51.883 142.208zM173.611 405.333h120.661c-9.301-50.901-34.56-98.645-72.405-136.235-25.131 40.576-42.027 86.741-48.256 136.235zM469.333 109.611c-74.923 9.429-142.293 43.093-194.091 93.056 57.557 54.4 95.488 125.995 105.856 202.667h88.235v-295.723zM469.333 490.667h-88.064c-9.557 79.445-45.568 153.515-100.779 207.445 51.072 47.275 116.395 79.147 188.843 88.277v-295.723zM554.667 786.389c72.448-9.131 137.771-41.003 188.843-88.235-55.211-53.973-91.221-128-100.736-207.445h-88.107v295.68zM554.667 109.611v295.723h88.235c10.325-76.672 48.299-148.267 105.813-202.667-51.755-49.963-119.125-83.627-194.048-93.056zM802.133 269.099c-37.888 37.632-63.104 85.333-72.405 136.235h120.661c-6.229-49.493-23.125-95.659-48.256-136.235zM729.045 490.667c8.533 54.272 32.853 104.533 69.461 142.208 27.221-41.984 45.355-90.283 51.883-142.208h-121.344z" />
<glyph unicode="&#xe915;" glyph-name="battery" d="M853.333 661.333c0 23.595-19.072 42.667-42.667 42.667h-682.667c-23.595 0-42.667-19.072-42.667-42.667v-426.667c0-23.595 19.072-42.667 42.667-42.667h682.667c23.595 0 42.667 19.072 42.667 42.667v128h85.333v170.667h-85.333v128zM768 277.333h-597.333v341.333h597.333v-341.333z" />
<glyph unicode="&#xe916;" glyph-name="battery-charging" d="M298.667 448l170.667-42.667-42.667-170.667 213.333 213.333-170.667 42.667 42.667 170.667zM128 192h213.333l22.869 85.333h-193.536v341.333h201.515l88.875 85.333h-333.056c-23.595 0-42.667-19.072-42.667-42.667v-426.667c0-23.595 19.072-42.667 42.667-42.667zM853.333 661.333c0 23.595-19.072 42.667-42.667 42.667h-213.333l-22.827-85.333h193.493v-341.333h-201.515l-88.917-85.333h333.099c23.595 0 42.667 19.072 42.667 42.667v128h85.333v170.667h-85.333v128z" />
<glyph unicode="&#xe917;" glyph-name="battery-full" d="M853.333 661.333c0 23.595-19.072 42.667-42.667 42.667h-682.667c-23.595 0-42.667-19.072-42.667-42.667v-426.667c0-23.595 19.072-42.667 42.667-42.667h682.667c23.595 0 42.667 19.072 42.667 42.667v128h85.333v170.667h-85.333v128zM768 277.333h-597.333v341.333h597.333v-341.333zM256 533.333h426.667v-170.667h-426.667v170.667z" />
<glyph unicode="&#xe918;" glyph-name="battery-low" d="M853.333 661.333c0 23.595-19.072 42.667-42.667 42.667h-682.667c-23.595 0-42.667-19.072-42.667-42.667v-426.667c0-23.595 19.072-42.667 42.667-42.667h682.667c23.595 0 42.667 19.072 42.667 42.667v128h85.333v170.667h-85.333v128zM768 277.333h-597.333v341.333h597.333v-341.333zM341.333 533.333h-85.333v-170.667h170.667z" />
<glyph unicode="&#xe919;" glyph-name="behance" d="M436.992 457.131c27.648 32.896 32.341 73.643 32.341 97.536 0 118.144-114.389 149.333-174.891 149.333h-166.443c-23.595 0-42.667-19.072-42.667-42.667v-426.667c0-23.595 19.072-42.667 42.667-42.667h213.333c60.032 0 149.333 39.765 149.333 149.333 0 52.267-18.005 90.923-53.675 115.797zM170.667 618.667h123.776c3.669 0 89.557-0.725 89.557-64 0-32.384-6.613-64-85.547-64h-127.787v128zM341.077 277.333h-170.411v128h127.787c106.88 0 106.88-36.992 106.88-64 0-56.491-44.843-63.573-64.256-64zM746.667 618.667c-105.856 0-192-86.144-192-192v-42.667c0-105.856 86.144-192 190.848-192h0.043c0.683 0 1.707-0.043 3.115-0.043 17.92 0 92.288 3.157 143.573 53.12 20.693 20.181 34.176 45.781 41.003 74.923h-90.112c-2.816-4.907-6.101-9.557-10.155-13.525-24.448-24.064-67.883-29.141-85.077-29.141-50.347-1.323-95.787 36.352-105.771 85.333h211.2c0-0.085 0-0.171 0-0.256l47.275 0.512c21.419 2.347 38.059 20.395 38.059 42.411v21.333c0 105.856-86.144 192-192 192zM642.133 448c9.899 48.64 53.035 85.333 104.533 85.333s94.635-36.693 104.533-85.333h-209.067zM597.333 746.667h256v-85.333h-256v85.333z" />
<glyph unicode="&#xe91a;" glyph-name="bell" d="M558.677 871.040l-43.221 3.499c-2.304 0.171-4.565 0.171-6.869 0l-45.355-3.712c-166.784-23.979-292.565-169.088-292.565-337.493v-163.755l-40.448-121.429c-4.395-13.013-2.176-27.349 5.845-38.443 8.021-11.136 20.907-17.707 34.603-17.707h192c0-82.347 66.987-149.333 149.333-149.333s149.333 66.987 149.333 149.333h192c0.341-0.043 0.683-0.043 0.853 0 23.595 0 42.667 19.072 42.667 42.667 0 7.68-2.005 14.891-5.589 21.12l-37.931 113.792v163.755c0 168.107-125.525 313.173-294.656 337.707zM512 128c-35.883 0-64 28.117-64 64h128c0-35.883-28.117-64-64-64zM229.888 277.333l23.936 71.851c1.408 4.352 2.176 8.917 2.176 13.483v170.667c0 126.251 94.336 235.051 216.747 252.715l39.296 3.157 37.035-2.901c124.8-18.176 218.923-126.933 218.923-252.971v-170.667c0-4.565 0.768-9.131 2.219-13.483l23.893-71.851h-564.224z" />
<glyph unicode="&#xe91b;" glyph-name="bell-minus" d="M341.333 576h341.333v-85.333h-341.333v85.333zM853.333 369.579v163.755c0 168.107-125.525 313.173-294.656 337.707l-43.221 3.499c-2.304 0.171-4.565 0.171-6.869 0l-45.355-3.712c-166.784-23.979-292.565-169.088-292.565-337.493v-163.755l-40.448-121.429c-4.395-13.013-2.176-27.349 5.845-38.443 8.021-11.136 20.907-17.707 34.603-17.707h192c0-82.347 66.987-149.333 149.333-149.333s149.333 66.987 149.333 149.333h192c0.341 0 0.64-0.043 0.853 0 23.595 0 42.667 19.072 42.667 42.667 0 7.68-2.005 14.891-5.589 21.12l-37.931 113.792zM512 128c-35.883 0-64 28.117-64 64h128c0-35.883-28.117-64-64-64zM229.888 277.333l23.936 71.851c1.408 4.352 2.176 8.917 2.176 13.483v170.667c0 126.251 94.336 235.051 216.747 252.715l39.296 3.157 37.035-2.901c124.8-18.176 218.923-126.933 218.923-252.971v-170.667c0-4.565 0.768-9.131 2.219-13.483l23.893-71.851h-564.224z" />
<glyph unicode="&#xe91c;" glyph-name="bell-off" d="M97.835 801.835l112.171-112.171c-24.747-47.232-39.339-100.309-39.339-156.331v-163.755l-40.448-121.429c-4.395-13.013-2.176-27.349 5.845-38.443 8.021-11.136 20.907-17.707 34.603-17.707h192c0-82.347 66.987-149.333 149.333-149.333s149.333 66.987 149.333 149.333h46.336l158.165-158.165 60.331 60.331-768 768-60.331-60.331zM512 128c-35.883 0-64 28.117-64 64h128c0-35.883-28.117-64-64-64zM229.888 277.333l23.936 71.851c1.408 4.352 2.176 8.917 2.176 13.483v170.667c0 32.341 7.040 63.104 18.56 91.776l347.776-347.776h-392.448zM558.677 871.040l-43.221 3.499c-2.304 0.171-4.565 0.171-6.869 0l-45.355-3.712c-44.885-6.443-86.699-21.931-123.989-44.075l63.104-63.104c22.059 10.581 45.397 18.773 70.357 22.4l39.296 3.157 37.035-2.901c124.843-18.176 218.965-126.933 218.965-252.971v-135.339l113.792-113.792-28.459 85.376v163.755c0 168.107-125.525 313.173-294.656 337.707z" />
<glyph unicode="&#xe91d;" glyph-name="bell-plus" d="M554.667 704h-85.333v-128h-128v-85.333h128v-128h85.333v128h128v85.333h-128zM853.333 369.579v163.755c0 168.107-125.525 313.173-294.656 337.707l-43.221 3.499c-2.304 0.171-4.565 0.171-6.869 0l-45.355-3.712c-166.784-23.979-292.565-169.088-292.565-337.493v-163.755l-40.448-121.429c-4.395-13.013-2.176-27.349 5.845-38.443 8.021-11.136 20.907-17.707 34.603-17.707h192c0-82.347 66.987-149.333 149.333-149.333s149.333 66.987 149.333 149.333h192c0.299 0 0.64-0.043 0.853 0 23.595 0 42.667 19.072 42.667 42.667 0 7.68-2.005 14.891-5.589 21.12l-37.931 113.792zM512 128c-35.883 0-64 28.117-64 64h128c0-35.883-28.117-64-64-64zM229.888 277.333l23.936 71.851c1.408 4.352 2.176 8.917 2.176 13.483v170.667c0 126.251 94.336 235.051 216.747 252.715l39.296 3.157 37.035-2.901c124.8-18.176 218.923-126.933 218.923-252.971v-170.667c0-4.565 0.768-9.131 2.219-13.483l23.893-71.851h-564.224z" />
<glyph unicode="&#xe91e;" glyph-name="bitcoin" d="M640 21.333v87.253c86.229 9.429 170.667 74.88 170.667 190.080 0 80.597-41.515 136.789-95.829 166.741 32.725 34.475 53.163 80.768 53.163 131.925 0 83.328-53.675 153.728-128 180.224v97.109h-85.333v-85.333h-85.333v85.333h-85.333v-85.333h-128v-85.333h85.333v-512h-85.333v-85.333h128v-85.333h85.333v85.333h85.333v-85.333h85.333zM426.667 704h149.333c58.837 0 106.667-47.829 106.667-106.667s-47.829-106.667-106.667-106.667h-149.333v213.333zM426.667 192v213.333h192c36.864 0 106.667-22.272 106.667-106.667s-69.803-106.667-106.667-106.667h-192z" />
<glyph unicode="&#xe91f;" glyph-name="block" d="M512 874.667c-235.264 0-426.667-191.403-426.667-426.667s191.403-426.667 426.667-426.667c235.264 0 426.667 191.403 426.667 426.667s-191.403 426.667-426.667 426.667zM512 106.667c-188.203 0-341.333 153.131-341.333 341.333 0 78.763 27.051 151.125 72.021 208.939l478.251-478.251c-57.771-44.971-130.176-72.021-208.939-72.021zM781.312 239.061l-478.251 478.251c57.813 44.971 130.176 72.021 208.939 72.021 188.203 0 341.333-153.131 341.333-341.333 0-78.763-27.093-151.125-72.021-208.939z" />
<glyph unicode="&#xe920;" glyph-name="bluetooth" d="M239.829 201.216l186.837 147.925v-285.141c0-16.171 9.131-30.933 23.595-38.187 6.016-2.987 12.587-4.48 19.072-4.48 9.045 0 18.091 2.901 25.6 8.533l256 192c10.581 7.936 16.896 20.352 17.067 33.579s-5.803 25.771-16.171 34.005l-200.277 158.549 200.277 158.549c10.368 8.235 16.341 20.779 16.171 34.005s-6.485 25.643-17.067 33.579l-256 192c-12.885 9.771-30.251 11.264-44.672 4.053-14.464-7.253-23.595-22.016-23.595-38.187v-285.141l-186.837 147.925-52.992-66.901 227.243-179.883-227.243-179.883 52.992-66.901zM512 746.667l143.445-107.563-143.445-113.579v221.141zM512 370.475l143.445-113.579-143.445-107.563v221.141z" />
<glyph unicode="&#xe921;" glyph-name="body" d="M597.333 789.333c0-47.128-38.205-85.333-85.333-85.333s-85.333 38.205-85.333 85.333c0 47.128 38.205 85.333 85.333 85.333s85.333-38.205 85.333-85.333zM853.333 661.333h-682.667v-85.333h213.333v-554.667h85.333v298.667h85.333v-298.667h85.333v554.667h213.333z" />
<glyph unicode="&#xe922;" glyph-name="bold" d="M533.333 789.333h-213.333c-35.328 0-64-28.629-64-64v-554.667c0-35.371 28.672-64 64-64h213.333c138.155 0 234.667 87.723 234.667 213.333 0 66.773-33.237 122.112-81.152 159.659 25.344 34.347 38.485 76.587 38.485 117.675 0 93.099-67.285 192-192 192zM384 661.333h149.333c50.517 0 64-40.235 64-64s-13.483-64-64-64h-149.333v128zM533.333 234.667h-149.333v170.667h149.333c50.347 0 106.667-36.48 106.667-85.333 0-53.419-39.893-85.333-106.667-85.333z" />
<glyph unicode="&#xe923;" glyph-name="bolt" d="M414.293 23.168c4.096-1.237 8.235-1.835 12.373-1.835 13.995 0 27.477 6.912 35.499 18.987l341.333 512c8.704 13.099 9.557 29.909 2.133 43.776s-21.888 22.571-37.632 22.571h-205.611l34.389 206.293c2.091 12.373-1.408 25.003-9.557 34.603-8.107 9.6-20.011 15.104-32.555 15.104h-256c-21.931 0-40.277-16.597-42.453-38.4l-42.667-426.667c-1.195-11.989 2.731-23.979 10.837-32.896 8.064-8.96 19.584-14.037 31.616-14.037h128v-298.667c0-18.773 12.288-35.371 30.293-40.832zM303.147 448l34.133 341.333h166.997l-34.389-206.293c-2.091-12.373 1.408-25.003 9.557-34.603 8.107-9.6 20.011-15.104 32.555-15.104h176.299l-218.965-328.405v200.405c0 23.552-19.072 42.667-42.667 42.667h-123.52z" />
<glyph unicode="&#xe924;" glyph-name="book" d="M763.051 851.157c-7.253 14.421-22.016 23.509-38.144 23.509h-426.24c-51.456 0-128-34.091-128-128v-597.333c0-93.909 76.544-128 128-128h512c23.595 0 42.667 19.115 42.667 42.667v597.333c0 6.912-2.005 13.184-4.907 18.944l0.384 0.171-85.76 170.709zM299.179 789.333h399.445l42.88-85.333h-442.325c-19.712 0.512-43.179 8.32-43.179 42.667s23.467 42.155 43.179 42.667zM768 106.667h-468.821c-19.712 0.512-43.179 8.32-43.179 42.667v469.333h512v-512zM384 533.333h298.667v-85.333h-298.667v85.333z" />
<glyph unicode="&#xe925;" glyph-name="book-bookmark" d="M853.333 661.333c0 6.656-1.835 12.8-4.523 18.432l0.256 0.128-82.261 170.667c-7.040 14.72-22.016 24.107-38.4 24.107h-429.739c-51.456 0-128-34.091-128-128v-597.333c0-93.909 76.544-128 128-128h512c23.595 0 42.667 19.072 42.667 42.667v597.333zM298.667 789.333h402.944l41.131-85.333h-443.563c-19.712 0.512-43.179 8.277-43.179 42.667s23.467 42.155 42.667 42.667zM768 106.667h-468.821c-19.712 0.512-43.179 8.277-43.179 42.667v469.333h256v-256l85.333 42.667 85.333-42.667v256h85.333v-512z" />
<glyph unicode="&#xe926;" glyph-name="bookmark" d="M213.333 874.667c-23.595 0-42.667-19.072-42.667-42.667v-768c0-15.189 8.064-29.269 21.248-36.907 13.184-7.595 29.355-7.68 42.581-0.128l277.504 158.592 277.504-158.592c6.528-3.755 13.867-5.632 21.163-5.632 7.424 0 14.805 1.92 21.419 5.76 13.184 7.637 21.248 21.717 21.248 36.907v768c0 23.595-19.072 42.667-42.667 42.667h-597.333zM768 137.557l-234.837 134.187c-6.528 3.712-13.867 5.589-21.163 5.589s-14.635-1.877-21.163-5.632l-234.837-134.144v651.776h512v-651.776z" />
<glyph unicode="&#xe927;" glyph-name="bookmark-minus" d="M341.333 576h341.333v-85.333h-341.333v85.333zM810.667 21.333c7.424 0 14.805 1.92 21.419 5.76 13.184 7.637 21.248 21.717 21.248 36.907v768c0 23.552-19.072 42.667-42.667 42.667h-597.333c-23.552 0-42.667-19.115-42.667-42.667v-768c0-15.189 8.107-29.269 21.248-36.907s29.355-7.68 42.581-0.128l277.504 158.549 277.504-158.549c6.528-3.755 13.867-5.632 21.163-5.632zM768 137.515l-234.837 134.187c-6.571 3.755-13.867 5.632-21.163 5.632s-14.592-1.877-21.163-5.632l-234.837-134.187v651.819h512v-651.819z" />
<glyph unicode="&#xe928;" glyph-name="bookmark-plus" d="M469.333 362.667h85.333v128h128v85.333h-128v128h-85.333v-128h-128v-85.333h128zM853.333 832c0 23.552-19.072 42.667-42.667 42.667h-597.333c-23.595 0-42.667-19.115-42.667-42.667v-768c0-15.189 8.064-29.269 21.248-36.907s29.355-7.68 42.581-0.128l277.504 158.549 277.504-158.549c6.528-3.755 13.867-5.632 21.163-5.632 7.424 0 14.805 1.92 21.419 5.76 13.184 7.637 21.248 21.717 21.248 36.907v768zM768 137.515l-234.837 134.187c-6.528 3.755-13.867 5.632-21.163 5.632s-14.635-1.877-21.163-5.632l-234.837-134.187v651.819h512v-651.819z" />
<glyph unicode="&#xe929;" glyph-name="bookmarks" d="M256 704c-23.595 0-42.667-19.072-42.667-42.667v-597.333c0-15.36 8.235-29.525 21.632-37.12s29.781-7.339 43.008 0.555l191.36 114.816 191.36-114.816c6.784-4.053 14.379-6.101 21.973-6.101 7.253 0 14.507 1.835 21.035 5.547 13.397 7.595 21.632 21.76 21.632 37.12v597.333c0 23.595-19.072 42.667-42.667 42.667h-426.667zM640 139.392l-148.693 89.216c-6.784 4.011-14.379 6.059-21.973 6.059s-15.189-2.048-21.973-6.101l-148.693-89.173v479.275h341.333v-479.275zM896 277.333v554.667c0 23.595-19.072 42.667-42.667 42.667h-426.667v-85.333h384v-512h85.333z" />
<glyph unicode="&#xe92a;" glyph-name="bookmark-star" d="M398.208 362.667l113.792 75.861 113.792-75.861-37.973 132.736 94.848 80.597-113.792 14.208-56.875 113.792-56.875-113.792-113.792-14.208 94.848-80.597zM853.333 64v768c0 23.552-19.072 42.667-42.667 42.667h-597.333c-23.595 0-42.667-19.115-42.667-42.667v-768c0-15.189 8.064-29.269 21.248-36.907s29.397-7.723 42.581-0.128l277.504 158.549 277.504-158.549c6.528-3.755 13.867-5.632 21.163-5.632 7.424 0 14.805 1.92 21.419 5.76 13.184 7.637 21.248 21.717 21.248 36.907zM768 137.515l-234.837 134.187c-6.528 3.755-13.867 5.632-21.163 5.632s-14.635-1.877-21.163-5.632l-234.837-134.187v651.819h512v-651.819z" />
<glyph unicode="&#xe92b;" glyph-name="book-open" d="M920.96 823.936c-11.179 8.064-25.515 10.197-38.443 5.888l-370.517-123.52-370.517 123.52c-13.056 4.309-27.264 2.176-38.443-5.888-11.136-8.021-17.707-20.907-17.707-34.603v-512c0-16.853 9.899-32.128 25.344-38.997l384-170.667c5.547-2.432 11.392-3.669 17.323-3.669s11.776 1.237 17.323 3.669l384 170.667c15.445 6.869 25.344 22.144 25.344 38.997v512c0 13.696-6.571 26.581-17.707 34.603zM469.333 172.331l-298.667 132.736v425.088l298.667-99.541v-458.283zM853.333 305.067l-298.667-132.736v458.24l298.667 99.541v-425.045z" />
<glyph unicode="&#xe92c;" glyph-name="briefcase" d="M896 704h-213.333v128c0 23.552-19.072 42.667-42.667 42.667h-256c-23.595 0-42.667-19.115-42.667-42.667v-128h-213.333c-23.595 0-42.667-19.115-42.667-42.667v-512c0-23.552 19.072-42.667 42.667-42.667h768c23.595 0 42.667 19.115 42.667 42.667v512c0 23.552-19.072 42.667-42.667 42.667zM426.667 789.333h170.667v-85.333h-170.667v85.333zM853.333 192h-682.667v256h256v-85.333h170.667v85.333h256v-256zM853.333 533.333h-682.667v85.333h682.667v-85.333z" />
<glyph unicode="&#xe92d;" glyph-name="briefcase-alt" d="M128 106.667h768c23.595 0 42.667 19.115 42.667 42.667v512c0 23.552-19.072 42.667-42.667 42.667h-213.333v128c0 23.552-19.072 42.667-42.667 42.667h-256c-23.595 0-42.667-19.115-42.667-42.667v-128h-213.333c-23.595 0-42.667-19.115-42.667-42.667v-512c0-23.552 19.072-42.667 42.667-42.667zM768 618.667h85.333v-426.667h-85.333v426.667zM426.667 789.333h170.667v-85.333h-170.667v85.333zM341.333 618.667h341.333v-426.667h-341.333v426.667zM170.667 618.667h85.333v-426.667h-85.333v426.667z" />
<glyph unicode="&#xe92e;" glyph-name="broadcast" d="M780.501 716.501c116.608-116.608 116.608-313.728 0-430.336l60.331-60.331c149.333 149.333 149.333 401.664 0 550.997l-60.331-60.331zM712.832 353.835c40.277 40.235 62.507 92.672 62.507 147.499s-22.229 107.264-62.507 147.499l-60.331-60.331c24.149-24.149 37.504-55.125 37.504-87.168s-13.355-63.019-37.504-87.168l60.331-60.331zM264.832 716.501l-60.331 60.331c-149.333-149.333-149.333-401.664 0-550.997l60.331 60.331c-116.608 116.608-116.608 313.728 0 430.336zM311.168 648.832c-40.277-40.235-62.507-92.672-62.507-147.499s22.229-107.264 62.507-147.499l60.331 60.331c-24.149 24.149-37.504 55.125-37.504 87.168s13.355 63.019 37.504 87.168l-60.331 60.331zM554.667 64v374.485c25.429 14.805 42.667 41.984 42.667 73.515 0 47.104-38.229 85.333-85.333 85.333s-85.333-38.229-85.333-85.333c-0.043-31.488 17.237-58.752 42.667-73.515v-374.485h85.333z" />
<glyph unicode="&#xe92f;" glyph-name="bucket" d="M895.104 631.211v0c0.213 2.944 0.896 5.845 0.896 8.789 0 102.272-179.456 192-384 192s-384-89.728-384-192c0-2.944 0.683-5.845 0.939-8.789h-0.043l0.085-0.384c0.683-6.272 1.963-12.501 3.925-18.645l81.323-386.347c0.768-3.584 1.963-7.040 3.584-10.283 50.304-100.565 149.291-151.552 294.187-151.552s243.883 50.987 294.187 151.595c1.621 3.243 2.816 6.699 3.584 10.283l81.323 386.347c1.963 6.144 3.243 12.331 3.925 18.645l0.085 0.341zM512 746.667c184.875 0 293.035-76.971 298.155-104.576l-2.048-9.728c-16.469-31.104-122.453-99.029-296.107-99.029s-279.637 67.925-296.107 99.029l-2.048 9.728c5.12 27.605 113.28 104.576 298.155 104.576zM727.467 249.131c-35.968-67.115-106.496-99.797-215.467-99.797s-179.499 32.683-215.467 99.797l-54.101 256.939c70.528-35.456 166.869-58.069 269.568-58.069s199.040 22.613 269.525 58.069l-54.059-256.939z" />
<glyph unicode="&#xe930;" glyph-name="bug" d="M844.8 426.667c0 21.845-1.835 43.093-4.523 64h95.829v85.333h-114.987c-16.512 50.517-41.003 96.128-71.765 134.315l91.52 91.52-60.331 60.331-92.331-92.288c-51.157 39.125-111.445 62.123-176.213 62.123s-125.056-22.997-176.213-62.123l-92.288 92.288-60.331-60.331 91.52-91.52c-30.763-38.187-55.253-83.797-71.765-134.315h-117.589v-85.333h98.432c-2.731-20.907-4.565-42.155-4.565-64 0-21.973 1.835-43.435 4.608-64.469h-98.475v-85.333h117.717c9.728-29.568 22.187-57.429 37.035-83.115l-99.584-99.584 60.331-60.331 90.368 90.368c58.837-63.744 136.064-102.869 220.8-102.869s161.963 39.125 220.8 102.869l90.368-90.368 60.331 60.331-99.584 99.584c14.891 25.685 27.349 53.547 37.035 83.115h117.717v85.333h-98.517c2.816 21.035 4.651 42.496 4.651 64.469zM512 746.667c94.763 0 177.109-69.291 218.709-170.667h-437.419c41.6 101.376 123.947 170.667 218.709 170.667zM554.667 111.787v293.547h-85.333v-293.547c-116.181 26.24-204.8 157.312-204.8 314.88 0 21.931 1.707 43.307 4.992 64h484.907c3.285-20.693 4.992-42.069 4.992-64 0.043-157.611-88.576-288.64-204.757-314.88z" />
<glyph unicode="&#xe931;" glyph-name="building" d="M213.333 21.333h597.333c23.595 0 42.667 19.115 42.667 42.667v768c0 23.552-19.072 42.667-42.667 42.667h-597.333c-23.595 0-42.667-19.115-42.667-42.667v-768c0-23.552 19.072-42.667 42.667-42.667zM256 789.333h512v-682.667h-170.667v85.333h-170.667v-85.333h-170.667v682.667zM341.333 704h128v-85.333h-128v85.333zM554.667 704h128v-85.333h-128v85.333zM341.333 533.333h128v-85.333h-128v85.333zM554.667 532.011h128v-84.011h-128v84.011zM341.333 362.667h128v-85.333h-128v85.333zM554.667 362.667h128v-85.333h-128v85.333z" />
<glyph unicode="&#xe932;" glyph-name="bulb" d="M384 106.667h256v-85.333h-256v85.333zM721.323 374.955c43.947 51.456 89.344 104.661 89.344 201.045 0 164.651-134.016 298.667-298.667 298.667s-298.667-134.016-298.667-298.667c0-97.493 45.525-150.528 89.643-201.813 15.275-17.835 31.104-36.309 46.251-57.557 8.619-12.416 25.173-74.112 35.456-132.096l6.229-35.2h242.133l6.272 35.157c10.368 58.027 27.008 119.893 35.584 132.309 15.061 21.461 31.019 40.107 46.421 58.155zM605.099 365.867c-18.517-26.325-33.963-88.533-42.923-131.2h-100.309c-8.917 42.752-24.405 105.088-43.136 131.413-17.365 24.405-35.243 45.269-51.029 63.659-41.557 48.384-69.035 80.384-69.035 146.261 0 117.632 95.701 213.333 213.333 213.333s213.333-95.701 213.333-213.333c0-64.896-27.435-97.024-68.907-145.621-15.915-18.688-33.963-39.808-51.328-64.512z" />
<glyph unicode="&#xe933;" glyph-name="bullseye" d="M512 192c141.184 0 256 114.816 256 256s-114.816 256-256 256-256-114.816-256-256 114.816-256 256-256zM512 618.667c94.123 0 170.667-76.544 170.667-170.667s-76.544-170.667-170.667-170.667-170.667 76.544-170.667 170.667 76.544 170.667 170.667 170.667zM512 21.333c231.296 0 426.667 195.371 426.667 426.667s-195.371 426.667-426.667 426.667-426.667-195.371-426.667-426.667 195.371-426.667 426.667-426.667zM512 789.333c185.045 0 341.333-156.288 341.333-341.333s-156.288-341.333-341.333-341.333-341.333 156.288-341.333 341.333 156.288 341.333 341.333 341.333zM512 362.667c46.123 0 85.333 39.211 85.333 85.333s-39.211 85.333-85.333 85.333-85.333-39.211-85.333-85.333 39.211-85.333 85.333-85.333z" />
<glyph unicode="&#xe934;" glyph-name="buoy" d="M512 874.667c-235.264 0-426.667-191.403-426.667-426.667s191.403-426.667 426.667-426.667 426.667 191.403 426.667 426.667-191.403 426.667-426.667 426.667zM469.333 786.389c13.995 1.749 28.16 2.944 42.667 2.944s28.672-1.195 42.667-2.944v-129.365c-13.781 2.816-28.032 4.309-42.667 4.309s-28.885-1.493-42.667-4.309v129.365zM384 764.203v-145.536h1.323c-16.725-12.459-31.531-27.264-43.989-43.989v1.323h-145.536c34.688 85.333 102.827 153.515 188.203 188.203zM170.667 448c0 14.464 1.195 28.672 2.944 42.667h129.365c-2.816-13.781-4.309-28.075-4.309-42.667s1.493-28.885 4.352-42.667h-129.408c-1.749 13.995-2.944 28.203-2.944 42.667zM384 131.797c-85.376 34.688-153.515 102.869-188.203 188.203h145.536v1.323c12.117-16.256 26.496-30.635 42.667-42.88v-146.645zM554.667 109.611c-13.995-1.749-28.16-2.944-42.667-2.944s-28.672 1.195-42.667 2.944v129.365c13.781-2.816 28.032-4.309 42.667-4.309s28.885 1.493 42.667 4.309v-129.365zM512 320c-70.571 0-128 57.429-128 128s57.429 128 128 128 128-57.429 128-128-57.429-128-128-128zM640 131.797v146.645c16.171 12.245 30.549 26.624 42.667 42.88v-1.323h145.536c-34.688-85.333-102.827-153.515-188.203-188.203zM853.333 448c0-14.464-1.195-28.672-2.944-42.667h-129.365c2.816 13.781 4.309 28.075 4.309 42.667s-1.493 28.885-4.352 42.667h129.365c1.792-13.995 2.987-28.203 2.987-42.667zM682.667 576v-1.323c-12.459 16.725-27.264 31.531-43.989 43.989h1.323v145.536c85.376-34.688 153.515-102.869 188.203-188.203h-145.536z" />
<glyph unicode="&#xe935;" glyph-name="calculator" d="M298.667 490.667h85.333v-85.333h-85.333v85.333zM298.667 320h85.333v-85.333h-85.333v85.333zM469.333 320h85.333v-85.333h-85.333v85.333zM469.333 490.667h85.333v-85.333h-85.333v85.333zM640 490.667h85.333v-256h-85.333v256zM170.667 64h682.667c23.595 0 42.667 19.072 42.667 42.667v682.667c0 23.552-19.072 42.667-42.667 42.667h-682.667c-23.595 0-42.667-19.115-42.667-42.667v-682.667c0-23.595 19.072-42.667 42.667-42.667zM213.333 746.667h597.333v-597.333h-597.333v597.333zM298.667 661.333h426.667v-85.333h-426.667v85.333z" />
<glyph unicode="&#xe936;" glyph-name="calendar" d="M128 21.333h768c23.595 0 42.667 19.115 42.667 42.667v682.667c0 23.552-19.072 42.667-42.667 42.667h-170.667v85.333h-85.333v-85.333h-256v85.333h-85.333v-85.333h-170.667c-23.595 0-42.667-19.115-42.667-42.667v-682.667c0-23.552 19.072-42.667 42.667-42.667zM170.667 704h128v-42.667h85.333v42.667h256v-42.667h85.333v42.667h128v-85.333h-682.667v85.333zM170.667 533.333h682.667v-426.667h-682.667v426.667zM298.667 448h85.333v-85.333h-85.333v85.333zM298.667 277.333h85.333v-85.333h-85.333v85.333zM469.333 448h85.333v-85.333h-85.333v85.333zM469.333 277.333h85.333v-85.333h-85.333v85.333zM640 448h85.333v-85.333h-85.333v85.333zM640 277.333h85.333v-85.333h-85.333v85.333z" />
<glyph unicode="&#xe937;" glyph-name="calendar-add" d="M469.333 149.333h85.333v128h128v85.333h-128v128h-85.333v-128h-128v-85.333h128zM896 789.333h-170.667v85.333h-85.333v-85.333h-256v85.333h-85.333v-85.333h-170.667c-23.595 0-42.667-19.072-42.667-42.667v-682.667c0-23.595 19.072-42.667 42.667-42.667h768c23.595 0 42.667 19.072 42.667 42.667v682.667c0 23.595-19.072 42.667-42.667 42.667zM853.333 106.667h-682.667v426.667h682.667v-426.667zM853.333 618.667h-682.667v85.333h128v-42.667h85.333v42.667h256v-42.667h85.333v42.667h128v-85.333z" />
<glyph unicode="&#xe938;" glyph-name="calendar-alt" d="M896 789.333h-170.667v85.333h-85.333v-85.333h-256v85.333h-85.333v-85.333h-170.667c-23.595 0-42.667-19.072-42.667-42.667v-682.667c0-23.595 19.072-42.667 42.667-42.667h768c23.595 0 42.667 19.072 42.667 42.667v682.667c0 23.595-19.072 42.667-42.667 42.667zM298.667 704v-42.667h85.333v42.667h256v-42.667h85.333v42.667h128v-85.333h-682.667v85.333h128zM170.667 106.667v426.667h682.667v-426.667h-682.667z" />
<glyph unicode="&#xe939;" glyph-name="calendar-check" d="M896 789.333h-170.667v85.333h-85.333v-85.333h-256v85.333h-85.333v-85.333h-170.667c-23.595 0-42.667-19.072-42.667-42.667v-682.667c0-23.595 19.072-42.667 42.667-42.667h768c23.595 0 42.667 19.072 42.667 42.667v682.667c0 23.595-19.072 42.667-42.667 42.667zM853.333 106.667h-682.667v426.667h682.667v-426.667zM853.333 618.667h-682.667v85.333h128v-42.667h85.333v42.667h256v-42.667h85.333v42.667h128v-85.333zM712.832 417.835l-60.331 60.331-183.168-183.168-55.168 55.168-60.331-60.331 115.499-115.499z" />
<glyph unicode="&#xe93a;" glyph-name="calendar-minus" d="M341.333 362.667h341.333v-85.333h-341.333v85.333zM896 789.333h-170.667v85.333h-85.333v-85.333h-256v85.333h-85.333v-85.333h-170.667c-23.595 0-42.667-19.072-42.667-42.667v-682.667c0-23.595 19.072-42.667 42.667-42.667h768c23.595 0 42.667 19.072 42.667 42.667v682.667c0 23.595-19.072 42.667-42.667 42.667zM853.333 106.667h-682.667v426.667h682.667v-426.667zM853.333 618.667h-682.667v85.333h128v-42.667h85.333v42.667h256v-42.667h85.333v42.667h128v-85.333z" />
<glyph unicode="&#xe93b;" glyph-name="calendar-remove" d="M414.165 161.835l97.835 97.835 97.835-97.835 60.331 60.331-97.835 97.835 97.835 97.835-60.331 60.331-97.835-97.835-97.835 97.835-60.331-60.331 97.835-97.835-97.835-97.835zM896 789.333h-170.667v85.333h-85.333v-85.333h-256v85.333h-85.333v-85.333h-170.667c-23.595 0-42.667-19.072-42.667-42.667v-682.667c0-23.595 19.072-42.667 42.667-42.667h768c23.595 0 42.667 19.072 42.667 42.667v682.667c0 23.595-19.072 42.667-42.667 42.667zM853.333 106.667h-682.667v426.667h682.667v-426.667zM853.333 618.667h-682.667v85.333h128v-42.667h85.333v42.667h256v-42.667h85.333v42.667h128v-85.333z" />
<glyph unicode="&#xe93c;" glyph-name="camera" d="M512 618.667c-92.501 0-170.667-78.165-170.667-170.667s78.165-170.667 170.667-170.667 170.667 78.165 170.667 170.667c0 92.501-78.165 170.667-170.667 170.667zM512 362.667c-45.44 0-85.333 39.893-85.333 85.333s39.893 85.333 85.333 85.333 85.333-39.893 85.333-85.333-39.893-85.333-85.333-85.333zM128 106.667h768c23.595 0 42.667 19.072 42.667 42.667v554.667c0 23.552-19.072 42.667-42.667 42.667h-153.003l-115.499 115.499c-7.979 8.021-18.816 12.501-30.165 12.501h-170.667c-11.349 0-22.187-4.48-30.165-12.501l-115.499-115.499h-153.003c-23.595 0-42.667-19.115-42.667-42.667v-554.667c0-23.595 19.072-42.667 42.667-42.667zM170.667 661.333h128c11.349 0 22.187 4.48 30.165 12.501l115.499 115.499h135.339l115.499-115.499c7.979-8.021 18.816-12.501 30.165-12.501h128v-469.333h-682.667v469.333z" />
<glyph unicode="&#xe93d;" glyph-name="camera-alt" d="M896 789.333h-85.333v42.667h-128v-42.667h-298.667v85.333h-170.667v-85.333h-85.333c-23.595 0-42.667-19.115-42.667-42.667v-597.333c0-23.552 19.072-42.667 42.667-42.667h768c23.595 0 42.667 19.115 42.667 42.667v597.333c0 23.552-19.072 42.667-42.667 42.667zM853.333 192h-682.667v256h170.667c0-92.501 78.165-170.667 170.667-170.667s170.667 78.165 170.667 170.667h170.667v-256zM426.667 448c0 45.44 39.893 85.333 85.333 85.333s85.333-39.893 85.333-85.333-39.893-85.333-85.333-85.333-85.333 39.893-85.333 85.333zM853.333 533.333h-195.115c-30.080 50.389-84.693 85.333-146.219 85.333s-116.139-34.944-146.219-85.333h-195.115v170.667h682.667v-170.667zM810.667 576v85.333h-85.333l0.427-85.333z" />
<glyph unicode="&#xe93e;" glyph-name="camera-off" d="M896 746.667h-153.003l-115.499 115.499c-7.979 8.021-18.816 12.501-30.165 12.501h-170.667c-11.307 0-22.187-4.48-30.165-12.501l-46.336-46.336 60.331-60.331 33.835 33.835h135.339l115.499-115.499c7.979-8.021 18.816-12.501 30.165-12.501h128v-348.672l85.333-85.333v476.672c0 23.552-19.072 42.667-42.667 42.667zM128 106.667h665.003l72.832-72.832 60.331 60.331-768 768-60.331-60.331 55.168-55.168h-25.003c-23.552 0-42.667-19.115-42.667-42.667v-554.667c0-23.552 19.115-42.667 42.667-42.667zM430.208 469.419l102.656-102.656c-28.501-6.528-60.544 0.213-81.195 20.864-15.701 15.701-24.32 37.12-24.32 60.331 0 7.467 1.152 14.549 2.859 21.461zM365.568 534.101c-14.976-25.728-23.552-55.040-23.552-86.101 0-46.037 17.536-88.875 49.323-120.661 31.787-31.829 74.667-49.323 120.661-49.323 31.104 0 60.373 8.576 86.144 23.552l109.525-109.568h-537.003v469.333h67.669l127.232-127.232z" />
<glyph unicode="&#xe93f;" glyph-name="capsule" d="M512.597 144.981l304.384 304.341c83.157 83.2 83.115 218.581-0.043 301.739-40.32 40.277-93.867 62.421-150.869 62.421-56.96 0-110.507-22.187-150.784-62.464l-304.384-304.341c-83.115-83.157-83.157-218.539-0.043-301.739 40.32-40.277 93.909-62.421 150.912-62.421 56.917 0 110.507 22.187 150.827 62.464zM575.573 690.688c24.149 24.149 56.277 37.461 90.453 37.461 34.219 0 66.389-13.312 90.539-37.461 49.92-49.877 49.92-131.115 0.043-181.035l-123.435-123.392-180.992 181.077 123.392 123.349zM271.189 205.269c-49.877 49.92-49.877 131.157 0 181.077l120.661 120.661 180.992-181.077-120.576-120.619c-48.384-48.384-132.779-48.256-181.077-0.043z" />
<glyph unicode="&#xe940;" glyph-name="captions" d="M896 789.333h-768c-23.595 0-42.667-19.072-42.667-42.667v-597.333c0-23.595 19.072-42.667 42.667-42.667h768c23.595 0 42.667 19.072 42.667 42.667v597.333c0 23.595-19.072 42.667-42.667 42.667zM853.333 192h-682.667v512h682.667v-512zM298.667 277.333h170.667v85.333h-128v170.667h128v85.333h-170.667c-23.595 0-42.667-19.072-42.667-42.667v-256c0-23.595 19.072-42.667 42.667-42.667zM597.333 277.333h170.667v85.333h-128v170.667h128v85.333h-170.667c-23.595 0-42.667-19.072-42.667-42.667v-256c0-23.595 19.072-42.667 42.667-42.667z" />
<glyph unicode="&#xe941;" glyph-name="car" d="M896 533.333h-49.195l-36.693 220.331c-3.456 20.565-21.248 35.669-42.112 35.669h-512c-20.864 0-38.656-15.104-42.069-35.669l-36.736-220.331h-49.195c-23.595 0-42.667-19.072-42.667-42.667v-256c0-23.595 19.072-42.667 42.667-42.667h42.667v-85.333c0-23.595 19.072-42.667 42.667-42.667h42.667c23.595 0 42.667 19.072 42.667 42.667v85.333h426.667v-85.333c0-23.595 19.072-42.667 42.667-42.667h42.667c23.595 0 42.667 19.072 42.667 42.667v85.333h42.667c23.595 0 42.667 19.072 42.667 42.667v256c0 23.595-19.072 42.667-42.667 42.667zM292.139 704h439.765l28.416-170.667h-496.597l28.416 170.667zM853.333 277.333h-682.667v170.667h682.667v-170.667zM213.333 405.333h85.333v-85.333h-85.333v85.333zM725.333 405.333h85.333v-85.333h-85.333v85.333z" />
<glyph unicode="&#xe942;" glyph-name="carousel" d="M896 746.667h-128v42.667c0 23.552-19.072 42.667-42.667 42.667h-426.667c-23.595 0-42.667-19.115-42.667-42.667v-42.667h-128c-23.595 0-42.667-19.115-42.667-42.667v-512c0-23.552 19.072-42.667 42.667-42.667h128v-42.667c0-23.552 19.072-42.667 42.667-42.667h426.667c23.595 0 42.667 19.115 42.667 42.667v42.667h128c23.595 0 42.667 19.115 42.667 42.667v512c0 23.552-19.072 42.667-42.667 42.667zM256 234.667h-85.333v426.667h85.333v-426.667zM682.667 149.333h-341.333v597.333h341.333v-597.333zM853.333 234.667h-85.333v426.667h85.333v-426.667z" />
<glyph unicode="&#xe943;" glyph-name="cart" d="M344.661 260.907c6.613-15.872 22.144-26.24 39.381-26.24h383.957c17.792 0 33.707 11.051 39.979 27.648l128 341.333c4.907 13.141 3.072 27.776-4.864 39.296-8.021 11.52-21.12 18.389-35.115 18.389h-625.792l-60.16 144.427c-6.613 15.872-22.144 26.24-39.381 26.24h-85.333v-85.333h56.875l202.453-485.76zM834.432 576l-96-256h-325.973l-106.667 256h528.64zM512 85.333c0-35.346-28.654-64-64-64s-64 28.654-64 64c0 35.346 28.654 64 64 64s64-28.654 64-64zM765.355 85.333c0-35.346-28.654-64-64-64s-64 28.654-64 64c0 35.346 28.654 64 64 64s64-28.654 64-64z" />
<glyph unicode="&#xe944;" glyph-name="cart-alt" d="M896 789.333h-810.667v-85.333h98.133l160.469-441.259c6.101-16.853 22.101-28.075 40.064-28.075h384v85.333h-354.133l-31.061 85.333h427.861c19.029 0 35.797 12.629 41.045 30.976l85.333 298.667c3.669 12.885 1.067 26.709-6.955 37.419-8.107 10.667-20.736 16.939-34.091 16.939zM778.496 490.667h-426.667l-77.568 213.333h565.163l-60.928-213.333zM512 85.333c0-35.346-28.654-64-64-64s-64 28.654-64 64c0 35.346 28.654 64 64 64s64-28.654 64-64zM765.355 85.333c0-35.346-28.654-64-64-64s-64 28.654-64 64c0 35.346 28.654 64 64 64s64-28.654 64-64z" />
<glyph unicode="&#xe945;" glyph-name="cast" d="M85.333 533.333v-85.333c211.712 0 384-172.288 384-384.043h85.333c0 258.816-210.56 469.376-469.333 469.376zM298.667 63.957h85.333c0 164.693-133.973 298.709-298.667 298.709v-85.333c117.632 0 213.333-95.701 213.333-213.376zM213.333 128c0-35.346-28.654-64-64-64s-64 28.654-64 64c0 35.346 28.654 64 64 64s64-28.654 64-64zM896 789.333h-768c-23.552 0-42.667-19.072-42.667-42.667v-128h85.333v85.333h682.667v-554.667h-213.333v-85.333h256c23.595 0 42.667 19.072 42.667 42.667v640c0 23.595-19.072 42.667-42.667 42.667z" />
<glyph unicode="&#xe946;" glyph-name="categories" d="M128 448c0-23.595 19.115-42.667 42.667-42.667h256c23.552 0 42.667 19.072 42.667 42.667v341.333c0 23.595-19.115 42.667-42.667 42.667h-256c-23.552 0-42.667-19.072-42.667-42.667v-341.333zM213.333 746.667h170.667v-256h-170.667v256zM128 64c0-23.595 19.115-42.667 42.667-42.667h256c23.552 0 42.667 19.072 42.667 42.667v213.333c0 23.595-19.115 42.667-42.667 42.667h-256c-23.552 0-42.667-19.072-42.667-42.667v-213.333zM213.333 234.667h170.667v-128h-170.667v128zM554.667 64c0-23.595 19.072-42.667 42.667-42.667h256c23.595 0 42.667 19.072 42.667 42.667v341.333c0 23.595-19.072 42.667-42.667 42.667h-256c-23.595 0-42.667-19.072-42.667-42.667v-341.333zM640 362.667h170.667v-256h-170.667v256zM554.667 789.333v-213.333c0-23.595 19.072-42.667 42.667-42.667h256c23.595 0 42.667 19.072 42.667 42.667v213.333c0 23.595-19.072 42.667-42.667 42.667h-256c-23.595 0-42.667-19.072-42.667-42.667zM640 746.667h170.667v-128h-170.667v128z" />
<glyph unicode="&#xe947;" glyph-name="chalkboard" d="M170.667 234.667c0-23.552 19.072-42.667 42.667-42.667h153.003l-97.835-97.835 60.331-60.331 158.165 158.165h50.005l158.165-158.165 60.331 60.331-97.835 97.835h153.003c23.595 0 42.667 19.115 42.667 42.667v469.333h85.333v85.333h-384v85.333h-85.333v-85.333h-384v-85.333h85.333v-469.333zM256 704h512v-426.667h-512v426.667z" />
<glyph unicode="&#xe948;" glyph-name="chart" d="M896 106.667v682.667c0 23.552-19.072 42.667-42.667 42.667h-682.667c-23.595 0-42.667-19.115-42.667-42.667v-682.667c0-23.552 19.072-42.667 42.667-42.667h682.667c23.595 0 42.667 19.115 42.667 42.667zM810.667 149.333h-597.333v597.333h597.333v-597.333zM442.923 434.816l135.339-67.669c20.096-10.027 44.203-2.859 55.68 16.213l128 213.333-73.173 43.904-107.648-179.456-135.339 67.669c-20.011 9.941-44.16 2.859-55.68-16.213l-128-213.333 73.173-43.904 107.648 179.456z" />
<glyph unicode="&#xe949;" glyph-name="check" d="M414.165 204.501l426.667 426.667-60.331 60.331-396.501-396.501-183.168 183.168-60.331-60.331 213.333-213.333c8.32-8.32 19.243-12.501 30.165-12.501s21.845 4.181 30.165 12.501z" />
<glyph unicode="&#xe94a;" glyph-name="checkbox" d="M256 746.667c-23.595 0-42.667-19.072-42.667-42.667v-512c0-23.595 19.072-42.667 42.667-42.667h512c23.595 0 42.667 19.072 42.667 42.667v512c0 23.595-19.072 42.667-42.667 42.667h-512zM725.333 234.667h-426.667v426.667h426.667v-426.667z" />
<glyph unicode="&#xe94b;" glyph-name="checkbox-checked" d="M256 149.333h512c23.595 0 42.667 19.072 42.667 42.667v409.003l115.499 115.499-60.331 60.331-353.835-353.835-97.835 97.835-60.331-60.331 158.165-158.165 213.333 213.333v-281.003h-426.667v426.667h306.005l85.333 85.333h-434.005c-23.595 0-42.667-19.072-42.667-42.667v-512c0-23.595 19.072-42.667 42.667-42.667z" />
<glyph unicode="&#xe94c;" glyph-name="checkbox-square" d="M810.667 192v512c0 23.595-19.072 42.667-42.667 42.667h-512c-23.595 0-42.667-19.072-42.667-42.667v-512c0-23.595 19.072-42.667 42.667-42.667h512c23.595 0 42.667 19.072 42.667 42.667zM725.333 234.667h-426.667v426.667h426.667v-426.667zM384 576h256v-256h-256v256z" />
<glyph unicode="&#xe94d;" glyph-name="chevron-down" d="M695.168 563.499l-183.168-183.168-183.168 183.168-60.331-60.331 243.499-243.499 243.499 243.499z" />
<glyph unicode="&#xe94e;" glyph-name="chevron-left" d="M567.168 691.499l-243.499-243.499 243.499-243.499 60.331 60.331-183.168 183.168 183.168 183.168z" />
<glyph unicode="&#xe94f;" glyph-name="chevron-right" d="M456.832 204.501l243.499 243.499-243.499 243.499-60.331-60.331 183.168-183.168-183.168-183.168z" />
<glyph unicode="&#xe950;" glyph-name="chevrons-down" d="M328.832 478.165l-60.331-60.331 243.499-243.499 243.499 243.499-60.331 60.331-183.168-183.168zM695.168 691.499l-183.168-183.168-183.168 183.168-60.331-60.331 243.499-243.499 243.499 243.499z" />
<glyph unicode="&#xe951;" glyph-name="chevrons-left" d="M542.165 264.832l-183.168 183.168 183.168 183.168-60.331 60.331-243.499-243.499 243.499-243.499zM695.168 691.499l-243.499-243.499 243.499-243.499 60.331 60.331-183.168 183.168 183.168 183.168z" />
<glyph unicode="&#xe952;" glyph-name="chevrons-right" d="M439.296 631.040l184.533-183.040-184.533-183.040 60.075-60.587 245.632 243.627-245.632 243.627zM286.037 204.373l245.632 243.627-245.632 243.627-60.075-60.587 184.533-183.040-184.533-183.040z" />
<glyph unicode="&#xe953;" glyph-name="chevrons-up" d="M512 721.664l-243.499-243.499 60.331-60.331 183.168 183.168 183.168-183.168 60.331 60.331zM268.501 264.832l60.331-60.331 183.168 183.168 183.168-183.168 60.331 60.331-243.499 243.499z" />
<glyph unicode="&#xe954;" glyph-name="chevron-up" d="M512 636.331l-243.499-243.499 60.331-60.331 183.168 183.168 183.168-183.168 60.331 60.331z" />
<glyph unicode="&#xe955;" glyph-name="chip" d="M853.333 746.667c0 23.595-19.072 42.667-42.667 42.667h-85.333v85.333h-85.333v-85.333h-85.333v85.333h-85.333v-85.333h-85.333v85.333h-85.333v-85.333h-85.333c-23.595 0-42.667-19.072-42.667-42.667v-85.333h-85.333v-85.333h85.333v-85.333h-85.333v-85.333h85.333v-85.333h-85.333v-85.333h85.333v-85.333c0-23.595 19.072-42.667 42.667-42.667h85.333v-85.333h85.333v85.333h85.333v-85.333h85.333v85.333h85.333v-85.333h85.333v85.333h85.333c23.595 0 42.667 19.072 42.667 42.667v85.333h85.333v85.333h-85.333v85.333h85.333v85.333h-85.333v85.333h85.333v85.333h-85.333v85.333zM768 192h-512v512h512v-512zM426.667 533.333h170.667v-170.667h-170.667v170.667z" />
<glyph unicode="&#xe956;" glyph-name="chrome" d="M512 874.667c-231.253 0-426.667-195.371-426.667-426.667s195.413-426.667 426.667-426.667c231.296 0 426.667 195.371 426.667 426.667s-195.371 426.667-426.667 426.667zM512 789.333c105.131 0 200.832-50.517 264.021-128h-264.021c-78.123 0-145.877-42.709-183.040-105.557l-57.472 131.797c62.251 62.464 147.755 101.76 240.512 101.76zM640 448c0-41.344-21.077-78.592-52.608-102.144l-0.981 0.811-3.712-4.608c-20.437-13.867-44.8-22.059-70.699-22.059-69.376 0-128 58.624-128 128s58.624 128 128 128 128-58.624 128-128zM408.021 123.691c-136.021 45.184-237.355 175.36-237.355 324.309 0 57.813 15.275 112.896 41.941 161.195l89.643-205.483 1.067 0.469c19.328-92.117 98.475-161.664 194.645-168.064l-89.941-112.427zM853.333 448c0-185.045-156.288-341.333-341.333-341.333-2.688 0-5.291 0.341-7.979 0.427l139.264 174.037c49.536 39.083 82.048 98.987 82.048 166.869 0 48.213-16.683 92.245-43.733 128h145.707c16.64-39.765 26.027-82.987 26.027-128z" />
<glyph unicode="&#xe957;" glyph-name="clipboard" d="M810.667 789.333h-128v42.667c0 23.595-19.072 42.667-42.667 42.667h-256c-23.595 0-42.667-19.072-42.667-42.667v-42.667h-128c-23.595 0-42.667-19.072-42.667-42.667v-682.667c0-23.595 19.072-42.667 42.667-42.667h597.333c23.595 0 42.667 19.072 42.667 42.667v682.667c0 23.595-19.072 42.667-42.667 42.667zM426.667 789.333h170.667v-85.333h-170.667v85.333zM768 106.667h-512v597.333h85.333v-42.667c0-23.595 19.072-42.667 42.667-42.667h256c23.595 0 42.667 19.072 42.667 42.667v42.667h85.333v-597.333z" />
<glyph unicode="&#xe958;" glyph-name="closet" d="M554.667 509.824v28.928c73.557 18.944 128 85.888 128 165.248 0 94.123-76.544 170.667-170.667 170.667s-170.667-76.544-170.667-170.667h85.333c0 47.061 38.272 85.333 85.333 85.333s85.333-38.272 85.333-85.333-38.272-85.333-85.333-85.333c-23.552 0-42.667-19.072-42.667-42.667v-66.176l-369.707-328.619c-13.227-11.733-17.792-30.507-11.52-47.061s22.187-27.477 39.893-27.477h768c17.707 0 33.579 10.965 39.893 27.52s1.707 35.285-11.563 47.061l-369.664 328.576zM240.213 192l271.787 241.579 271.787-241.579h-543.573z" />
<glyph unicode="&#xe959;" glyph-name="cloud" d="M808.277 485.888c-18.645 146.859-144.384 260.779-296.277 260.779-117.589 0-219.733-68.736-266.368-177.067-91.648-27.392-160.299-113.92-160.299-206.933 0-117.632 95.701-213.333 213.333-213.333h469.333c94.123 0 170.667 76.544 170.667 170.667 0 80.213-55.68 147.712-130.389 165.888zM768 234.667h-469.333c-70.571 0-128 57.429-128 128 0 59.904 51.157 117.589 114.048 128.64l24.789 4.352 8.192 23.808c29.995 87.509 104.491 141.867 194.304 141.867 117.632 0 213.333-95.701 213.333-213.333v-42.667h42.667c47.061 0 85.333-38.272 85.333-85.333s-38.272-85.333-85.333-85.333z" />
<glyph unicode="&#xe95a;" glyph-name="cloud-download" d="M298.667 149.333h42.667v85.333h-42.667c-70.571 0-128 57.429-128 128 0 59.904 51.157 117.632 114.048 128.683l24.789 4.352 8.192 23.808c29.995 87.509 104.491 141.824 194.304 141.824 117.632 0 213.333-95.701 213.333-213.333v-42.667h42.667c47.061 0 85.333-38.272 85.333-85.333s-38.272-85.333-85.333-85.333h-85.333v-85.333h85.333c94.123 0 170.667 76.544 170.667 170.667 0 80.256-55.68 147.712-130.389 165.888-18.645 146.859-144.384 260.779-296.277 260.779-117.589 0-219.733-68.693-266.368-177.024-91.648-27.435-160.299-113.963-160.299-206.976 0-117.632 95.701-213.333 213.333-213.333zM469.333 490.667v-170.667h-128l170.667-170.667 170.667 170.667h-128v170.667z" />
<glyph unicode="&#xe95b;" glyph-name="cloud-drizzle" d="M341.333 405.333h85.333v-128h-85.333v128zM341.333 234.667h85.333v-128h-85.333v128zM469.333 320h85.333v-128h-85.333v128zM469.333 149.333h85.333v-128h-85.333v128zM597.333 405.333h85.333v-128h-85.333v128zM597.333 234.667h85.333v-128h-85.333v128zM808.277 528.555c-18.645 146.859-144.384 260.779-296.277 260.779-117.547 0-219.733-68.736-266.368-177.067-91.648-27.392-160.299-113.877-160.299-206.933 0-117.632 95.701-213.333 213.333-213.333v85.333c-70.571 0-128 57.429-128 128 0 59.861 51.157 117.589 114.048 128.64l24.832 4.395 8.149 23.851c29.995 87.467 104.491 141.781 194.304 141.781 117.632 0 213.333-95.701 213.333-213.333v-42.667h42.667c47.061 0 85.333-38.272 85.333-85.333s-38.272-85.333-85.333-85.333h-42.667v-85.333h42.667c94.123 0 170.667 76.544 170.667 170.667 0 80.256-55.68 147.712-130.389 165.888z" />
<glyph unicode="&#xe95c;" glyph-name="cloud-lightning" d="M426.667 405.333l-42.667-213.333h85.333v-170.667l169.6 256h-84.267l42.667 128zM808.277 528.555c-18.645 146.859-144.384 260.779-296.277 260.779-117.589 0-219.733-68.736-266.368-177.067-91.648-27.392-160.299-113.877-160.299-206.933 0-117.632 95.701-213.333 213.333-213.333v85.333c-70.571 0-128 57.429-128 128 0 59.861 51.157 117.589 114.048 128.64l24.789 4.395 8.192 23.851c29.995 87.467 104.491 141.781 194.304 141.781 117.632 0 213.333-95.701 213.333-213.333v-42.667h42.667c47.061 0 85.333-38.272 85.333-85.333s-38.272-85.333-85.333-85.333h-42.667v-85.333h42.667c94.123 0 170.667 76.544 170.667 170.667 0 80.256-55.68 147.712-130.389 165.888z" />
<glyph unicode="&#xe95d;" glyph-name="cloud-light-rain" d="M341.333 405.333h85.333v-170.667h-85.333v170.667zM341.333 192h85.333v-85.333h-85.333v85.333zM469.333 320h85.333v-170.667h-85.333v170.667zM469.333 106.667h85.333v-85.333h-85.333v85.333zM597.333 405.333h85.333v-170.667h-85.333v170.667zM597.333 192h85.333v-85.333h-85.333v85.333zM808.277 528.555c-18.645 146.859-144.384 260.779-296.277 260.779-117.589 0-219.733-68.736-266.368-177.067-91.648-27.392-160.299-113.877-160.299-206.933 0-117.632 95.701-213.333 213.333-213.333v85.333c-70.571 0-128 57.429-128 128 0 59.861 51.157 117.589 114.048 128.64l24.789 4.395 8.192 23.851c29.995 87.467 104.491 141.781 194.304 141.781 117.632 0 213.333-95.701 213.333-213.333v-42.667h42.667c47.061 0 85.333-38.272 85.333-85.333s-38.272-85.333-85.333-85.333h-42.667v-85.333h42.667c94.123 0 170.667 76.544 170.667 170.667 0 80.256-55.68 147.712-130.389 165.888z" />
<glyph unicode="&#xe95e;" glyph-name="cloud-rain" d="M341.333 405.333h85.333v-298.667h-85.333v298.667zM469.333 320h85.333v-298.667h-85.333v298.667zM597.333 405.333h85.333v-298.667h-85.333v298.667zM808.277 528.512c-18.645 146.859-144.384 260.779-296.277 260.779-117.589 0-219.733-68.736-266.368-177.067-91.648-27.392-160.299-113.877-160.299-206.933 0-117.632 95.701-213.333 213.333-213.333v85.333c-70.571 0-128 57.429-128 128 0 59.861 51.157 117.589 114.048 128.64l24.789 4.395 8.192 23.851c29.995 87.467 104.491 141.781 194.304 141.781 117.632 0 213.333-95.701 213.333-213.333v-42.667h42.667c47.061 0 85.333-38.272 85.333-85.333s-38.272-85.333-85.333-85.333h-42.667v-85.333h42.667c94.123 0 170.667 76.544 170.667 170.667 0 80.256-55.68 147.712-130.389 165.888z" />
<glyph unicode="&#xe95f;" glyph-name="cloud-snow" d="M808.277 528.555c-18.645 146.859-144.384 260.779-296.277 260.779-117.589 0-219.733-68.736-266.368-177.067-91.648-27.392-160.299-113.877-160.299-206.933 0-117.632 95.701-213.333 213.333-213.333v85.333c-70.571 0-128 57.429-128 128 0 59.861 51.157 117.589 114.048 128.64l24.789 4.395 8.192 23.851c29.995 87.467 104.491 141.781 194.304 141.781 117.632 0 213.333-95.701 213.333-213.333v-42.667h42.667c47.061 0 85.333-38.272 85.333-85.333s-38.272-85.333-85.333-85.333h-42.667v-85.333h42.667c94.123 0 170.667 76.544 170.667 170.667 0 80.256-55.68 147.712-130.389 165.888zM682.667 277.333c0-23.564-19.103-42.667-42.667-42.667s-42.667 19.103-42.667 42.667c0 23.564 19.103 42.667 42.667 42.667s42.667-19.103 42.667-42.667zM682.667 149.333c0-23.564-19.103-42.667-42.667-42.667s-42.667 19.103-42.667 42.667c0 23.564 19.103 42.667 42.667 42.667s42.667-19.103 42.667-42.667zM554.667 192c0-23.564-19.103-42.667-42.667-42.667s-42.667 19.103-42.667 42.667c0 23.564 19.103 42.667 42.667 42.667s42.667-19.103 42.667-42.667zM554.667 64c0-23.564-19.103-42.667-42.667-42.667s-42.667 19.103-42.667 42.667c0 23.564 19.103 42.667 42.667 42.667s42.667-19.103 42.667-42.667zM426.667 149.333c0-23.564-19.103-42.667-42.667-42.667s-42.667 19.103-42.667 42.667c0 23.564 19.103 42.667 42.667 42.667s42.667-19.103 42.667-42.667zM426.667 277.333c0-23.564-19.103-42.667-42.667-42.667s-42.667 19.103-42.667 42.667c0 23.564 19.103 42.667 42.667 42.667s42.667-19.103 42.667-42.667z" />
<glyph unicode="&#xe960;" glyph-name="cloud-upload" d="M554.667 149.333v170.667h128l-170.667 170.667-170.667-170.667h128v-170.667zM298.667 149.333h85.333v85.333h-85.333c-70.571 0-128 57.429-128 128 0 59.904 51.157 117.589 114.048 128.64l24.789 4.352 8.192 23.808c29.995 87.509 104.491 141.867 194.304 141.867 117.632 0 213.333-95.701 213.333-213.333v-42.667h42.667c47.061 0 85.333-38.272 85.333-85.333s-38.272-85.333-85.333-85.333h-128v-85.333h128c94.123 0 170.667 76.544 170.667 170.667 0 80.213-55.68 147.712-130.389 165.888-18.645 146.859-144.384 260.779-296.277 260.779-117.589 0-219.733-68.736-266.368-177.067-91.648-27.392-160.299-113.92-160.299-206.933 0-117.632 95.701-213.333 213.333-213.333z" />
<glyph unicode="&#xe961;" glyph-name="code" d="M353.835 691.499l-243.499-243.499 243.499-243.499 60.331 60.331-183.168 183.168 183.168 183.168zM670.165 204.501l243.499 243.499-243.499 243.499-60.331-60.331 183.168-183.168-183.168-183.168z" />
<glyph unicode="&#xe962;" glyph-name="code-curly" d="M810.667 618.667c0 202.069-139.477 255.829-213.248 256l-0.555-85.333c13.141-0.256 128.469-7.381 128.469-170.667 0-85.035 35.456-138.496 80.085-170.667-44.629-32.171-80.085-85.632-80.085-170.667 0-163.285-115.328-170.411-128.469-170.667l0.469-42.667 0.085-42.667c73.771 0.171 213.248 53.931 213.248 256 0 120.448 106.837 127.744 128 128l0.256 85.333c-21.419 0.256-128.256 7.552-128.256 128zM213.333 277.333c0-202.069 139.477-255.829 213.248-256l0.555 85.333c-13.141 0.256-128.469 7.381-128.469 170.667 0 85.035-35.456 138.496-80.085 170.667 44.629 32.171 80.085 85.632 80.085 170.667 0 163.285 115.328 170.411 128.469 170.667l-0.469 42.667-0.085 42.667c-73.771-0.171-213.248-53.931-213.248-256 0-120.448-106.837-127.744-128-128l-0.256-85.333c21.419-0.256 128.256-7.552 128.256-128z" />
<glyph unicode="&#xe963;" glyph-name="codepen" d="M919.68 611.499l-384 256c-14.336 9.6-32.981 9.6-47.317 0l-384-256c-11.904-7.936-19.029-21.248-19.029-35.499v-256c0-14.251 7.125-27.563 18.987-35.499l384-256c7.168-4.779 15.445-7.168 23.68-7.168s16.512 2.389 23.68 7.168l384 256c11.861 7.936 18.987 21.248 18.987 35.499v256c0 14.251-7.125 27.563-18.987 35.499zM554.667 752.256l264.405-176.256-115.072-76.715-149.333 99.541v153.429zM469.333 752.256v-153.429l-149.333-99.541-115.072 76.715 264.405 176.256zM170.667 496.299l72.405-48.299-72.405-48.299v96.597zM469.333 143.744l-264.405 176.256 115.072 76.715 149.333-99.541v-153.429zM512 371.285l-115.072 76.715 115.072 76.715 115.072-76.715-115.072-76.715zM554.667 143.744v153.429l149.333 99.541 115.072-76.715-264.405-176.256zM853.333 399.701l-72.405 48.299 72.405 48.299v-96.597z" />
<glyph unicode="&#xe964;" glyph-name="coffee" d="M213.333 64h512c23.595 0 42.667 19.072 42.667 42.667v85.333h128c23.595 0 42.667 19.072 42.667 42.667v298.667c0 23.595-19.072 42.667-42.667 42.667h-128v42.667c0 23.595-19.072 42.667-42.667 42.667h-512c-23.595 0-42.667-19.072-42.667-42.667v-512c0-23.595 19.072-42.667 42.667-42.667zM853.333 490.667v-213.333h-85.333v213.333h85.333zM256 576h426.667v-426.667h-426.667v426.667zM256 874.667h85.333v-128h-85.333v128zM426.667 874.667h85.333v-128h-85.333v128zM597.333 874.667h85.333v-128h-85.333v128z" />
<glyph unicode="&#xe965;" glyph-name="cog" d="M512 277.333c94.123 0 170.667 76.544 170.667 170.667s-76.544 170.667-170.667 170.667-170.667-76.544-170.667-170.667 76.544-170.667 170.667-170.667zM512 533.333c46.251 0 85.333-39.083 85.333-85.333s-39.083-85.333-85.333-85.333-85.333 39.083-85.333 85.333 39.083 85.333 85.333 85.333zM95.744 340.821c-2.901-10.923-1.365-22.571 4.267-32.384l85.333-147.627c11.776-20.352 37.931-27.349 58.283-15.616l59.563 34.389c24.747-19.499 52.096-35.499 80.853-47.445v-68.139c0-23.552 19.072-42.667 42.667-42.667h170.667c23.595 0 42.667 19.115 42.667 42.667v68.181c28.757 11.947 56.064 27.947 80.853 47.445l59.563-34.389c20.309-11.733 46.464-4.736 58.283 15.616l85.333 147.627c5.632 9.771 7.168 21.419 4.267 32.384s-10.069 20.267-19.883 25.899l-58.496 33.792c2.219 15.744 3.371 31.616 3.371 47.445s-1.152 31.701-3.456 47.445l58.496 33.792c9.771 5.632 16.939 14.976 19.883 25.899s1.365 22.571-4.267 32.384l-85.333 147.627c-11.819 20.395-38.016 27.392-58.283 15.616l-59.563-34.389c-24.747 19.499-52.053 35.541-80.811 47.445v68.181c0 23.552-19.072 42.667-42.667 42.667h-170.667c-23.595 0-42.667-19.115-42.667-42.667v-68.181c-28.757-11.947-56.064-27.947-80.853-47.445l-59.52 34.389c-20.395 11.819-46.507 4.779-58.283-15.616l-85.333-147.627c-5.632-9.771-7.168-21.419-4.267-32.384s10.069-20.224 19.883-25.899l58.496-33.792c-2.304-15.744-3.456-31.616-3.456-47.445s1.152-31.701 3.456-47.445l-58.496-33.792c-9.813-5.675-16.939-14.976-19.883-25.941zM263.253 389.205c-4.779 19.328-7.253 39.125-7.253 58.795s2.475 39.467 7.253 58.795c4.608 18.475-3.541 37.76-20.053 47.275l-47.957 27.733 42.624 73.771 48.853-28.203c16.384-9.429 36.992-7.040 50.688 6.016 29.141 27.648 64.299 48.299 101.717 59.691 17.963 5.461 30.208 22.016 30.208 40.789v55.467h85.333v-55.467c0-18.773 12.245-35.328 30.208-40.832 37.419-11.392 72.576-32.043 101.717-59.691 13.696-13.013 34.347-15.445 50.688-6.016l48.853 28.203 42.624-73.771-47.957-27.691c-16.512-9.515-24.661-28.8-20.053-47.275 4.779-19.328 7.253-39.125 7.253-58.795s-2.475-39.467-7.253-58.795c-4.608-18.475 3.541-37.76 20.053-47.275l47.957-27.733-42.624-73.771-48.853 28.203c-16.384 9.429-36.992 7.040-50.688-6.016-29.141-27.648-64.299-48.299-101.717-59.691-17.963-5.461-30.208-22.016-30.208-40.789v-55.467h-85.333v55.467c0 18.773-12.245 35.328-30.208 40.832-37.419 11.392-72.576 32.043-101.717 59.691-13.696 13.013-34.347 15.445-50.688 6.016l-48.853-28.203-42.624 73.771 47.957 27.733c16.512 9.472 24.661 28.757 20.053 47.232z" />
<glyph unicode="&#xe966;" glyph-name="collapse" d="M200.832 76.501l135.339 135.339 90.496-90.496v241.323h-241.323l90.496-90.496-135.339-135.339zM823.168 819.499l-135.339-135.339-90.496 90.496v-241.323h241.323l-90.496 90.496 135.339 135.339zM597.333 362.667v-241.323l90.496 90.496 135.339-135.339 60.331 60.331-135.339 135.339 90.496 90.496zM426.667 774.656l-90.496-90.496-135.339 135.339-60.331-60.331 135.339-135.339-90.496-90.496h241.323z" />
<glyph unicode="&#xe967;" glyph-name="collection" d="M853.333 533.333h-682.667c-23.595 0-42.667-19.072-42.667-42.667v-426.667c0-23.595 19.072-42.667 42.667-42.667h682.667c23.595 0 42.667 19.072 42.667 42.667v426.667c0 23.595-19.072 42.667-42.667 42.667zM810.667 106.667h-597.333v341.333h597.333v-341.333zM213.333 704h597.333v-85.333h-597.333v85.333zM298.667 874.667h426.667v-85.333h-426.667v85.333z" />
<glyph unicode="&#xe968;" glyph-name="columns" d="M896 789.333h-768c-23.595 0-42.667-19.115-42.667-42.667v-597.333c0-23.552 19.072-42.667 42.667-42.667h768c23.595 0 42.667 19.115 42.667 42.667v597.333c0 23.552-19.072 42.667-42.667 42.667zM170.667 192v512h170.667v-512h-170.667zM426.667 192v512h170.667v-512h-170.667zM853.333 192h-170.667v512h170.667v-512z" />
<glyph unicode="&#xe969;" glyph-name="command" d="M256 362.667c-94.123 0-170.667-76.544-170.667-170.667s76.544-170.667 170.667-170.667c93.824 0 170.112 76.117 170.581 169.813h0.085v86.187h170.667v-86.997h0.171c0.896-93.312 76.971-169.003 170.496-169.003 94.123 0 170.667 76.544 170.667 170.667s-76.544 170.667-170.667 170.667h-85.333v170.667h85.333c94.123 0 170.667 76.544 170.667 170.667s-76.544 170.667-170.667 170.667-170.667-76.544-170.667-170.667v-85.333h-170.667v86.187h-0.085c-0.469 93.696-76.757 169.813-170.581 169.813-94.123 0-170.667-76.544-170.667-170.667s76.544-170.667 170.667-170.667h85.333v-170.667h-85.333zM341.333 192c0-47.872-37.504-85.333-85.333-85.333s-85.333 37.461-85.333 85.333 37.504 85.333 85.333 85.333h85.333v-85.333zM682.667 704c0 47.872 37.504 85.333 85.333 85.333s85.333-37.461 85.333-85.333-37.504-85.333-85.333-85.333h-85.333v85.333zM682.667 277.333h85.333c47.829 0 85.333-37.461 85.333-85.333s-37.504-85.333-85.333-85.333-85.333 37.461-85.333 85.333v85.333zM426.667 533.333h170.667v-170.667h-170.667v170.667zM256 618.667c-47.829 0-85.333 37.461-85.333 85.333s37.504 85.333 85.333 85.333 85.333-37.461 85.333-85.333v-85.333h-85.333z" />
<glyph unicode="&#xe96a;" glyph-name="compass" d="M512 874.667c-235.264 0-426.667-191.403-426.667-426.667s191.403-426.667 426.667-426.667 426.667 191.403 426.667 426.667-191.403 426.667-426.667 426.667zM512 106.667c-188.203 0-341.333 153.131-341.333 341.333s153.131 341.333 341.333 341.333 341.333-153.131 341.333-341.333-153.131-341.333-341.333-341.333zM341.333 277.333l255.616 85.717 85.717 255.616-256-85.333z" />
<glyph unicode="&#xe96b;" glyph-name="contact" d="M896 874.667h-682.667c-23.595 0-42.667-19.072-42.667-42.667v-170.667h-85.333v-85.333h85.333v-85.333h-85.333v-85.333h85.333v-85.333h-85.333v-85.333h85.333v-170.667c0-23.595 19.072-42.667 42.667-42.667h682.667c23.595 0 42.667 19.072 42.667 42.667v768c0 23.595-19.072 42.667-42.667 42.667zM853.333 106.667h-597.333v682.667h597.333v-682.667zM554.667 405.333c115.541 0 128-119.339 128-170.667h85.333c0 105.259-36.907 182.997-100.096 223.787 22.187 26.027 36.096 59.392 36.096 96.213 0 82.347-66.987 149.333-149.333 149.333s-149.333-66.987-149.333-149.333c0-36.821 13.909-70.187 36.096-96.213-63.189-40.789-100.096-118.528-100.096-223.787h85.333c0 51.328 12.459 170.667 128 170.667zM490.667 554.667c0 35.285 28.715 64 64 64s64-28.715 64-64-28.715-64-64-64-64 28.715-64 64z" />
<glyph unicode="&#xe96c;" glyph-name="conversation" d="M128 789.333v-512c0-16.427 9.429-31.317 24.149-38.443 5.931-2.859 12.245-4.224 18.517-4.224 9.515 0 18.944 3.157 26.667 9.344l201.643 161.323h283.691c23.595 0 42.667 19.072 42.667 42.667v341.333c0 23.595-19.072 42.667-42.667 42.667h-512c-23.595 0-42.667-19.072-42.667-42.667zM213.333 746.667h426.667v-256h-256c-9.728 0-19.072-3.285-26.667-9.344l-144-115.2v380.544zM826.667 73.344c7.723-6.187 17.152-9.344 26.667-9.344 6.272 0 12.629 1.365 18.517 4.224 14.72 7.125 24.149 22.016 24.149 38.443v512h-85.333v-423.211l-144 115.2c-7.595 6.059-16.939 9.344-26.667 9.344h-213.333v-85.333h198.357l201.643-161.323z" />
<glyph unicode="&#xe96d;" glyph-name="copy" d="M640 618.667h-512c-23.595 0-42.667-19.072-42.667-42.667v-512c0-23.595 19.072-42.667 42.667-42.667h512c23.595 0 42.667 19.072 42.667 42.667v512c0 23.595-19.072 42.667-42.667 42.667zM597.333 106.667h-426.667v426.667h426.667v-426.667zM896 874.667h-512c-23.595 0-42.667-19.072-42.667-42.667v-128h85.333v85.333h426.667v-426.667h-85.333v-85.333h128c23.595 0 42.667 19.072 42.667 42.667v512c0 23.595-19.072 42.667-42.667 42.667z" />
<glyph unicode="&#xe96e;" glyph-name="copyright" d="M512 21.333c231.296 0 426.667 195.371 426.667 426.667s-195.371 426.667-426.667 426.667-426.667-195.371-426.667-426.667 195.371-426.667 426.667-426.667zM512 789.333c185.045 0 341.333-156.288 341.333-341.333s-156.288-341.333-341.333-341.333-341.333 156.288-341.333 341.333 156.288 341.333 341.333 341.333zM512 234.667c38.443 0 110.123 7.168 158.165 55.125l-60.331 60.416c-18.901-18.901-55.509-30.208-97.835-30.208-69.376 0-128 58.624-128 128s58.624 128 128 128c42.368 0 78.976-11.307 97.835-30.165l60.331 60.331c-48 48-119.723 55.168-158.165 55.168-117.632 0-213.333-95.701-213.333-213.333s95.701-213.333 213.333-213.333z" />
<glyph unicode="&#xe96f;" glyph-name="coupon" d="M896 746.667h-768c-23.595 0-42.667-19.072-42.667-42.667v-170.667c0-23.595 19.072-42.667 42.667-42.667 35.285 0 64-28.715 64-64s-28.715-64-64-64c-23.595 0-42.667-19.072-42.667-42.667v-128c0-23.595 19.072-42.667 42.667-42.667h768c23.595 0 42.667 19.072 42.667 42.667v128c0 23.595-19.072 42.667-42.667 42.667-35.285 0-64 28.715-64 64s28.715 64 64 64c23.595 0 42.667 19.072 42.667 42.667v170.667c0 23.595-19.072 42.667-42.667 42.667zM853.333 569.771c-61.611-18.432-106.667-75.563-106.667-143.104s45.056-124.715 106.667-143.104v-48.896h-384v85.333h-85.333v-85.333h-213.333v48.896c61.611 18.432 106.667 75.563 106.667 143.104s-45.056 124.715-106.667 143.104v91.563h213.333v-85.333h85.333v85.333h384v-91.563zM384 490.667h85.333v-85.333h-85.333v85.333z" />
<glyph unicode="&#xe970;" glyph-name="credit-card" d="M896 789.333h-768c-23.595 0-42.667-19.072-42.667-42.667v-597.333c0-23.595 19.072-42.667 42.667-42.667h768c23.595 0 42.667 19.072 42.667 42.667v597.333c0 23.595-19.072 42.667-42.667 42.667zM853.333 704v-85.333h-682.667v85.333h682.667zM170.667 192v256h682.667v-256h-682.667zM256 362.667h256v-85.333h-256v85.333z" />
<glyph unicode="&#xe971;" glyph-name="crop" d="M341.333 874.667h-85.333v-170.667h-170.667v-85.333h170.667v-384c0-23.552 19.072-42.667 42.667-42.667h384v-170.667h85.333v170.667h170.667v85.333h-597.333v597.333zM768 362.667v298.667c0 23.552-19.072 42.667-42.667 42.667h-298.667v-85.333h256v-256h85.333z" />
<glyph unicode="&#xe972;" glyph-name="crosshair" d="M512 874.667c-235.264 0-426.667-191.403-426.667-426.667s191.403-426.667 426.667-426.667 426.667 191.403 426.667 426.667-191.403 426.667-426.667 426.667zM850.389 405.333c-19.328-154.069-141.611-276.395-295.723-295.723v125.056h-85.333v-125.056c-154.069 19.328-276.395 141.653-295.723 295.723h125.056v85.333h-125.056c19.328 154.069 141.653 276.395 295.723 295.723v-125.056h85.333v125.056c154.069-19.328 276.395-141.611 295.723-295.723h-125.056v-85.333h125.056z" />
<glyph unicode="&#xe973;" glyph-name="crown" d="M170.667 64h682.667c23.595 0 42.667 19.115 42.667 42.667v682.667c0 18.133-11.477 34.261-28.544 40.277-17.067 5.888-36.096 0.512-47.445-13.611l-137.344-171.691-137.344 171.691c-16.256 20.267-50.432 20.267-66.688 0l-137.301-171.691-137.344 171.691c-11.349 14.165-30.421 19.584-47.445 13.611-17.067-6.016-28.544-22.144-28.544-40.277v-682.667c0-23.552 19.072-42.667 42.667-42.667zM213.333 149.333v85.333h597.333v-85.333h-597.333zM308.011 549.333c16.256-20.267 50.432-20.267 66.688 0l137.301 171.691 137.344-171.691c16.256-20.267 50.432-20.267 66.688 0l94.635 118.357v-347.691h-597.333v347.691l94.677-118.357z" />
<glyph unicode="&#xe974;" glyph-name="cube" d="M86.144 235.051c0-16.683 9.728-31.787 24.832-38.741l383.189-176.299c0.64-0.299 1.365-0.171 2.005-0.469 5.12-2.048 10.411-3.456 15.829-3.456s10.667 1.365 15.701 3.413c0.683 0.256 1.408 0.171 2.091 0.469l383.189 175.915c15.147 6.955 24.875 22.144 24.875 38.784v426.667c0 0 0 0 0 0.043v0c0 0.085-0.043 0.171-0.043 0.256 0 3.84-0.64 7.595-1.664 11.221-0.341 1.195-0.896 2.261-1.323 3.413-0.896 2.432-1.92 4.736-3.2 6.955-0.811 1.28-1.664 2.389-2.56 3.541-1.408 1.877-2.901 3.669-4.608 5.291-1.109 1.067-2.304 2.048-3.541 2.944-0.896 0.725-1.579 1.536-2.56 2.176-1.109 0.768-2.432 1.109-3.584 1.749-0.811 0.384-1.365 0.981-2.219 1.365l-383.189 170.667c-11.093 4.907-23.68 4.907-34.731 0l-383.189-170.667c-0.853-0.384-1.493-0.981-2.261-1.408-1.195-0.64-2.432-1.024-3.541-1.707-0.939-0.64-1.664-1.451-2.56-2.176-1.237-0.896-2.432-1.877-3.541-2.944-1.707-1.621-3.2-3.413-4.608-5.291-0.896-1.152-1.749-2.261-2.56-3.541-1.28-2.219-2.304-4.565-3.2-6.955-0.427-1.195-1.024-2.219-1.323-3.413-1.067-3.627-1.664-7.381-1.664-11.221 0-0.085-0.043-0.171-0.043-0.256v0c0-0.043 0-0.043 0-0.043v-426.283zM171.477 595.413l297.856-133.717v-336.384l-297.856 137.045v333.056zM852.523 262.059l-297.856-136.747v336.427l297.856 133.717v-333.397zM512 785.28l278.656-124.117-278.656-125.099-278.656 125.099 278.656 124.117z" />
<glyph unicode="&#xe975;" glyph-name="cut" d="M347.819 344.149c-21.077 11.435-44.843 18.517-70.485 18.517-82.347 0-149.333-66.987-149.333-149.333s66.987-149.333 149.333-149.333 149.333 66.987 149.333 149.333c0 25.643-7.083 49.408-18.517 70.485l103.851 103.851 281.003-281.003h120.661l-505.515 505.515c11.435 21.077 18.517 44.843 18.517 70.485 0 82.347-66.987 149.333-149.333 149.333s-149.333-66.987-149.333-149.333 66.987-149.333 149.333-149.333c25.643 0 49.408 7.083 70.485 18.517l103.851-103.851-103.851-103.851zM277.333 149.333c-35.285 0-64 28.715-64 64s28.715 64 64 64 64-28.715 64-64-28.715-64-64-64zM213.333 682.667c0 35.285 28.715 64 64 64s64-28.715 64-64-28.715-64-64-64-64 28.715-64 64zM567.168 563.499l60.331-60.331 286.165 286.165h-120.661z" />
<glyph unicode="&#xe976;" glyph-name="dashboard" d="M512.427 874.667c-113.749 0-220.928-44.544-301.739-125.355-166.357-166.315-166.357-437.035 0-603.392 80.853-80.853 187.989-125.355 301.739-125.355s220.885 44.501 301.653 125.312c166.357 166.315 166.357 437.035 0 603.477-80.811 80.811-187.947 125.312-301.653 125.312zM753.749 206.208c-64.683-64.683-150.357-100.309-241.323-100.309s-176.725 35.627-241.408 100.352c-9.088 9.088-17.451 18.645-25.259 28.416h533.291c-7.893-9.813-16.213-19.371-25.301-28.459zM850.645 405.333c-3.584-29.099-10.624-57.771-21.717-85.333h-633.088c-11.093 27.563-18.133 56.235-21.717 85.333h81.877v85.333h-81.749c7.467 59.179 30.293 116.651 68.651 166.059l57.899-57.899 60.331 60.331-57.941 57.941c48.469 37.803 105.472 61.525 166.144 69.205v-82.304h85.333v82.432c67.669-8.363 130.773-36.821 182.571-82.475l-189.952-135.68c-10.709 4.864-22.443 7.723-34.944 7.723-46.891 0-84.949-38.101-84.949-84.907 0-46.976 38.101-85.035 84.949-85.035 46.933 0 84.992 38.101 84.992 85.035 0 2.603-0.555 5.035-0.768 7.595l197.632 141.184c31.019-45.397 49.664-96.64 56.277-149.163h-82.475v-85.333h82.645z" />
<glyph unicode="&#xe977;" glyph-name="data" d="M170.667 661.333v-426.667c0-92.501 156.288-170.667 341.333-170.667s341.333 78.165 341.333 170.667v426.667c0 92.501-156.288 170.667-341.333 170.667s-341.333-78.165-341.333-170.667zM768 234.923c-2.944-21.291-98.517-85.589-256-85.589s-253.056 64.299-256 85.333v102.101c63.104-36.139 155.179-59.435 256-59.435s192.896 23.296 256 59.435v-101.845zM768 448.256c-2.944-21.291-98.517-85.589-256-85.589s-253.056 64.299-256 85.333v102.101c63.104-36.139 155.179-59.435 256-59.435s192.896 23.296 256 59.435v-101.845zM768 661.589c-2.944-21.291-98.517-85.589-256-85.589s-253.056 64.299-256 85.077c2.944 21.291 98.517 85.589 256 85.589s253.056-64.299 256-85.077z" />
<glyph unicode="&#xe978;" glyph-name="desktop" d="M896 789.333h-768c-23.595 0-42.667-19.072-42.667-42.667v-512c0-23.595 19.072-42.667 42.667-42.667h341.333v-85.333h-85.333v-85.333h256v85.333h-85.333v85.333h341.333c23.595 0 42.667 19.072 42.667 42.667v512c0 23.595-19.072 42.667-42.667 42.667zM853.333 320h-682.667v384h682.667v-384z" />
<glyph unicode="&#xe979;" glyph-name="detail" d="M256 661.333h512v-85.333h-512v85.333zM256 490.667h383.573v-85.333h-383.573v85.333zM256 320h256v-85.333h-256v85.333zM896 832h-768c-23.595 0-42.667-19.072-42.667-42.667v-682.667c0-23.595 19.072-42.667 42.667-42.667h768c23.595 0 42.667 19.072 42.667 42.667v682.667c0 23.595-19.072 42.667-42.667 42.667zM853.333 149.333h-682.667v597.333h682.667v-597.333z" />
<glyph unicode="&#xe97a;" glyph-name="diamond" d="M712.832 776.832c-7.979 8.021-18.816 12.501-30.165 12.501h-341.333c-11.349 0-22.187-4.48-30.165-12.501l-213.333-213.333c-16.683-16.683-16.683-43.648 0-60.331l384-384c8.32-8.32 19.243-12.501 30.165-12.501s21.845 4.181 30.165 12.501l384 384c16.683 16.683 16.683 43.648 0 60.331l-213.333 213.333zM512 209.664l-323.669 323.669 170.667 170.667h306.005l170.667-170.667-323.669-323.669z" />
<glyph unicode="&#xe97b;" glyph-name="directions" d="M798.165 520.832c-7.979 8.021-18.816 12.501-30.165 12.501h-213.333v341.333h-85.333v-42.667h-213.333c-11.307 0-22.187-4.48-30.165-12.501l-128-128c-16.683-16.683-16.683-43.648 0-60.331l128-128c7.979-8.021 18.859-12.501 30.165-12.501h213.333v-469.333h85.333v170.667h213.333c11.349 0 22.187 4.48 30.165 12.501l128 128c16.683 16.683 16.683 43.648 0 60.331l-128 128zM469.333 576h-195.669l-85.333 85.333 85.333 85.333h195.669v-170.667zM750.336 277.333h-195.669v170.667h195.669l85.333-85.333-85.333-85.333z" />
<glyph unicode="&#xe97c;" glyph-name="discount" d="M896 746.667h-768c-23.595 0-42.667-19.072-42.667-42.667v-170.667c0-23.595 19.072-42.667 42.667-42.667 35.285 0 64-28.715 64-64s-28.715-64-64-64c-23.595 0-42.667-19.072-42.667-42.667v-128c0-23.595 19.072-42.667 42.667-42.667h768c23.595 0 42.667 19.072 42.667 42.667v128c0 23.595-19.072 42.667-42.667 42.667-35.285 0-64 28.715-64 64s28.715 64 64 64c23.595 0 42.667 19.072 42.667 42.667v170.667c0 23.595-19.072 42.667-42.667 42.667zM853.333 569.771c-61.611-18.432-106.667-75.563-106.667-143.104s45.056-124.715 106.667-143.104v-48.896h-682.667v48.896c61.611 18.432 106.667 75.563 106.667 143.104s-45.056 124.715-106.667 143.104v91.563h682.667v-91.563zM426.667 533.333c0-23.564-19.103-42.667-42.667-42.667s-42.667 19.103-42.667 42.667c0 23.564 19.103 42.667 42.667 42.667s42.667-19.103 42.667-42.667zM682.667 362.667c0-23.564-19.103-42.667-42.667-42.667s-42.667 19.103-42.667 42.667c0 23.564 19.103 42.667 42.667 42.667s42.667-19.103 42.667-42.667zM632.821 552.331l-170.664-256.012-71.006 47.334 170.664 256.012 71.006-47.334z" />
<glyph unicode="&#xe97d;" glyph-name="dislike" d="M896 832h-640c-17.792 0-33.707-11.051-39.979-27.691l-128-341.333c-1.792-4.779-2.688-9.856-2.688-14.976v-128c0-23.552 19.072-42.667 42.667-42.667h282.112l-66.603-199.851c-4.395-13.013-2.176-27.307 5.845-38.443 8.064-11.136 20.949-17.707 34.645-17.707h128c12.672 0 24.661 5.632 32.811 15.36l200.533 240.64h150.656c23.595 0 42.667 19.115 42.667 42.667v469.333c0 23.552-19.072 42.667-42.667 42.667zM491.989 106.667h-48.811l66.603 199.851c4.395 13.013 2.176 27.307-5.845 38.443s-20.907 17.707-34.603 17.707h-298.667v77.611l114.901 306.389h397.099v-411.221l-190.677-228.779zM853.333 362.667h-85.333v384h85.333v-384z" />
<glyph unicode="&#xe97e;" glyph-name="dock-bottom" d="M853.333 832h-682.667c-23.595 0-42.667-19.072-42.667-42.667v-682.667c0-23.595 19.072-42.667 42.667-42.667h682.667c23.595 0 42.667 19.072 42.667 42.667v682.667c0 23.595-19.072 42.667-42.667 42.667zM810.667 149.333h-597.333v128h597.333v-128zM810.667 362.667h-597.333v384h597.333v-384z" />
<glyph unicode="&#xe97f;" glyph-name="dock-left" d="M170.667 64h682.667c23.595 0 42.667 19.072 42.667 42.667v682.667c0 23.595-19.072 42.667-42.667 42.667h-682.667c-23.595 0-42.667-19.072-42.667-42.667v-682.667c0-23.595 19.072-42.667 42.667-42.667zM426.667 746.667h384v-597.333h-384v597.333zM213.333 746.667h128v-597.333h-128v597.333z" />
<glyph unicode="&#xe980;" glyph-name="dock-right" d="M853.333 832h-682.667c-23.595 0-42.667-19.072-42.667-42.667v-682.667c0-23.595 19.072-42.667 42.667-42.667h682.667c23.595 0 42.667 19.072 42.667 42.667v682.667c0 23.595-19.072 42.667-42.667 42.667zM597.333 149.333h-384v597.333h384v-597.333zM810.667 149.333h-128v597.333h128v-597.333z" />
<glyph unicode="&#xe981;" glyph-name="dock-top" d="M853.333 832h-682.667c-23.595 0-42.667-19.072-42.667-42.667v-682.667c0-23.595 19.072-42.667 42.667-42.667h682.667c23.595 0 42.667 19.072 42.667 42.667v682.667c0 23.595-19.072 42.667-42.667 42.667zM810.667 149.333h-597.333v384h597.333v-384zM810.667 618.667h-597.333v128h597.333v-128z" />
<glyph unicode="&#xe982;" glyph-name="dollar" d="M554.624 21.845v86.869c156.117 13.952 213.333 104.533 213.333 189.952 0 121.472-120.363 182.656-213.333 190.933v212.608c91.477-7.424 151.040-36.139 151.723-36.437l38.059 76.416c-3.456 1.707-77.184 37.632-189.739 45.483v86.997h-85.333v-87.381c-156.117-13.952-213.333-104.533-213.333-189.952 0-121.472 120.363-182.656 213.333-190.933v-212.651c-91.477 7.467-151.040 36.139-151.595 36.437l-38.187-76.331c3.456-1.707 77.184-37.632 189.739-45.44v-86.528h85.333zM554.624 403.755c58.368-7.424 128-44.075 128-105.088 0-58.24-46.208-95.019-128-104.192v209.28zM341.291 597.333c0 59.264 45.227 95.403 128 104.32v-209.493c-53.504 6.997-128 39.211-128 105.173z" />
<glyph unicode="&#xe983;" glyph-name="dollar-circle" d="M512 874.667c-235.264 0-426.667-191.403-426.667-426.667s191.403-426.667 426.667-426.667 426.667 191.403 426.667 426.667c0 235.264-191.403 426.667-426.667 426.667zM512 106.667c-188.203 0-341.333 153.131-341.333 341.333s153.131 341.333 341.333 341.333 341.333-153.131 341.333-341.333-153.131-341.333-341.333-341.333zM554.667 490.667h-84.821c-19.712 0.512-43.179 8.32-43.179 42.667s23.467 42.155 42.667 42.667h170.667v85.333h-85.333v42.667h-85.333v-42.667c-51.456 0-128-34.091-128-128s76.544-128 128-128h84.821c19.712-0.512 43.179-8.277 43.179-42.667s-23.467-42.155-42.667-42.667h-170.667v-85.333h85.333v-42.667h85.333v42.667c51.456 0 128 34.091 128 128s-76.544 128-128 128z" />
<glyph unicode="&#xe984;" glyph-name="dots-horizontal" d="M426.667 533.333h170.667v-170.667h-170.667v170.667zM682.667 533.333h170.667v-170.667h-170.667v170.667zM170.667 533.333h170.667v-170.667h-170.667v170.667z" />
<glyph unicode="&#xe985;" glyph-name="dots-horizontal-rounded" d="M512 533.333c-46.933 0-85.333-38.4-85.333-85.333s38.4-85.333 85.333-85.333 85.333 38.4 85.333 85.333-38.4 85.333-85.333 85.333zM768 533.333c-46.933 0-85.333-38.4-85.333-85.333s38.4-85.333 85.333-85.333 85.333 38.4 85.333 85.333-38.4 85.333-85.333 85.333zM256 533.333c-46.933 0-85.333-38.4-85.333-85.333s38.4-85.333 85.333-85.333 85.333 38.4 85.333 85.333-38.4 85.333-85.333 85.333z" />
<glyph unicode="&#xe986;" glyph-name="dots-vertical" d="M426.667 533.333h170.667v-170.667h-170.667v170.667zM426.667 789.333h170.667v-170.667h-170.667v170.667zM426.667 277.333h170.667v-170.667h-170.667v170.667z" />
<glyph unicode="&#xe987;" glyph-name="dots-vertical-rounded" d="M512 533.333c-46.933 0-85.333-38.4-85.333-85.333s38.4-85.333 85.333-85.333 85.333 38.4 85.333 85.333-38.4 85.333-85.333 85.333zM512 789.333c-46.933 0-85.333-38.4-85.333-85.333s38.4-85.333 85.333-85.333 85.333 38.4 85.333 85.333-38.4 85.333-85.333 85.333zM512 277.333c-46.933 0-85.333-38.4-85.333-85.333s38.4-85.333 85.333-85.333 85.333 38.4 85.333 85.333-38.4 85.333-85.333 85.333z" />
<glyph unicode="&#xe988;" glyph-name="down-arrow-circle" d="M512 874.667c-235.264 0-426.667-191.403-426.667-426.667s191.403-426.667 426.667-426.667c235.264 0 426.667 191.403 426.667 426.667s-191.403 426.667-426.667 426.667zM512 106.667c-188.203 0-341.333 153.131-341.333 341.333s153.131 341.333 341.333 341.333 341.333-153.131 341.333-341.333-153.131-341.333-341.333-341.333zM554.667 618.667h-85.333v-170.667h-128l170.667-170.667 170.667 170.667h-128z" />
<glyph unicode="&#xe989;" glyph-name="down-arrow-outline" d="M810.667 704h-597.333c-15.573 0-29.909-8.491-37.419-22.144-7.467-13.653-6.955-30.293 1.408-43.477l298.667-469.333c7.851-12.245 21.419-19.712 36.011-19.712s28.16 7.467 36.011 19.755l298.667 469.333c8.363 13.141 8.875 29.781 1.408 43.477-7.509 13.611-21.845 22.101-37.419 22.101zM512 271.488l-220.971 347.179h441.899l-220.928-347.179z" />
<glyph unicode="&#xe98a;" glyph-name="download" d="M469.333 789.333v-341.333h-128l170.667-170.667 170.667 170.667h-128v341.333zM853.333 192h-682.667v341.333h-85.333v-384c0-23.595 19.072-42.667 42.667-42.667h768c23.595 0 42.667 19.072 42.667 42.667v384h-85.333v-341.333z" />
<glyph unicode="&#xe98b;" glyph-name="download-alt" d="M170.667 106.667h682.667v85.333h-288l236.8 315.733c9.728 12.928 11.264 30.208 4.053 44.672-7.253 14.464-22.016 23.595-38.187 23.595h-85.333v170.667c0 23.595-19.072 42.667-42.667 42.667h-256c-23.595 0-42.667-19.072-42.667-42.667v-170.667h-85.333c-16.171 0-30.933-9.131-38.187-23.595-7.168-14.464-5.632-31.744 4.053-44.672l236.8-315.733h-288v-85.333zM384 490.667c23.595 0 42.667 19.072 42.667 42.667v170.667h170.667v-170.667c0-23.595 19.072-42.667 42.667-42.667h42.667l-170.667-227.541-170.667 227.541h42.667z" />
<glyph unicode="&#xe98c;" glyph-name="downvote" d="M640 874.667h-256c-23.595 0-42.667-19.072-42.667-42.667v-298.667h-170.667c-16.427 0-31.317-9.429-38.443-24.149-7.083-14.805-5.12-32.341 5.12-45.184l341.333-426.667c8.107-10.112 20.352-16 33.323-16s25.216 5.888 33.323 16l341.333 426.667c10.24 12.843 12.203 30.379 5.12 45.184-7.125 14.72-22.016 24.149-38.443 24.149h-170.667v298.667c0 23.595-19.072 42.667-42.667 42.667zM764.544 448l-252.544-315.691-252.544 315.691h124.544c23.595 0 42.667 19.072 42.667 42.667v298.667h170.667v-298.667c0-23.595 19.072-42.667 42.667-42.667h124.544z" />
<glyph unicode="&#xe98d;" glyph-name="dribbble" d="M512 874.667c-231.296 0-426.667-195.371-426.667-426.667s195.371-426.667 426.667-426.667 426.667 195.371 426.667 426.667-195.371 426.667-426.667 426.667zM512 789.333c61.141 0 118.955-17.323 169.216-46.848-40.576-49.451-88.235-91.179-141.227-124.032-39.979 72.789-76.288 129.664-98.731 163.029 22.912 5.077 46.592 7.851 70.741 7.851zM358.571 751.232c17.451-25.344 58.837-87.808 105.387-172.459-67.925-29.013-141.056-45.44-215.936-45.44-20.693 0-42.24 1.92-64.384 4.693 26.197 92.075 90.923 169.6 174.933 213.205zM170.667 448c0 1.92 0.256 3.84 0.299 5.76 26.368-3.413 52.096-5.76 77.056-5.76 88.917 0 175.488 20.011 255.659 55.253 7.253-14.592 14.507-29.653 21.675-45.013-107.989-40.875-201.771-119.509-272.427-229.419-50.987 59.819-82.261 136.533-82.261 219.179zM512 106.667c-72.021 0-139.52 23.893-195.285 63.701 45.824 75.136 123.392 166.656 242.645 209.92 32.384-78.976 59.861-163.968 75.563-249.515-38.443-15.317-79.829-24.107-122.923-24.107zM713.557 175.104c-16.469 77.909-41.6 154.197-70.187 225.707 19.413 2.645 39.424 4.523 60.629 4.523 47.701 0 95.531-7.979 142.635-22.827-17.067-83.755-66.048-157.312-133.077-207.403zM704 490.667c-32.427 0-64.085-3.285-94.976-9.131-9.728 21.163-19.499 41.6-29.355 61.355 63.744 38.741 121.003 88.491 169.344 147.925 58.795-57.472 97.323-135.296 103.168-220.587-48.939 13.568-98.56 20.437-148.181 20.437z" />
<glyph unicode="&#xe98e;" glyph-name="drink" d="M891.349 808.704c-7.253 14.293-21.973 23.296-38.016 23.296h-682.667c-16.043 0-30.763-9.003-38.016-23.296-7.296-14.293-5.931-31.488 3.499-44.459l333.184-458.112v-199.467h-128v-85.333h341.333v85.333h-128v199.467l333.184 458.112c9.429 12.971 10.795 30.165 3.499 44.459zM378.581 576h266.837l-133.419-183.467-133.419 183.467zM707.499 661.333h-390.997l-62.037 85.333h515.072l-62.037-85.333z" />
<glyph unicode="&#xe98f;" glyph-name="droplet" d="M512 21.333c188.203 0 341.333 153.131 341.333 341.12 1.365 274.987-303.616 495.104-316.587 504.277-14.805 10.581-34.688 10.581-49.451 0-13.013-9.173-318.037-229.291-316.629-504.064 0-188.203 153.131-341.333 341.333-341.333zM512.043 778.069c68.736-55.637 256.896-225.323 255.957-415.403 0-141.184-114.816-256-256-256s-256 114.816-256 256.213c-0.939 189.397 187.307 359.467 256.043 415.189z" />
<glyph unicode="&#xe990;" glyph-name="duplicate" d="M469.333 533.333h-85.333v-128h-128v-85.333h128v-128h85.333v128h128v85.333h-128zM128 21.333h597.333c23.595 0 42.667 19.072 42.667 42.667v597.333c0 23.552-19.072 42.667-42.667 42.667h-597.333c-23.595 0-42.667-19.115-42.667-42.667v-597.333c0-23.595 19.072-42.667 42.667-42.667zM170.667 618.667h512v-512h-512v512zM896 874.667h-554.667v-85.333h512v-512h85.333v554.667c0 23.552-19.072 42.667-42.667 42.667z" />
<glyph unicode="&#xe991;" glyph-name="edit" d="M798.165 862.165c-16.683 16.683-43.648 16.683-60.331 0l-341.333-341.333c-5.461-5.461-9.344-12.331-11.221-19.797l-42.667-170.667c-3.669-14.549 0.64-29.909 11.221-40.533 8.064-8.107 18.987-12.501 30.165-12.501 3.456 0 6.912 0.427 10.325 1.28l170.667 42.667c7.509 1.877 14.379 5.76 19.84 11.221l341.333 341.333c16.683 16.683 16.683 43.648 0 60.331l-128 128zM532.821 401.195l-90.197-22.528 22.571 90.197 302.805 302.805 67.669-67.669-302.848-302.805zM213.333 106.667h597.333c23.595 0 42.667 19.115 42.667 42.667v256h-85.333v-213.333h-512v512h213.333v85.333h-256c-23.595 0-42.667-19.115-42.667-42.667v-597.333c0-23.552 19.072-42.667 42.667-42.667z" />
<glyph unicode="&#xe992;" glyph-name="eject" d="M260.693 385.792c7.339-14.208 21.973-23.125 37.973-23.125h426.667c16 0 30.635 8.917 37.973 23.125 7.296 14.251 6.059 31.317-3.243 44.331l-213.333 298.667c-16 22.443-53.419 22.443-69.419 0l-213.333-298.667c-9.301-13.013-10.581-30.080-3.285-44.331zM512 630.571l130.432-182.571h-260.864l130.432 182.571zM256 277.333h512v-85.333h-512v85.333z" />
<glyph unicode="&#xe993;" glyph-name="envelope" d="M896 789.333h-768c-23.552 0-42.667-19.072-42.667-42.667v-597.333c0-23.595 19.115-42.667 42.667-42.667h768c23.595 0 42.667 19.072 42.667 42.667v597.333c0 23.595-19.072 42.667-42.667 42.667zM853.333 192h-682.667v374.315l312.96-278.229c8.107-7.168 18.261-10.752 28.373-10.752s20.267 3.584 28.373 10.795l312.96 278.187v-374.315zM853.333 680.448l-341.333-303.36-341.333 303.403v23.509h682.667v-23.552z" />
<glyph unicode="&#xe994;" glyph-name="eraser" d="M596.437 874.667c-11.605-0.256-22.656-5.248-30.549-13.824l-469.333-512c-15.403-16.853-14.891-42.837 1.28-59.008l170.667-170.667c7.979-8.021 18.816-12.501 30.165-12.501h512v85.333h-195.669l311.168 311.168c8.021 7.979 12.501 18.859 12.501 30.165s-4.48 22.187-12.501 30.165l-298.667 298.667c-8.192 8.235-19.328 12.544-31.061 12.501zM494.293 192h-177.963l-129.28 129.28 268.8 293.205 230.485-230.485-192.043-192zM746.667 444.331l-233.131 233.131 85.12 92.843 237.013-236.971-89.003-89.003z" />
<glyph unicode="&#xe995;" glyph-name="error" d="M469.333 576h85.333v-213.333h-85.333v213.333zM469.333 277.333h85.333v-85.333h-85.333v85.333zM549.717 851.968c-14.763 27.904-60.672 27.904-75.435 0l-384-725.333c-6.997-13.227-6.571-29.184 1.152-41.941 7.723-12.843 21.589-20.693 36.565-20.693h768c14.976 0 28.843 7.851 36.523 20.651 7.765 12.8 8.149 28.757 1.152 41.941l-383.957 725.376zM198.869 149.333l313.131 591.445 313.131-591.445h-626.261z" />
<glyph unicode="&#xe996;" glyph-name="error-circle" d="M509.995 874.667c-234.155 0-424.661-191.403-424.661-426.667s191.403-426.667 426.667-426.667 426.667 191.403 426.667 426.667-192.299 426.667-428.672 426.667zM512 106.667c-188.203 0-341.333 153.131-341.333 341.333s152.192 341.333 339.328 341.333c189.355 0 343.339-153.131 343.339-341.333s-153.131-341.333-341.333-341.333zM469.333 661.333h85.333v-256h-85.333v256zM469.333 320h85.333v-85.333h-85.333v85.333z" />
<glyph unicode="&#xe997;" glyph-name="exclamation" d="M469.333 746.667h85.333v-426.24h-85.333v426.24zM469.333 234.795h85.333v-85.461h-85.333v85.461z" />
<glyph unicode="&#xe998;" glyph-name="exit-fullscreen" d="M426.667 576v256h-85.333v-213.333h-213.333v-85.333h256c23.595 0 42.667 19.115 42.667 42.667zM341.333 64h85.333v256c0 23.552-19.072 42.667-42.667 42.667h-256v-85.333h213.333v-213.333zM896 362.667h-256c-23.595 0-42.667-19.115-42.667-42.667v-256h85.333v213.333h213.333v85.333zM896 618.667h-213.333v213.333h-85.333v-256c0-23.552 19.072-42.667 42.667-42.667h256v85.333z" />
<glyph unicode="&#xe999;" glyph-name="expand" d="M670.165 545.835l135.339 135.339 90.496-90.496v241.323h-241.323l90.496-90.496-135.339-135.339zM745.173 154.496l-90.496-90.496h241.323v241.323l-90.496-90.496-135.339 135.339-60.331-60.331zM353.835 350.165l-135.339-135.339-90.496 90.496v-241.323h241.323l-90.496 90.496 135.339 135.339zM278.827 741.504l90.496 90.496h-241.323v-241.323l90.496 90.496 135.339-135.339 60.331 60.331z" />
<glyph unicode="&#xe99a;" glyph-name="export" d="M469.333 277.333h85.333v384h128l-170.667 170.667-170.667-170.667h128zM896 576h-256v-85.333h213.333v-298.667h-682.667v298.667h213.333v85.333h-256c-23.595 0-42.667-19.115-42.667-42.667v-384c0-23.552 19.072-42.667 42.667-42.667h768c23.595 0 42.667 19.115 42.667 42.667v384c0 23.552-19.072 42.667-42.667 42.667z" />
<glyph unicode="&#xe99b;" glyph-name="eyedropper" d="M798.165 862.165c-16.683 16.683-43.648 16.683-60.331 0l-140.629-140.629-55.381 55.296-60.331-60.331 55.381-55.296-353.707-353.707c-5.461-5.461-9.344-12.331-11.221-19.84l-42.667-170.667c-3.669-14.549 0.64-29.909 11.221-40.491 8.064-8.064 18.987-12.501 30.165-12.501 3.456 0 6.912 0.427 10.325 1.28l170.667 42.667c7.509 1.877 14.379 5.76 19.84 11.221l353.792 353.792 55.211-55.125 60.331 60.331-55.211 55.125 140.544 140.544c16.683 16.683 16.683 43.648 0 60.331l-128 128zM319.488 187.861l-90.197-22.571 22.571 90.197 345.387 345.387 67.669-67.584-345.429-345.429z" />
<glyph unicode="&#xe99c;" glyph-name="facebook" d="M768 661.333v170.667c0 23.595-19.072 42.667-42.667 42.667h-170.667c-73.771 0-213.333-44.587-213.333-213.333v-42.667h-42.667c-23.595 0-42.667-19.072-42.667-42.667v-170.667c0-23.595 19.072-42.667 42.667-42.667h42.667v-298.667c0-23.595 19.072-42.667 42.667-42.667h170.667c23.595 0 42.667 19.072 42.667 42.667v298.667h85.333c23.595 0 42.667 19.072 42.667 42.667v170.667c0 23.595-19.072 42.667-42.667 42.667h42.667c23.595 0 42.667 19.072 42.667 42.667zM682.667 704h-128c-23.595 0-42.667-19.072-42.667-42.667v-85.333c0-23.595 19.072-42.667 42.667-42.667h85.333v-85.333h-85.333c-23.595 0-42.667-19.072-42.667-42.667v-298.667h-85.333v298.667c0 23.595-19.072 42.667-42.667 42.667h-42.667v85.333h42.667c23.595 0 42.667 19.072 42.667 42.667v85.333c0 120.448 106.837 127.744 128 128h128v-85.333z" />
<glyph unicode="&#xe99d;" glyph-name="facebook-alt" d="M768 832h-512c-70.571 0-128-57.429-128-128v-512c0-70.571 57.429-128 128-128h512c70.571 0 128 57.429 128 128v512c0 70.571-57.429 128-128 128zM810.667 192c0-23.552-19.115-42.667-42.667-42.667h-170.667v170.667h85.333v85.333h-85.333v86.613c-0.043 0.213 0.512 20.267 11.349 31.445 2.389 2.475 9.6 9.941 31.317 9.941h85.333v85.333h-85.333c-47.744 0-76.715-19.499-92.544-35.84-36.096-37.163-35.627-87.765-35.456-92.16v-85.333h-85.333v-85.333h85.333v-170.667h-256c-23.552 0-42.667 19.115-42.667 42.667v512c0 23.552 19.115 42.667 42.667 42.667h512c23.552 0 42.667-19.115 42.667-42.667v-512z" />
<glyph unicode="&#xe99e;" glyph-name="fast-forward" d="M810.667 448l-298.667 213.333v-426.667zM213.333 661.333v-426.667l298.667 213.333z" />
<glyph unicode="&#xe99f;" glyph-name="fast-forward-circle" d="M512 874.667c-235.264 0-426.667-191.403-426.667-426.667s191.403-426.667 426.667-426.667 426.667 191.403 426.667 426.667-191.403 426.667-426.667 426.667zM512 106.667c-188.203 0-341.333 153.131-341.333 341.333s153.131 341.333 341.333 341.333 341.333-153.131 341.333-341.333-153.131-341.333-341.333-341.333zM554.667 320l170.667 128-170.667 128zM341.333 320l170.667 128-170.667 128z" />
<glyph unicode="&#xe9a0;" glyph-name="female" d="M789.333 597.333c0 152.917-124.416 277.333-277.333 277.333s-277.333-124.416-277.333-277.333c0-138.368 101.973-253.099 234.667-273.707v-88.96h-128v-85.333h128v-127.488h85.333v127.488h128v85.333h-128v88.96c132.651 20.608 234.667 135.339 234.667 273.707zM320 597.333c0 105.856 86.144 192 192 192s192-86.144 192-192c0-105.813-86.016-191.872-191.787-192h-0.427c-105.771 0.128-191.787 86.187-191.787 192z" />
<glyph unicode="&#xe9a1;" glyph-name="file" d="M170.667 832v-768c0-23.552 19.072-42.667 42.667-42.667h597.333c23.595 0 42.667 19.115 42.667 42.667v512c0 0.896-0.469 1.749-0.555 2.645-0.213 3.797-0.939 7.467-2.176 11.051-0.469 1.365-0.853 2.688-1.408 3.968-2.091 4.523-4.693 8.875-8.363 12.501l-256 256c-3.669 3.627-7.979 6.272-12.459 8.32-1.323 0.64-2.688 0.981-4.139 1.451-3.499 1.195-7.083 1.92-10.795 2.133-0.939 0.085-1.835 0.597-2.773 0.597h-341.333c-23.595 0-42.667-19.115-42.667-42.667zM707.669 618.667h-110.336v110.336l110.336-110.336zM256 789.333h256v-213.333c0-23.552 19.072-42.667 42.667-42.667h213.333v-426.667h-512v682.667zM341.333 448h341.333v-85.333h-341.333v85.333zM341.333 618.667h85.333v-85.333h-85.333v85.333zM341.333 277.333h341.333v-85.333h-341.333v85.333z" />
<glyph unicode="&#xe9a2;" glyph-name="file-add" d="M213.333 21.333h256v85.333h-213.333v682.667h256v-213.333c0-23.552 19.072-42.667 42.667-42.667h213.333v-128h85.333v170.667c0 0.896-0.469 1.749-0.555 2.645-0.213 3.797-0.939 7.467-2.176 11.051-0.469 1.365-0.853 2.688-1.408 3.968-2.091 4.523-4.693 8.875-8.363 12.501l-256 256c-3.669 3.669-7.979 6.272-12.459 8.32-1.365 0.64-2.688 0.981-4.139 1.451-3.499 1.195-7.083 1.877-10.752 2.133-0.981 0.085-1.877 0.597-2.816 0.597h-341.333c-23.595 0-42.667-19.115-42.667-42.667v-768c0-23.552 19.072-42.667 42.667-42.667zM597.333 729.003l110.336-110.336h-110.336v110.336zM640 21.333h85.333v128h128v85.333h-128v128h-85.333v-128h-128v-85.333h128z" />
<glyph unicode="&#xe9a3;" glyph-name="file-image" d="M213.333 21.333h597.333c23.595 0 42.667 19.115 42.667 42.667v512c0 0.896-0.469 1.749-0.555 2.645-0.213 3.797-0.939 7.467-2.176 11.051-0.469 1.365-0.853 2.688-1.408 3.968-2.091 4.523-4.693 8.875-8.363 12.501l-256 256c-3.669 3.627-7.979 6.272-12.459 8.32-1.323 0.64-2.688 0.981-4.139 1.451-3.499 1.195-7.083 1.92-10.795 2.133-0.939 0.085-1.835 0.597-2.773 0.597h-341.333c-23.595 0-42.667-19.115-42.667-42.667v-768c0-23.552 19.072-42.667 42.667-42.667zM597.333 729.003l110.336-110.336h-110.336v110.336zM256 789.333h256v-213.333c0-23.552 19.072-42.667 42.667-42.667h213.333v-426.667h-512v682.667zM469.333 277.333l-42.667 42.667-85.333-128h341.333l-128 256zM426.667 405.333c0-23.564-19.103-42.667-42.667-42.667s-42.667 19.103-42.667 42.667c0 23.564 19.103 42.667 42.667 42.667s42.667-19.103 42.667-42.667z" />
<glyph unicode="&#xe9a4;" glyph-name="files" d="M341.333 874.667c-23.595 0-42.667-19.115-42.667-42.667v-597.333c0-23.552 19.072-42.667 42.667-42.667h469.333c23.595 0 42.667 19.115 42.667 42.667v384h-0.384c-0.043 11.093-3.968 22.016-12.117 30.165l-213.333 213.333c-8.149 8.149-19.072 12.075-30.165 12.075v0.427h-256zM640 729.003l67.669-67.669h-67.669v67.669zM768 576v-298.667h-384v512h170.667v-170.667c0-23.552 19.072-42.667 42.667-42.667h170.667zM128 618.667v-554.667c0-23.552 19.072-42.667 42.667-42.667h512v85.333h-469.333v512h-85.333z" />
<glyph unicode="&#xe9a5;" glyph-name="film" d="M896 106.667v682.667c0 23.595-19.072 42.667-42.667 42.667h-682.667c-23.595 0-42.667-19.072-42.667-42.667v-682.667c0-23.595 19.072-42.667 42.667-42.667h682.667c23.595 0 42.667 19.072 42.667 42.667zM810.667 320h-85.333v85.333h85.333v-85.333zM640 405.333v-256h-256v256h256zM384 490.667v256h256v-256h-256zM810.667 490.667h-85.333v85.333h85.333v-85.333zM810.667 661.333h-85.333v85.333h85.333v-85.333zM213.333 746.667h85.333v-85.333h-85.333v85.333zM213.333 576h85.333v-85.333h-85.333v85.333zM213.333 405.333h85.333v-85.333h-85.333v85.333zM213.333 234.667h85.333v-85.333h-85.333v85.333zM725.333 149.333v85.333h85.333v-85.333h-85.333z" />
<glyph unicode="&#xe9a6;" glyph-name="filter" d="M704 597.333c-67.413 0-123.861-45.227-142.379-106.667h-476.288v-85.333h476.288c18.517-61.44 74.965-106.667 142.379-106.667s123.861 45.227 142.379 106.667h92.288v85.333h-92.288c-18.517 61.44-74.965 106.667-142.379 106.667zM704 384c-35.285 0-64 28.715-64 64s28.715 64 64 64 64-28.715 64-64-28.715-64-64-64zM469.333 853.333c-67.413 0-123.861-45.227-142.379-106.667h-241.621v-85.333h241.621c18.517-61.44 74.965-106.667 142.379-106.667s123.861 45.227 142.379 106.667h326.955v85.333h-326.955c-18.517 61.44-74.965 106.667-142.379 106.667zM469.333 640c-35.285 0-64 28.715-64 64s28.715 64 64 64 64-28.715 64-64-28.715-64-64-64zM320 341.333c-67.413 0-123.861-45.227-142.379-106.667h-92.288v-85.333h92.288c18.517-61.44 74.965-106.667 142.379-106.667s123.861 45.227 142.379 106.667h476.288v85.333h-476.288c-18.517 61.44-74.965 106.667-142.379 106.667zM320 128c-35.285 0-64 28.715-64 64s28.715 64 64 64 64-28.715 64-64-28.715-64-64-64z" />
</font>
</defs>
</svg>
