<?xml version="1.0" standalone="no"?>
<!DOCTYPE svg PUBLIC "-//W3C//DTD SVG 1.1//EN" "http://www.w3.org/Graphics/SVG/1.1/DTD/svg11.dtd" >
<svg xmlns="http://www.w3.org/2000/svg">
<metadata>Generated by IcoMoon</metadata>
<defs>
<font id="boxicons" horiz-adv-x="1024">
<font-face units-per-em="1024" ascent="960" descent="-64" />
<missing-glyph horiz-adv-x="1024" />
<glyph unicode="&#x20;" horiz-adv-x="512" d="" />
<glyph unicode="&#xe900;" glyph-name="bx-alarm" d="M512 789.333c-208.171 0-384-175.829-384-384s175.829-384 384-384 384 175.829 384 384-175.829 384-384 384zM512 106.667c-161.877 0-298.667 136.789-298.667 298.667s136.789 298.667 298.667 298.667 298.667-136.789 298.667-298.667-136.789-298.667-298.667-298.667zM554.667 448v170.667h-85.333v-256h256v85.333zM737.445 801.836l60.253 60.426 128.405-128.038-60.253-60.426zM285.778 801.834l-127.586-127.952-60.426 60.253 127.586 127.952z" />
<glyph unicode="&#xe901;" glyph-name="bx-alarm-off" d="M865.792 673.844l-128.43 128.014 60.242 60.438 128.43-128.014zM926.165 94.165l-97.579 97.579c42.197 61.568 67.413 135.168 67.413 213.589 0 208.171-175.829 384-384 384-78.421 0-152.021-25.216-213.589-67.413l-46.251 46.251 33.621 33.707-60.416 60.245-33.536-33.621-33.664 33.664-60.331-60.331 768-768 60.331 60.331zM512 704c161.877 0 298.667-136.789 298.667-298.667 0-55.125-16.512-106.965-43.819-151.851l-109.184 109.184h67.669v85.333h-153.003l-17.664 17.664v153.003h-85.333v-67.669l-109.184 109.184c44.885 27.307 96.725 43.819 151.851 43.819zM183.68 600.491c-35.029-57.6-55.68-124.416-55.68-195.157 0-208.171 175.829-384 384-384 70.741 0 137.557 20.651 195.157 55.68l-62.336 62.336c-40.277-20.693-85.419-32.683-132.821-32.683-161.877 0-298.667 136.789-298.667 298.667 0 47.403 11.989 92.544 32.683 132.821l-62.336 62.336z" />
<glyph unicode="&#xe902;" glyph-name="bx-album" d="M597.333 448.299c0-47.293-38.339-85.632-85.632-85.632s-85.632 38.339-85.632 85.632c0 47.293 38.339 85.632 85.632 85.632s85.632-38.339 85.632-85.632zM512 874.667c-235.264 0-426.667-191.403-426.667-426.667s191.403-426.667 426.667-426.667 426.667 191.403 426.667 426.667-191.403 426.667-426.667 426.667zM512 106.667c-188.203 0-341.333 153.131-341.333 341.333s153.131 341.333 341.333 341.333 341.333-153.131 341.333-341.333-153.131-341.333-341.333-341.333zM512 704c-141.184 0-256-114.816-256-256h85.333c0 94.123 76.544 170.667 170.667 170.667v85.333z" />
<glyph unicode="&#xe903;" glyph-name="bx-align-justify" d="M170.667 746.667h682.667v-85.333h-682.667zM170.667 576h682.667v-85.333h-682.667zM170.667 405.333h682.667v-85.333h-682.667zM256 234.667h512v-85.333h-512z" />
<glyph unicode="&#xe904;" glyph-name="bx-align-left" d="M170.667 234.667h682.667v-85.333h-682.667zM170.667 405.333h469.333v-85.333h-469.333zM170.667 576h682.667v-85.333h-682.667zM170.667 746.667h469.333v-85.333h-469.333z" />
<glyph unicode="&#xe905;" glyph-name="bx-align-middle" d="M170.667 234.667h682.667v-85.333h-682.667zM298.667 405.333h426.667v-85.333h-426.667zM170.667 576h682.667v-85.333h-682.667zM298.667 746.667h426.667v-85.333h-426.667z" />
<glyph unicode="&#xe906;" glyph-name="bx-align-right" d="M170.667 234.667h682.667v-85.333h-682.667zM384 405.333h469.333v-85.333h-469.333zM170.667 576h682.667v-85.333h-682.667zM384 746.667h469.333v-85.333h-469.333z" />
<glyph unicode="&#xe907;" glyph-name="bx-ambulance" d="M816.981 662.571c-15.317 25.557-43.349 41.429-73.131 41.429h-61.184v42.667c0 23.552-19.072 42.667-42.667 42.667h-469.333c-47.061 0-85.333-38.272-85.333-85.333v-426.667c0-32.853 18.816-61.056 46.080-75.349-2.176-10.112-3.413-20.565-3.413-31.317 0-82.347 66.987-149.333 149.333-149.333s149.333 66.987 149.333 149.333c0 7.296-1.109 14.293-2.176 21.333h132.352c-1.067-7.040-2.176-14.037-2.176-21.333 0-82.347 66.987-149.333 149.333-149.333s149.333 66.987 149.333 149.333c0 7.296-1.109 14.293-2.176 21.333h2.176c47.061 0 85.333 38.272 85.333 85.333v170.667c0 7.723-2.091 15.317-6.101 21.973l-115.584 192.597zM743.851 618.667l76.8-128h-137.984v128h61.184zM170.667 704h426.667v-426.667h-215.851c-26.88 26.325-63.616 42.667-104.149 42.667s-77.269-16.341-104.149-42.667h-2.517v426.667zM277.333 106.667c-35.285 0-64 28.715-64 64s28.715 64 64 64 64-28.715 64-64-28.715-64-64-64zM704 106.667c-35.285 0-64 28.715-64 64s28.715 64 64 64 64-28.715 64-64-28.715-64-64-64zM808.149 277.333c-26.923 26.325-63.616 42.667-104.149 42.667-7.296 0-14.293-1.152-21.333-2.176v87.509h170.667v-128h-45.184zM341.333 362.667h85.333v85.333h85.333v85.333h-85.333v85.333h-85.333v-85.333h-85.333v-85.333h85.333z" />
<glyph unicode="&#xe908;" glyph-name="bx-analyse" d="M85.333 448h85.333c0 46.336 9.003 91.136 26.752 133.205 17.109 40.704 41.728 77.184 72.96 108.416 31.36 31.36 67.883 55.936 108.459 72.96 82.603 34.816 178.389 35.285 261.547 1.749 1.963-57.387 48.427-102.997 106.283-102.997 59.136 0 106.667 47.531 106.667 106.667s-47.531 106.667-106.667 106.667c-29.397 0-55.979-11.776-75.221-30.933-103.723 41.515-222.848 40.875-325.76-2.517-50.731-21.333-96.427-52.053-135.68-91.264-39.125-39.083-69.845-84.736-91.307-135.637-22.101-52.565-33.365-108.544-33.365-166.315zM826.581 314.795c-17.109-40.619-41.685-77.141-72.96-108.416s-67.797-55.851-108.459-72.96c-82.603-34.816-178.389-35.285-261.547-1.749-1.963 57.387-48.427 102.997-106.283 102.997-59.136 0-106.667-47.531-106.667-106.667s47.531-106.667 106.667-106.667c29.397 0 55.979 11.776 75.221 30.933 50.603-20.352 104.149-30.933 159.445-30.933 57.771 0 113.707 11.264 166.272 33.408 50.859 21.461 96.555 52.181 135.68 91.307s69.845 84.779 91.307 135.637c22.144 52.608 33.408 108.544 33.408 166.315h-85.333c0-46.293-9.003-91.093-26.752-133.205zM512 641.621c-106.752 0-193.621-86.869-193.621-193.621s86.869-193.621 193.621-193.621 193.621 86.869 193.621 193.621-86.869 193.621-193.621 193.621zM512 339.712c-59.691 0-108.288 48.597-108.288 108.288s48.597 108.288 108.288 108.288 108.288-48.597 108.288-108.288-48.597-108.288-108.288-108.288z" />
<glyph unicode="&#xe909;" glyph-name="bx-anchor" d="M810.667 405.333h-85.333v-85.333h38.955c-18.56-105.387-104.235-190.763-209.621-209.323v294.656h85.333v85.333h-85.333v70.997c65.835 19.584 115.797 82.048 115.797 154.496 0 87.424-71.083 158.507-158.464 158.507s-158.464-71.083-158.464-158.507c0-72.448 49.963-134.912 115.797-154.496v-70.997h-85.333v-85.333h85.333v-294.656c-105.387 18.56-191.104 103.936-209.621 209.323h38.955v85.333h-85.333c-23.595 0-42.667-19.072-42.667-42.667 0-170.581 132.907-316.416 298.667-338.219v-3.115h85.333v3.115c165.76 21.803 298.667 167.637 298.667 338.219 0 23.595-19.072 42.667-42.667 42.667zM438.869 716.16c0 40.32 32.811 73.173 73.131 73.173s73.131-32.853 73.131-73.173c0-40.576-34.176-76.16-73.131-76.16s-73.131 35.584-73.131 76.16z" />
<glyph unicode="&#xe90a;" glyph-name="bx-aperture" d="M512 874.667c-231.296 0-426.667-195.371-426.667-426.667s195.371-426.667 426.667-426.667 426.667 195.371 426.667 426.667-195.371 426.667-426.667 426.667zM602.155 320h-176.085l-73.515 132.011 82.731 123.989h159.403l79.829-130.645-72.363-125.355zM170.667 448c0 40.661 7.936 79.787 21.675 116.352l136.021-244.352h-131.669c-16.64 39.765-26.027 82.987-26.027 128zM694.741 576h132.523c16.683-39.765 26.069-82.987 26.069-128 0-36.011-6.101-70.827-16.939-103.765l-141.653 231.765zM776.021 661.333h-283.861l81.28 121.899c80.469-15.317 151.979-59.861 202.581-121.899zM473.301 786.816l-83.669-125.483h-5.632v-8.405l-78.080-117.12-64.853 116.395c55.467 72.661 138.624 123.52 232.235 134.613zM247.979 234.667h304.939l-72.917-126.336c-92.416 9.088-175.317 56.789-232.021 126.336zM581.973 114.347l143.232 248.107 65.877-107.776c-49.237-70.059-123.776-121.771-209.109-140.331z" />
<glyph unicode="&#xe90b;" glyph-name="bx-archive" d="M640 447.573h-256v85.333h-85.333v-128c0-23.595 19.072-42.667 42.667-42.667h341.333c23.595 0 42.667 19.072 42.667 42.667v128h-85.333v-85.333zM930.176 686.421l-114.773 153.557c-16 21.461-41.557 34.304-68.395 34.304h-469.333c-26.709 0-52.224-12.715-68.181-34.005l-115.584-153.685 0.597-0.427c-5.376-7.168-9.173-15.616-9.173-25.259v-469.333c0-47.061 38.272-85.333 85.333-85.333h682.667c47.061 0 85.333 38.272 85.333 85.333v469.333c0 9.6-3.755 17.963-9.045 25.088l0.555 0.427zM277.675 788.907h469.333l63.787-85.333h-597.291l64.171 85.333zM170.667 191.573v426.667h682.667l0.085-426.667h-682.752z" />
<glyph unicode="&#xe90c;" glyph-name="bx-area" d="M128 746.667v-597.333c0-47.061 38.272-85.333 85.333-85.333h597.333c47.061 0 85.333 38.272 85.333 85.333v597.333c0 47.061-38.272 85.333-85.333 85.333h-597.333c-47.061 0-85.333-38.272-85.333-85.333zM810.752 149.333h-597.419v597.333h597.333l0.085-597.333zM640 448h85.333v213.333h-213.333v-85.333h128zM512 320h-128v128h-85.333v-213.333h213.333z" />
<glyph unicode="&#xe90d;" glyph-name="bx-arrow-back" d="M542.165 222.165l-183.168 183.168h409.003v85.333h-409.003l183.168 183.168-60.331 60.331-286.165-286.165 286.165-286.165z" />
<glyph unicode="&#xe90e;" glyph-name="bx-at" d="M512 874.667c-235.264 0-426.667-191.403-426.667-426.667s191.403-426.667 426.667-426.667c62.549 0 126.336 15.829 189.525 47.104l-37.76 76.501c-51.371-25.387-102.443-38.272-151.765-38.272-188.203 0-341.333 153.131-341.333 341.333s153.131 341.333 341.333 341.333 341.333-153.131 341.333-341.333v-42.667c0-29.525-13.355-85.333-64-85.333-59.563 0-63.744 77.611-64 85.333v213.333h-85.333v-1.067c-35.755 27.051-79.787 43.733-128 43.733-117.632 0-213.333-95.701-213.333-213.333s95.701-213.333 213.333-213.333c61.867 0 117.248 26.923 156.245 69.163 22.357-37.973 60.075-69.163 121.088-69.163 96.981 0 149.333 87.936 149.333 170.667v42.667c0 235.264-191.403 426.667-426.667 426.667zM512 320c-70.571 0-128 57.429-128 128s57.429 128 128 128 128-57.429 128-128-57.429-128-128-128z" />
<glyph unicode="&#xe90f;" glyph-name="bx-award" d="M213.333 576.043c0-81.152 32.64-154.752 85.333-208.64v-303.403c0-14.805 7.68-28.501 20.224-36.309 12.587-7.851 28.331-8.448 41.515-1.877l151.595 75.819 151.595-75.776c6.016-3.029 12.544-4.523 19.072-4.523 7.808 0 15.573 2.133 22.4 6.357 12.587 7.808 20.267 21.504 20.267 36.309v303.36c52.693 53.888 85.333 127.488 85.333 208.683 0 164.651-133.973 298.624-298.667 298.624s-298.667-133.973-298.667-298.624zM531.072 187.52c-11.989 6.016-26.155 6.016-38.187 0l-108.885-54.485v173.525c38.869-18.517 82.176-29.227 128-29.227s89.131 10.667 128 29.227v-173.483l-108.928 54.443zM512 789.333c117.589 0 213.333-95.659 213.333-213.291 0-117.675-95.701-213.376-213.333-213.376s-213.333 95.701-213.333 213.376c0 117.632 95.701 213.291 213.333 213.291z" />
<glyph unicode="&#xe910;" glyph-name="bx-badge" d="M851.84 596.437c0.981 7.424 1.493 14.848 1.493 22.229 0 101.461-91.435 182.955-192.896 169.131-29.568 52.651-85.888 86.869-148.437 86.869s-118.869-34.219-148.437-86.869c-101.675 13.824-192.896-67.669-192.896-169.131 0-7.381 0.512-14.805 1.493-22.229-52.608-29.568-86.827-85.931-86.827-148.437s34.219-118.869 86.827-148.437c-0.981-7.424-1.493-14.848-1.493-22.229 0-101.461 91.221-182.784 192.896-169.131 29.568-52.651 85.888-86.869 148.437-86.869s118.869 34.219 148.437 86.869c101.461-13.653 192.896 67.669 192.896 169.131 0 7.381-0.512 14.805-1.493 22.229 52.608 29.568 86.827 85.931 86.827 148.437s-34.219 118.869-86.827 148.437zM790.315 365.909l-47.019-12.501 18.517-44.928c4.053-9.813 6.187-20.608 6.187-31.147 0-47.061-38.272-85.333-85.333-85.333-10.539 0-21.291 2.133-31.147 6.187l-44.971 18.517-12.501-47.019c-9.856-37.12-43.605-63.019-82.048-63.019s-72.192 25.899-82.048 63.019l-12.501 47.019-44.971-18.517c-9.856-4.053-20.608-6.187-31.147-6.187-47.061 0-85.333 38.272-85.333 85.333 0 10.539 2.133 21.333 6.187 31.147l18.517 44.928-47.019 12.501c-37.12 9.899-63.019 43.648-63.019 82.091s25.899 72.192 63.019 82.091l47.019 12.501-18.517 44.928c-4.053 9.813-6.187 20.608-6.187 31.147 0 47.061 38.272 85.333 85.333 85.333 10.539 0 21.291-2.133 31.147-6.187l44.971-18.517 12.501 47.019c9.856 37.12 43.605 63.019 82.048 63.019s72.192-25.899 82.048-63.019l12.501-47.019 44.971 18.517c9.856 4.053 20.608 6.187 31.147 6.187 47.061 0 85.333-38.272 85.333-85.333 0-10.539-2.133-21.333-6.187-31.147l-18.517-44.928 47.019-12.501c37.12-9.899 63.019-43.648 63.019-82.091s-25.899-72.192-63.019-82.091z" />
<glyph unicode="&#xe911;" glyph-name="bx-badge-check" d="M172.16 299.563c-0.981-7.424-1.493-14.848-1.493-22.229 0-101.461 91.221-182.784 192.896-169.131 29.568-52.651 85.888-86.869 148.437-86.869s118.869 34.219 148.437 86.869c101.461-13.653 192.896 67.669 192.896 169.131 0 7.381-0.512 14.805-1.493 22.229 52.608 29.568 86.827 85.931 86.827 148.437s-34.219 118.869-86.827 148.437c0.981 7.424 1.493 14.848 1.493 22.229 0 101.461-91.435 182.955-192.896 169.131-29.568 52.651-85.888 86.869-148.437 86.869s-118.869-34.219-148.437-86.869c-101.675 13.824-192.896-67.669-192.896-169.131 0-7.381 0.512-14.805 1.493-22.229-52.608-29.568-86.827-85.931-86.827-148.437s34.219-118.869 86.827-148.437zM233.685 530.091l47.019 12.501-18.517 44.928c-4.053 9.813-6.187 20.608-6.187 31.147 0 47.061 38.272 85.333 85.333 85.333 10.539 0 21.291-2.133 31.147-6.187l44.971-18.517 12.501 47.019c9.856 37.12 43.605 63.019 82.048 63.019s72.192-25.899 82.048-63.019l12.501-47.019 44.971 18.517c9.856 4.053 20.608 6.187 31.147 6.187 47.061 0 85.333-38.272 85.333-85.333 0-10.539-2.133-21.333-6.187-31.147l-18.517-44.928 47.019-12.501c37.12-9.899 63.019-43.648 63.019-82.091s-25.899-72.192-63.019-82.091l-47.019-12.501 18.517-44.928c4.053-9.813 6.187-20.608 6.187-31.147 0-47.061-38.272-85.333-85.333-85.333-10.539 0-21.291 2.133-31.147 6.187l-44.971 18.517-12.501-47.019c-9.856-37.12-43.605-63.019-82.048-63.019s-72.192 25.899-82.048 63.019l-12.501 47.019-44.971-18.517c-9.856-4.053-20.608-6.187-31.147-6.187-47.061 0-85.333 38.272-85.333 85.333 0 10.539 2.133 21.333 6.187 31.147l18.517 44.928-47.019 12.501c-37.12 9.899-63.019 43.648-63.019 82.091s25.899 72.192 63.019 82.091zM671.659 503.040l-60.075 60.587-142.123-140.757-55.296 55.296-60.331-60.331 115.371-115.371z" />
<glyph unicode="&#xe912;" glyph-name="bx-ball" d="M160.299 65.28c2.944-0.768 73.643-18.176 171.435-18.176 121.557 0 293.717 27.349 423.765 157.355 227.627 227.627 142.976 580.267 139.264 595.157-3.84 15.317-15.701 27.264-31.019 31.104-2.944 0.768-74.325 18.475-172.885 18.475-121.259 0-293.077-27.307-422.827-157.312-227.797-228.224-142.507-580.693-138.752-595.627 3.84-15.275 15.744-27.179 31.019-30.976zM328.448 631.637c109.099 109.269 257.323 132.224 362.453 132.224 54.187 0 99.413-6.059 126.080-10.667 13.483-80.085 39.040-327.509-121.771-488.32-109.397-109.355-258.005-132.395-363.435-132.395-53.547 0-98.261 5.931-124.757 10.453-13.653 80.043-39.552 327.381 121.429 488.704zM311.168 307.499l60.331-60.331 76.501 76.459 76.416-76.459 60.373 60.331-76.459 76.501 67.669 67.669 76.501-76.459 60.331 60.331-76.501 76.459 76.501 76.501-60.331 60.331-76.501-76.501-76.544 76.501-60.331-60.331 76.544-76.501-67.669-67.669-76.459 76.544-60.416-60.331 76.544-76.544z" />
<glyph unicode="&#xe913;" glyph-name="bx-bar-chart" d="M384 704h85.333v-597.333h-85.333zM554.667 618.667h85.333v-512h-85.333zM725.333 789.333h85.333v-682.667h-85.333zM213.333 448h85.333v-341.333h-85.333z" />
<glyph unicode="&#xe914;" glyph-name="bx-bar-chart-alt" d="M554.667 704h85.333v-469.333h-85.333v469.333zM725.333 832h85.333v-597.333h-85.333v597.333zM384 576h85.333v-341.333h-85.333v341.333zM170.667 149.333h682.667v-85.333h-682.667v85.333zM213.333 448h85.333v-213.333h-85.333v213.333z" />
<glyph unicode="&#xe915;" glyph-name="bx-bar-chart-square" d="M128 746.667v-597.333c0-47.061 38.272-85.333 85.333-85.333h597.333c47.061 0 85.333 38.272 85.333 85.333v597.333c0 47.061-38.272 85.333-85.333 85.333h-597.333c-47.061 0-85.333-38.272-85.333-85.333zM810.709 149.333h-597.376v597.333h597.333l0.043-597.333zM469.333 661.333h85.333v-426.667h-85.333zM640 533.333h85.333v-298.667h-85.333zM298.667 448h85.333v-213.333h-85.333z" />
<glyph unicode="&#xe916;" glyph-name="bx-barcode" d="M853.333 789.333h-682.667c-47.061 0-85.333-38.272-85.333-85.333v-512c0-47.061 38.272-85.333 85.333-85.333h682.667c47.061 0 85.333 38.272 85.333 85.333v512c0 47.061-38.272 85.333-85.333 85.333zM170.667 192v512h682.667l0.043-512h-682.709zM256 618.667h85.333v-341.333h-85.333v341.333zM384 618.667h42.667v-341.333h-42.667v341.333zM725.333 618.667h42.667v-341.333h-42.667v341.333zM554.667 618.667h128v-341.333h-128v341.333zM469.333 618.667h42.667v-341.333h-42.667v341.333z" />
<glyph unicode="&#xe917;" glyph-name="bx-basketball" d="M210.304 146.304c80.853-80.853 187.947-125.355 301.696-125.355s220.885 44.501 301.696 125.355c166.357 166.357 166.357 437.035 0 603.435-80.811 80.811-187.989 125.355-301.696 125.355s-220.885-44.544-301.696-125.397c-166.357-166.315-166.357-437.035 0-603.392zM525.184 789.077c71.765-2.688 139.648-27.605 196.011-71.595l-209.195-209.152-62.293 62.293c49.536 63.104 76.459 141.141 75.477 218.453zM388.693 631.637l-85.845 85.845c40.704 31.744 87.381 53.717 137.301 64.427-0.64-52.736-18.987-105.685-51.456-150.272zM327.936 571.733c-42.581-29.355-94.208-45.269-147.584-45.099 10.923 46.507 31.573 91.051 62.208 130.475l85.376-85.376zM171.136 441.771c3.285-0.085 6.571-0.597 9.856-0.597 75.691 0 149.12 24.405 208.085 69.376l62.592-62.549-209.109-209.109c-46.293 59.605-70.144 131.029-71.424 202.88zM695.68 324.651c44.459 32.341 97.28 50.688 149.675 51.456-10.453-48.939-31.787-95.915-63.872-137.259l-85.803 85.803zM721.152 178.517c-38.827-30.293-83.157-51.499-130.517-62.72-0.299 53.589 15.573 105.387 45.099 148.139l85.419-85.419zM505.941 106.581c-74.411 1.28-144.896 26.496-203.136 71.936l209.195 209.152 62.421-62.421c-47.061-61.611-70.784-139.349-68.48-218.667zM852.565 461.141c-77.099 0.768-155.008-26.027-217.941-75.435l-62.293 62.293 209.109 209.109c44.8-57.685 68.48-126.464 71.125-195.968z" />
<glyph unicode="&#xe918;" glyph-name="bx-bath" d="M896 533.333h-597.333v128c0 47.061 38.272 85.333 85.333 85.333s85.333-38.272 85.333-85.333h85.333c0 94.123-76.544 170.667-170.667 170.667s-170.667-76.544-170.667-170.667v-128h-85.333c-23.595 0-42.667-19.072-42.667-42.667v-85.333c0-111.189 71.424-205.781 170.667-241.067v-142.933h85.333v128h341.333v-128h85.333v142.933c99.243 35.285 170.667 129.877 170.667 241.067v85.333c0 23.595-19.072 42.667-42.667 42.667zM853.333 405.333c0-94.123-76.544-170.667-170.667-170.667h-341.333c-94.123 0-170.667 76.544-170.667 170.667v42.667h682.667v-42.667z" />
<glyph unicode="&#xe919;" glyph-name="bx-battery" d="M853.333 661.333c0 23.595-19.072 42.667-42.667 42.667h-640c-47.061 0-85.333-38.272-85.333-85.333v-341.333c0-47.061 38.272-85.333 85.333-85.333h640c23.595 0 42.667 19.072 42.667 42.667v128h85.333v170.667h-85.333v128zM768 277.333h-597.333v341.333h597.333v-341.333z" />
<glyph unicode="&#xe91a;" glyph-name="bx-bed" d="M853.333 552.235v279.765h-85.333v-85.333h-512v85.333h-85.333v-279.765c-50.773-29.568-85.333-83.968-85.333-146.901v-170.667c0-23.595 19.115-42.667 42.667-42.667h42.667v-170.667h85.333v170.667h512v-170.667h85.333v170.667h42.667c23.595 0 42.667 19.072 42.667 42.667v170.667c0 62.933-34.603 117.333-85.333 146.901zM768 661.333v-85.333h-213.333v85.333h213.333zM256 661.333h213.333v-85.333h-213.333v85.333zM853.333 277.333h-682.667v128c0 47.061 38.272 85.333 85.333 85.333h512c47.061 0 85.333-38.272 85.333-85.333v-128z" />
<glyph unicode="&#xe91b;" glyph-name="bx-bell" d="M853.333 326.912v121.088c0 195.328-104.917 339.499-262.997 375.211-13.056 30.336-43.093 51.456-78.336 51.456s-65.28-21.12-78.336-51.456c-158.080-35.712-262.997-179.883-262.997-375.211v-121.088l-40.448-121.429c-4.395-13.013-2.176-27.349 5.845-38.443 8.021-11.136 20.907-17.707 34.603-17.707h213.333c0-70.997 57.003-128 128-128s128 57.003 128 128h213.333c0.341 0 0.683 0 0.853 0 23.595 0 42.667 19.072 42.667 42.667 0 7.68-2.005 14.891-5.589 21.12l-37.931 113.792zM229.888 234.667l23.936 71.851c1.408 4.352 2.176 8.917 2.176 13.483v128c0 181.419 100.48 298.667 256 298.667s256-117.248 256-298.667v-128c0-4.565 0.768-9.131 2.219-13.483l23.893-71.851h-564.224z" />
<glyph unicode="&#xe91c;" glyph-name="bx-bell-minus" d="M853.333 326.912v121.088c0 195.328-104.917 339.499-262.997 375.211-13.056 30.336-43.093 51.456-78.336 51.456s-65.28-21.12-78.336-51.456c-158.080-35.712-262.997-179.883-262.997-375.211v-121.088l-40.448-121.429c-4.395-13.013-2.176-27.349 5.845-38.443 8.021-11.136 20.907-17.707 34.603-17.707h213.333c0-70.997 57.003-128 128-128s128 57.003 128 128h213.333c0.341-0.043 0.64-0.043 0.853 0 23.595 0 42.667 19.072 42.667 42.667 0 7.68-2.005 14.891-5.589 21.12l-37.931 113.792zM229.888 234.667l23.936 71.851c1.408 4.352 2.176 8.917 2.176 13.483v128c0 181.419 100.48 298.667 256 298.667s256-117.248 256-298.667v-128c0-4.565 0.768-9.131 2.219-13.483l23.893-71.851h-564.224zM341.333 533.333h341.333v-85.333h-341.333v85.333z" />
<glyph unicode="&#xe91d;" glyph-name="bx-bell-off" d="M868.181 152.277c4.779 1.792 9.301 4.224 13.184 7.552 0.256 0.213 0.384 0.512 0.64 0.725 2.176 1.963 4.267 4.096 6.016 6.485 1.024 1.408 1.664 3.029 2.517 4.523 0.469 0.853 0.896 1.536 1.323 2.389 2.048 4.395 3.285 8.96 3.797 13.696 0.085 0.896 0.043 1.707 0.085 2.603 0.213 5.12-0.213 10.24-1.877 15.232l-40.533 121.429v121.088c0 195.328-104.917 339.499-262.997 375.211-13.056 30.336-43.093 51.456-78.336 51.456s-65.28-21.12-78.336-51.456c-59.477-13.44-110.763-43.051-152.363-84.181l-123.136 123.136-60.331-60.331 768-768 60.331 60.331-58.069 58.069c0.043 0 0.043 0.043 0.085 0.043zM512 746.667c155.52 0 256-117.248 256-298.667v-134.912l11.179-33.536 14.933-44.885h-8.448l-445.312 445.312c43.435 42.624 101.803 66.688 171.648 66.688zM229.888 234.667l14.976 44.885 11.136 33.536v134.912c0 26.027 2.304 50.603 6.272 73.856l-70.059 70.101c-13.909-43.691-21.547-91.947-21.547-143.957v-121.088l-40.448-121.429c-1.664-4.992-2.091-10.112-1.877-15.232 0.043-0.896 0-1.707 0.085-2.603 0.512-4.736 1.749-9.344 3.797-13.696 0.427-0.853 0.896-1.536 1.323-2.389 0.853-1.493 1.451-3.115 2.517-4.523 1.749-2.432 3.84-4.523 6.016-6.485 0.256-0.213 0.384-0.512 0.64-0.725 3.883-3.328 8.363-5.76 13.184-7.552 0.512-0.171 0.853-0.597 1.323-0.768 0.427-0.128 0.896-0.085 1.28-0.213 3.925-1.109 7.936-1.963 12.16-1.963h213.333c0-70.997 57.003-128 128-128 69.376 0 125.056 54.528 127.531 123.307l-90.027 90.027h-319.616z" />
<glyph unicode="&#xe91e;" glyph-name="bx-bell-plus" d="M853.333 326.912v121.088c0 195.328-104.917 339.499-262.997 375.211-13.056 30.336-43.093 51.456-78.336 51.456s-65.28-21.12-78.336-51.456c-158.080-35.712-262.997-179.883-262.997-375.211v-121.088l-40.448-121.429c-4.395-13.013-2.176-27.349 5.845-38.443 8.021-11.136 20.907-17.707 34.603-17.707h213.333c0-70.997 57.003-128 128-128s128 57.003 128 128h213.333c0.299-0.043 0.64-0.043 0.853 0 23.595 0 42.667 19.072 42.667 42.667 0 7.68-2.005 14.891-5.589 21.12l-37.931 113.792zM229.888 234.667l23.936 71.851c1.408 4.352 2.176 8.917 2.176 13.483v128c0 181.419 100.48 298.667 256 298.667s256-117.248 256-298.667v-128c0-4.565 0.768-9.131 2.219-13.483l23.893-71.851h-564.224zM554.667 661.333h-85.333v-128h-128v-85.333h128v-128h85.333v128h128v85.333h-128z" />
<glyph unicode="&#xe91f;" glyph-name="bx-bicycle" d="M797.355 440.32l-170.197 306.347h140.843v85.333h-213.333c-15.104 0-29.141-8.021-36.779-21.035-7.68-13.013-7.851-29.141-0.512-42.325l83.285-149.973h-313.856c-30.421 52.608-86.912 85.333-147.755 85.333h-53.717v-85.333h53.717c30.549 0 58.965-16.469 74.112-43.008l73.515-128.64c-3.157 0.171-6.144 0.981-9.344 0.981-105.856 0-192-86.144-192-192s86.144-192 192-192 192 86.144 192 192c0 14.805-2.048 29.056-5.205 42.837l180.48 240.725 54.571-98.219c-82.859-21.248-144.512-95.915-144.512-185.344 0-105.856 86.144-192 192-192s192 86.144 192 192c0 88.192-60.117 161.963-141.312 184.32zM277.333 149.333c-58.837 0-106.667 47.829-106.667 106.667s47.829 106.667 106.667 106.667 106.667-47.829 106.667-106.667-47.829-106.667-106.667-106.667zM420.437 382.763c-0.128 0.171-0.256 0.341-0.427 0.512l1.024 0.597-85.419 149.461h197.717l-112.896-150.571zM746.667 149.333c-58.837 0-106.667 47.829-106.667 106.667s47.829 106.667 106.667 106.667 106.667-47.829 106.667-106.667-47.829-106.667-106.667-106.667z" />
<glyph unicode="&#xe920;" glyph-name="bx-block" d="M512 874.667c-235.264 0-426.667-191.403-426.667-426.667s191.403-426.667 426.667-426.667c235.264 0 426.667 191.403 426.667 426.667s-191.403 426.667-426.667 426.667zM170.667 448c0 78.763 27.051 151.125 72.021 208.939l478.251-478.251c-57.771-44.971-130.176-72.021-208.939-72.021-188.203 0-341.333 153.131-341.333 341.333zM781.312 239.061l-478.251 478.251c57.813 44.971 130.176 72.021 208.939 72.021 188.203 0 341.333-153.131 341.333-341.333 0-78.763-27.093-151.125-72.021-208.939z" />
<glyph unicode="&#xe921;" glyph-name="bx-bluetooth" d="M188.16 269.141l50.347-68.907 188.16 137.515v-273.749c0-15.616 8.533-29.995 22.229-37.461 6.4-3.456 13.397-5.205 20.437-5.205 8.021 0 16.085 2.261 23.083 6.784l298.667 192c11.819 7.595 19.115 20.565 19.584 34.645 0.427 14.080-6.144 27.435-17.493 35.712l-215.595 157.525 215.595 157.525c11.349 8.32 17.92 21.675 17.493 35.755-0.469 14.080-7.765 27.008-19.584 34.645l-298.667 192c-13.141 8.448-29.824 9.045-43.563 1.579-13.653-7.509-22.187-21.888-22.187-37.504v-273.749l-188.16 137.557-50.347-68.949 238.507-174.293v-9.173l-238.507-174.251zM512 753.835l180.565-116.096-180.565-131.968v248.064zM512 390.229l180.565-131.968-180.565-116.096v248.064z" />
<glyph unicode="&#xe922;" glyph-name="bx-body" d="M597.333 789.333c0-47.128-38.205-85.333-85.333-85.333s-85.333 38.205-85.333 85.333c0 47.128 38.205 85.333 85.333 85.333s85.333-38.205 85.333-85.333zM640 21.333v554.667h213.333v85.333h-682.667v-85.333h213.333v-554.667h85.333v298.667h85.333v-298.667z" />
<glyph unicode="&#xe923;" glyph-name="bx-bold" d="M277.333 64h277.333c241.28 0 277.333 147.029 277.333 234.667 0 85.675-37.205 152.107-103.083 192.085 24.875 34.944 39.083 78.763 39.083 127.915 0 123.605-89.728 213.333-213.333 213.333h-277.333c-35.328 0-64-28.629-64-64v-640c0-35.371 28.672-64 64-64zM341.333 704h213.333c54.229 0 85.333-31.104 85.333-85.333 0-53.419-31.915-85.333-85.333-85.333h-213.333v170.667zM341.333 405.333h213.333c68.139 0 149.333-18.517 149.333-106.667 0-53.973-11.563-106.667-149.333-106.667h-213.333v213.333z" />
<glyph unicode="&#xe924;" glyph-name="bx-book" d="M256.512 192h596.821c23.595 0 42.667 19.115 42.667 42.667v554.667c0 47.061-38.272 85.333-85.333 85.333h-554.667c-51.456 0-128-34.091-128-128v-597.333c0-93.909 76.544-128 128-128h640v85.333h-639.488c-19.712 0.512-43.179 8.32-43.179 42.667s23.467 42.155 43.179 42.667zM213.333 618.667v128c0 34.347 23.467 42.155 42.667 42.667h554.667v-512h-597.333v341.333zM341.333 704h384v-85.333h-384v85.333z" />
<glyph unicode="&#xe925;" glyph-name="bx-book-bookmark" d="M256.512 191.573h596.821c23.595 0 42.667 19.072 42.667 42.667v554.667c0 47.061-38.272 85.333-85.333 85.333h-554.667c-51.456 0-128-34.091-128-128v-597.333c0-93.909 76.544-128 128-128h640v85.333h-639.488c-19.712 0.512-43.179 8.32-43.179 42.667 0 4.309 0.384 8.149 1.024 11.648 4.779 24.576 24.917 30.592 42.155 31.019zM213.333 618.24v128c0 34.389 23.467 42.155 42.667 42.667h298.667v-298.667l85.333 42.667 85.333-42.667v298.667h85.333v-512h-597.333v341.333z" />
<glyph unicode="&#xe926;" glyph-name="bx-bookmark" d="M170.667 576v-512c0-15.189 8.064-29.269 21.248-36.907 13.184-7.595 29.355-7.68 42.581-0.128l277.504 158.592 277.504-158.592c6.528-3.755 13.867-5.632 21.163-5.632 7.424 0 14.805 1.92 21.419 5.76 13.184 7.637 21.248 21.717 21.248 36.907v725.333c0 47.061-38.272 85.333-85.333 85.333h-512c-47.061 0-85.333-38.272-85.333-85.333v-213.333zM256 789.333h512v-651.776l-234.837 134.187c-13.099 7.509-29.269 7.509-42.325 0l-234.837-134.187v651.776z" />
<glyph unicode="&#xe927;" glyph-name="bx-bookmark-minus" d="M341.333 576h341.333v-85.333h-341.333v85.333zM832.085 27.093c13.184 7.637 21.248 21.717 21.248 36.907v725.333c0 47.061-38.272 85.333-85.333 85.333h-512c-47.061 0-85.333-38.272-85.333-85.333v-725.333c0-15.189 8.107-29.269 21.248-36.907s29.355-7.68 42.581-0.128l277.504 158.549 277.504-158.549c6.528-3.755 13.867-5.632 21.163-5.632 7.424 0 14.805 1.92 21.419 5.76zM768 137.515l-234.837 134.187c-6.571 3.755-13.867 5.632-21.163 5.632s-14.592-1.877-21.163-5.632l-234.837-134.187v651.819h512v-651.819z" />
<glyph unicode="&#xe928;" glyph-name="bx-bookmark-plus" d="M554.667 362.667v128h128v85.333h-128v128h-85.333v-128h-128v-85.333h128v-128zM170.667 789.333v-725.333c0-15.189 8.064-29.269 21.248-36.907s29.355-7.68 42.581-0.128l277.504 158.549 277.504-158.549c6.528-3.755 13.867-5.632 21.163-5.632 7.424 0 14.805 1.92 21.419 5.76 13.184 7.637 21.248 21.717 21.248 36.907v725.333c0 47.061-38.272 85.333-85.333 85.333h-512c-47.061 0-85.333-38.272-85.333-85.333zM256 789.333h512v-651.819l-234.837 134.187c-6.528 3.755-13.867 5.632-21.163 5.632s-14.635-1.877-21.163-5.632l-234.837-134.187v651.819z" />
<glyph unicode="&#xe929;" glyph-name="bx-bookmarks" d="M597.333 704h-341.333c-47.061 0-85.333-38.272-85.333-85.333v-512c0-15.36 8.235-29.525 21.632-37.12s29.824-7.381 43.008 0.555l191.36 114.816 191.36-114.816c6.784-4.053 14.336-6.101 21.973-6.101 7.253 0 14.507 1.835 21.035 5.547 13.397 7.595 21.632 21.76 21.632 37.12v512c0 47.061-38.272 85.333-85.333 85.333zM597.333 432.939v-250.923l-148.693 89.216c-13.483 8.064-30.421 8.064-43.904 0l-148.736-89.173v436.608h341.333v-185.728zM768 874.667h-341.333v-85.333h341.333v-512h85.333v512c0 47.061-38.272 85.333-85.333 85.333z" />
<glyph unicode="&#xe92a;" glyph-name="bx-box" d="M853.333 832h-682.667c-47.061 0-85.333-38.272-85.333-85.333v-85.333c0-31.403 17.28-58.667 42.667-73.472v-438.528c0-47.061 38.272-85.333 85.333-85.333h597.333c47.061 0 85.333 38.272 85.333 85.333v438.528c25.387 14.805 42.667 42.069 42.667 73.472v85.333c0 47.061-38.272 85.333-85.333 85.333zM170.667 746.667h682.667l0.085-85.333h-682.752v85.333zM213.333 149.333v426.667h597.333l0.085-426.667h-597.419zM341.333 490.667h341.333v-85.333h-341.333v85.333z" />
<glyph unicode="&#xe92b;" glyph-name="bx-briefcase" d="M853.333 704h-128v85.333c0 47.061-38.272 85.333-85.333 85.333h-256c-47.061 0-85.333-38.272-85.333-85.333v-85.333h-128c-47.061 0-85.333-38.272-85.333-85.333v-426.667c0-47.061 38.272-85.333 85.333-85.333h682.667c47.061 0 85.333 38.272 85.333 85.333v426.667c0 47.061-38.272 85.333-85.333 85.333zM640 789.333v-85.333h-256v85.333h256zM341.333 618.667h512v-128h-682.667v128h170.667zM170.667 192v213.333h256v-85.333h170.667v85.333h256l0.043-213.333h-682.709z" />
<glyph unicode="&#xe92c;" glyph-name="bx-briefcase-alt" d="M853.333 704h-128v85.333c0 47.061-38.272 85.333-85.333 85.333h-256c-47.061 0-85.333-38.272-85.333-85.333v-85.333h-128c-47.061 0-85.333-38.272-85.333-85.333v-426.667c0-47.061 38.272-85.333 85.333-85.333h682.667c47.061 0 85.333 38.272 85.333 85.333v426.667c0 47.061-38.272 85.333-85.333 85.333zM682.667 618.667v-426.667h-341.333v426.667h341.333zM640 789.333v-85.333h-256v85.333h256zM170.667 618.667h85.333v-426.667h-85.333v426.667zM768 192v426.667h85.333l0.043-426.667h-85.376z" />
<glyph unicode="&#xe92d;" glyph-name="bx-broadcast" d="M780.501 716.501c116.608-116.608 116.608-313.728 0-430.336l60.331-60.331c149.333 149.333 149.333 401.664 0 550.997l-60.331-60.331zM712.832 353.835c40.277 40.235 62.507 92.672 62.507 147.499s-22.229 107.264-62.507 147.499l-60.331-60.331c24.149-24.149 37.504-55.125 37.504-87.168s-13.355-63.019-37.504-87.168l60.331-60.331zM264.832 286.165c-116.608 116.608-116.608 313.728 0 430.336l-60.331 60.331c-149.333-149.333-149.333-401.664 0-550.997l60.331 60.331zM311.168 648.832c-40.277-40.235-62.507-92.672-62.507-147.499s22.229-107.264 62.507-147.499l60.331 60.331c-24.149 24.149-37.504 55.125-37.504 87.168s13.355 63.019 37.504 87.168l-60.331 60.331zM554.667 64v374.485c25.429 14.805 42.667 41.984 42.667 73.515 0 47.104-38.229 85.333-85.333 85.333s-85.333-38.229-85.333-85.333c-0.043-31.488 17.237-58.752 42.667-73.515v-374.485h85.333z" />
<glyph unicode="&#xe92e;" glyph-name="bx-bug" d="M720.853 681.856l120.021 119.979-60.331 60.331-121.429-121.429c-9.941 7.083-20.181 13.696-30.848 19.371-73.515 38.827-158.976 38.869-232.533 0-10.667-5.632-20.821-12.245-30.805-19.328l-121.429 121.387-60.331-60.331 120.021-119.979c-24.576-30.848-43.776-66.56-57.6-105.856h-160.256v-85.333h98.432c-2.773-21.12-4.565-42.539-4.565-64 0-21.632 1.792-43.221 4.565-64.469h-98.432v-85.333h117.461c0.555-1.664 0.896-3.413 1.451-5.035 8.021-23.68 17.963-46.635 29.653-68.267 1.877-3.456 4.053-6.613 6.016-9.984l-99.413-99.413 60.331-60.331 90.027 90.069c10.027-10.837 20.395-21.248 31.403-30.549 17.835-15.104 36.992-28.032 56.832-38.528 20.437-10.795 41.899-19.157 63.829-24.747 22.613-5.803 45.824-8.747 69.077-8.747s46.464 2.944 69.035 8.704c21.931 5.589 43.392 13.952 63.829 24.747 19.84 10.496 38.997 23.467 56.875 38.571 11.008 9.301 21.333 19.712 31.317 30.549l90.069-90.069 60.331 60.331-99.413 99.413c2.005 3.413 4.181 6.613 6.059 10.069 11.648 21.547 21.632 44.501 29.611 68.224 0.555 1.664 0.896 3.371 1.451 5.035h117.504v85.333h-98.475c2.773 21.291 4.565 42.837 4.565 64.469 0 21.461-1.792 42.88-4.523 64h98.432v85.291h-160.256c-13.824 39.296-33.024 75.008-57.557 105.856zM370.389 629.419c18.987 23.808 40.96 42.368 65.195 55.211 48.683 25.728 104.192 25.685 152.789 0 24.277-12.843 46.251-31.403 65.28-55.253 12.757-15.915 23.040-34.133 32.128-53.376h-347.563c9.131 19.243 19.371 37.504 32.171 53.419zM759.467 426.667c0-22.272-1.792-44.544-5.376-66.261-3.371-20.907-8.491-41.515-15.147-61.269-6.443-19.157-14.507-37.632-23.851-54.955-9.259-17.024-19.755-32.939-31.275-47.36-11.392-14.208-23.893-27.136-37.077-38.315-13.227-11.136-27.264-20.651-41.771-28.331s-29.653-13.525-45.099-17.493c-1.707-0.427-3.499-0.597-5.205-0.981v250.965h-85.333v-250.923c-1.707 0.384-3.499 0.555-5.205 0.981-15.403 3.968-30.592 9.813-45.099 17.493s-28.544 17.195-41.728 28.331c-13.269 11.221-25.771 24.107-37.163 38.357-11.52 14.379-22.016 30.293-31.189 47.275-9.387 17.365-17.408 35.84-23.893 54.997-6.656 19.755-11.776 40.363-15.189 61.355-3.541 21.589-5.333 43.861-5.333 66.133 0 21.547 1.749 43.051 5.077 64h484.736c3.371-20.949 5.12-42.453 5.12-64z" />
<glyph unicode="&#xe92f;" glyph-name="bx-building" d="M213.333 21.333h597.333c23.595 0 42.667 19.115 42.667 42.667v725.333c0 47.061-38.272 85.333-85.333 85.333h-512c-47.061 0-85.333-38.272-85.333-85.333v-725.333c0-23.552 19.072-42.667 42.667-42.667zM256 789.333h512v-682.667h-170.667v85.333h-170.667v-85.333h-170.667v682.667zM341.333 704h128v-85.333h-128v85.333zM554.667 704h128v-85.333h-128v85.333zM341.333 533.333h128v-85.333h-128v85.333zM554.667 532.011h128v-84.011h-128v84.011zM341.333 362.667h128v-85.333h-128v85.333zM554.667 362.667h128v-85.333h-128v85.333z" />
<glyph unicode="&#xe930;" glyph-name="bx-bulb" d="M384 106.667h256v-85.333h-256zM721.323 374.955c43.947 51.456 89.344 104.661 89.344 201.045 0 164.651-134.016 298.667-298.667 298.667s-298.667-134.016-298.667-298.667c0-97.493 45.525-150.528 89.643-201.813 15.275-17.835 31.104-36.309 46.251-57.557 6.144-8.789 16.213-42.496 25.216-81.963h-33.109v-85.333h341.333v85.333h-33.024c9.088 39.552 19.2 73.344 25.301 82.133 15.019 21.461 30.976 40.107 46.379 58.155zM605.099 365.867c-18.517-26.325-33.963-88.533-42.923-131.2h-100.309c-8.917 42.752-24.405 105.088-43.136 131.413-17.365 24.405-35.243 45.269-51.029 63.659-41.557 48.384-69.035 80.384-69.035 146.261 0 117.632 95.701 213.333 213.333 213.333s213.333-95.701 213.333-213.333c0-64.896-27.435-97.024-68.907-145.621-15.915-18.688-33.963-39.808-51.328-64.512z" />
<glyph unicode="&#xe931;" glyph-name="bx-bullseye" d="M512 704c-141.184 0-256-114.816-256-256s114.816-256 256-256 256 114.816 256 256-114.816 256-256 256zM512 277.333c-94.123 0-170.667 76.544-170.667 170.667s76.544 170.667 170.667 170.667 170.667-76.544 170.667-170.667-76.544-170.667-170.667-170.667zM512 874.667c-231.296 0-426.667-195.371-426.667-426.667s195.371-426.667 426.667-426.667 426.667 195.371 426.667 426.667-195.371 426.667-426.667 426.667zM512 106.667c-185.045 0-341.333 156.288-341.333 341.333s156.288 341.333 341.333 341.333 341.333-156.288 341.333-341.333-156.288-341.333-341.333-341.333zM512 533.333c-46.123 0-85.333-39.211-85.333-85.333s39.211-85.333 85.333-85.333 85.333 39.211 85.333 85.333-39.211 85.333-85.333 85.333z" />
<glyph unicode="&#xe932;" glyph-name="bx-buoy" d="M512 874.667c-235.264 0-426.667-191.403-426.667-426.667s191.403-426.667 426.667-426.667 426.667 191.403 426.667 426.667-191.403 426.667-426.667 426.667zM828.203 576h-145.536v-1.323c-12.459 16.725-27.264 31.531-43.989 43.989h1.323v145.536c85.376-34.688 153.515-102.869 188.203-188.203zM512 320c-70.571 0-128 57.429-128 128s57.429 128 128 128 128-57.429 128-128-57.429-128-128-128zM554.667 786.389v-129.365c-13.781 2.816-28.032 4.309-42.667 4.309s-28.885-1.493-42.667-4.309v129.365c13.995 1.749 28.16 2.944 42.667 2.944s28.672-1.195 42.667-2.944zM384 764.203v-145.536h1.323c-16.725-12.459-31.531-27.264-43.989-43.989v1.323h-145.536c34.688 85.333 102.827 153.515 188.203 188.203zM173.611 490.667h129.365c-2.816-13.781-4.309-28.075-4.309-42.667s1.493-28.885 4.352-42.667h-129.408c-1.749 13.995-2.944 28.203-2.944 42.667s1.195 28.672 2.944 42.667zM195.797 320h145.536v1.323c12.117-16.256 26.496-30.635 42.667-42.88v-146.645c-85.376 34.688-153.515 102.869-188.203 188.203zM469.333 109.611v129.365c13.781-2.816 28.032-4.309 42.667-4.309s28.885 1.493 42.667 4.309v-129.365c-13.995-1.749-28.16-2.944-42.667-2.944s-28.672 1.195-42.667 2.944zM640 131.797v146.645c16.171 12.245 30.549 26.624 42.667 42.88v-1.323h145.536c-34.688-85.333-102.827-153.515-188.203-188.203zM850.389 405.333h-129.365c2.816 13.781 4.309 28.075 4.309 42.667s-1.493 28.885-4.352 42.667h129.365c1.792-13.995 2.987-28.203 2.987-42.667s-1.195-28.672-2.944-42.667z" />
<glyph unicode="&#xe933;" glyph-name="bx-bus" d="M896.171 619.733v84.267c0 94.123-76.544 170.667-170.667 170.667h-426.667c-94.123 0-170.667-76.544-170.667-170.667v-85.248c-1.835-0.085-3.243-0.171-3.243-0.171-22.357-1.621-39.595-20.181-39.595-42.581v-85.333c0-23.552 19.072-42.667 42.667-42.667h0.171v-256c0-47.061 38.272-85.333 85.333-85.333v-42.667c0-23.595 19.072-42.667 42.667-42.667h85.333c23.595 0 42.667 19.072 42.667 42.667v42.667h256v-42.667c0-23.595 19.072-42.667 42.667-42.667h85.333c23.595 0 42.667 19.072 42.667 42.667v42.667c47.061 0 85.333 38.272 85.333 85.333v256c23.595 0 42.667 19.115 42.667 42.667v82.688c0.469 6.528-0.512 13.184-3.072 19.413-8.661 20.779-27.093 25.771-39.595 26.965zM213.504 618.667h256v-170.667h-256v170.667zM554.837 618.667h256v-42.581c0-0.043 0-0.043 0-0.085v-85.333c0-0.043 0.043-0.085 0.043-0.171v-42.496h-256.043v170.667zM298.837 789.333h426.667c47.061 0 85.333-38.272 85.333-85.333h-597.333c0 47.061 38.272 85.333 85.333 85.333zM768.171 192h-554.667v170.667h597.376l0.043-170.667h-42.752zM256.171 320h85.333v-85.333h-85.333v85.333zM682.837 320h85.333v-85.333h-85.333v85.333z" />
<glyph unicode="&#xe934;" glyph-name="bx-calendar" d="M298.667 490.667h85.333v-85.333h-85.333zM298.667 320h85.333v-85.333h-85.333zM469.333 490.667h85.333v-85.333h-85.333zM469.333 320h85.333v-85.333h-85.333zM640 490.667h85.333v-85.333h-85.333zM640 320h85.333v-85.333h-85.333zM213.333 21.333h597.333c47.061 0 85.333 38.272 85.333 85.333v597.333c0 47.061-38.272 85.333-85.333 85.333h-85.333v85.333h-85.333v-85.333h-256v85.333h-85.333v-85.333h-85.333c-47.061 0-85.333-38.272-85.333-85.333v-597.333c0-47.061 38.272-85.333 85.333-85.333zM810.667 618.667l0.043-512h-597.376v512h597.333z" />
<glyph unicode="&#xe935;" glyph-name="bx-calendar-alt" d="M127.957 704v-597.333c0-47.061 38.272-85.333 85.333-85.333h597.333c47.061 0 85.333 38.272 85.333 85.333v597.333c0 47.061-38.272 85.333-85.333 85.333h-85.333v85.333h-85.333v-85.333h-256v85.333h-85.333v-85.333h-85.333c-47.061 0-85.333-38.272-85.333-85.333zM810.709 106.667h-597.419v512h597.333l0.085-512z" />
<glyph unicode="&#xe936;" glyph-name="bx-calendar-check" d="M810.667 789.333h-85.333v85.333h-85.333v-85.333h-256v85.333h-85.333v-85.333h-85.333c-47.061 0-85.333-38.272-85.333-85.333v-597.333c0-47.061 38.272-85.333 85.333-85.333h597.333c47.061 0 85.333 38.272 85.333 85.333v597.333c0 47.061-38.272 85.333-85.333 85.333zM810.752 106.667h-597.419v512h597.333l0.085-512zM469.333 217.003l243.499 243.499-60.331 60.331-183.168-183.168-97.835 97.835-60.331-60.331z" />
<glyph unicode="&#xe937;" glyph-name="bx-calendar-event" d="M469.333 448h256v-256h-256zM810.667 789.333h-85.333v85.333h-85.333v-85.333h-256v85.333h-85.333v-85.333h-85.333c-47.061 0-85.333-38.272-85.333-85.333v-597.333c0-47.061 38.272-85.333 85.333-85.333h597.333c47.061 0 85.333 38.272 85.333 85.333v597.333c0 47.061-38.272 85.333-85.333 85.333zM810.709 106.667h-597.376v512h597.333l0.043-512z" />
<glyph unicode="&#xe938;" glyph-name="bx-calendar-minus" d="M341.333 405.333h341.333v-85.333h-341.333zM810.667 789.333h-85.333v85.333h-85.333v-85.333h-256v85.333h-85.333v-85.333h-85.333c-47.061 0-85.333-38.272-85.333-85.333v-597.333c0-47.061 38.272-85.333 85.333-85.333h597.333c47.061 0 85.333 38.272 85.333 85.333v597.333c0 47.061-38.272 85.333-85.333 85.333zM810.752 106.667h-597.419v512h597.333l0.085-512z" />
<glyph unicode="&#xe939;" glyph-name="bx-calendar-plus" d="M341.333 320h128v-128h85.333v128h128v85.333h-128v128h-85.333v-128h-128zM810.667 789.333h-85.333v85.333h-85.333v-85.333h-256v85.333h-85.333v-85.333h-85.333c-47.061 0-85.333-38.272-85.333-85.333v-597.333c0-47.061 38.272-85.333 85.333-85.333h597.333c47.061 0 85.333 38.272 85.333 85.333v597.333c0 47.061-38.272 85.333-85.333 85.333zM810.752 106.667h-597.419v512h597.333l0.085-512z" />
<glyph unicode="&#xe93a;" glyph-name="bx-calendar-x" d="M353.835 264.832l60.331-60.331 97.835 97.835 97.835-97.835 60.331 60.331-97.835 97.835 97.835 97.835-60.331 60.331-97.835-97.835-97.835 97.835-60.331-60.331 97.835-97.835zM810.667 789.333h-85.333v85.333h-85.333v-85.333h-256v85.333h-85.333v-85.333h-85.333c-47.061 0-85.333-38.272-85.333-85.333v-597.333c0-47.061 38.272-85.333 85.333-85.333h597.333c47.061 0 85.333 38.272 85.333 85.333v597.333c0 47.061-38.272 85.333-85.333 85.333zM810.752 106.667h-597.419v512h597.333l0.085-512z" />
<glyph unicode="&#xe93b;" glyph-name="bx-camera" d="M512 618.667c-92.501 0-170.667-78.165-170.667-170.667s78.165-170.667 170.667-170.667 170.667 78.165 170.667 170.667c0 92.501-78.165 170.667-170.667 170.667zM512 362.667c-45.44 0-85.333 39.893-85.333 85.333s39.893 85.333 85.333 85.333 85.333-39.893 85.333-85.333-39.893-85.333-85.333-85.333zM853.333 746.667h-110.336l-115.499 115.499c-7.979 8.021-18.816 12.501-30.165 12.501h-170.667c-11.349 0-22.187-4.48-30.165-12.501l-115.499-115.499h-110.336c-47.061 0-85.333-38.272-85.333-85.333v-469.333c0-47.061 38.272-85.333 85.333-85.333h682.667c47.061 0 85.333 38.272 85.333 85.333v469.333c0 47.061-38.272 85.333-85.333 85.333zM170.667 192v469.333h128c11.349 0 22.187 4.48 30.165 12.501l115.499 115.499h135.339l115.499-115.499c7.979-8.021 18.816-12.501 30.165-12.501h128l0.085-469.333h-682.752z" />
<glyph unicode="&#xe93c;" glyph-name="bx-camera-off" d="M341.931 442.24c3.157-87.979 76.331-161.152 164.309-164.309l-164.309 164.309zM170.667 106.667h506.837l-85.333 85.333h-421.504v421.504l-79.189 79.189c-3.883-9.728-6.144-20.267-6.144-31.36v-469.333c0-47.061 38.272-85.333 85.333-85.333zM853.333 746.667h-110.336l-115.499 115.499c-7.979 8.021-18.816 12.501-30.165 12.501h-170.667c-11.307 0-22.187-4.48-30.165-12.501l-115.499-115.499h-7.339l-115.499 115.499-60.331-60.331 768-768 60.331 60.331-26.709 26.709c23.467 15.104 39.211 41.131 39.211 71.125v469.333c0 47.061-38.272 85.333-85.333 85.333zM593.877 426.453l-103.424 103.467c6.955 1.963 14.123 3.413 21.547 3.413 45.44 0 85.333-39.893 85.333-85.333 0-7.424-1.408-14.592-3.456-21.547zM657.963 362.411c15.275 25.344 24.704 54.485 24.704 85.589 0 92.501-78.165 170.667-170.667 170.667-31.104 0-60.245-9.387-85.632-24.704l-88.704 88.704 106.667 106.667h135.339l115.499-115.499c7.979-8.021 18.816-12.501 30.165-12.501l128 0.043v-469.376h-25.003l-170.368 170.411z" />
<glyph unicode="&#xe93d;" glyph-name="bx-captions" d="M256 533.333v-170.667c0-47.061 38.272-85.333 85.333-85.333h128v85.333h-128v170.667h128v85.333h-128c-47.061 0-85.333-38.272-85.333-85.333zM554.667 533.333v-170.667c0-47.061 38.272-85.333 85.333-85.333h128v85.333h-128v170.667h128v85.333h-128c-47.061 0-85.333-38.272-85.333-85.333zM853.333 789.333h-682.667c-47.061 0-85.333-38.272-85.333-85.333v-512c0-47.061 38.272-85.333 85.333-85.333h682.667c47.061 0 85.333 38.272 85.333 85.333v512c0 47.061-38.272 85.333-85.333 85.333zM170.667 192v512h682.667l0.085-512h-682.752z" />
<glyph unicode="&#xe93e;" glyph-name="bx-car" d="M886.272 526.677l-58.368 175.147c-17.451 52.352-66.219 87.509-121.387 87.509h-389.035c-55.168 0-103.936-35.157-121.387-87.509l-58.368-175.147c-30.72-12.928-52.395-43.307-52.395-78.677v-170.667c0-31.403 17.28-58.667 42.667-73.472v-97.195c0-23.595 19.072-42.667 42.667-42.667h42.667c23.595 0 42.667 19.072 42.667 42.667v85.333h512v-85.333c0-23.595 19.072-42.667 42.667-42.667h42.667c23.595 0 42.667 19.072 42.667 42.667v97.195c25.387 14.805 42.667 42.027 42.667 73.472v170.667c0 35.371-21.675 65.749-52.395 78.677zM213.333 277.333h-42.667v170.667h682.667l0.085-170.667h-640.085zM317.483 704h388.992c18.389 0 34.688-11.691 40.491-29.184l47.189-141.483h-564.309l47.147 141.483c5.845 17.493 22.144 29.184 40.491 29.184zM213.333 405.333h85.333v-85.333h-85.333v85.333zM725.333 405.333h85.333v-85.333h-85.333v85.333z" />
<glyph unicode="&#xe93f;" glyph-name="bx-card" d="M767.957 234.667c47.061 0 85.333 38.272 85.333 85.333v426.667c0 47.061-38.272 85.333-85.333 85.333h-512c-47.061 0-85.333-38.272-85.333-85.333v-426.667c0-47.061 38.272-85.333 85.333-85.333h512zM255.957 746.667h512l0.085-426.667h-512.085v426.667zM170.624 149.333h682.667v-85.333h-682.667z" />
<glyph unicode="&#xe940;" glyph-name="bx-caret-down" d="M511.915 234.667l298.667 341.333h-597.333z" />
<glyph unicode="&#xe941;" glyph-name="bx-caret-left" d="M640 149.333v597.333l-341.333-298.667z" />
<glyph unicode="&#xe942;" glyph-name="bx-caret-right" d="M384 149.333l341.333 298.667-341.333 298.667z" />
<glyph unicode="&#xe943;" glyph-name="bx-caret-up" d="M213.333 320h597.333l-298.667 341.333z" />
<glyph unicode="&#xe944;" glyph-name="bx-carousel" d="M170.667 149.333h85.333c0-47.061 38.272-85.333 85.333-85.333h341.333c47.061 0 85.333 38.272 85.333 85.333h85.333c47.061 0 85.333 38.272 85.333 85.333v426.667c0 47.061-38.272 85.333-85.333 85.333h-85.333c0 47.061-38.272 85.333-85.333 85.333h-341.333c-47.061 0-85.333-38.272-85.333-85.333h-85.333c-47.061 0-85.333-38.272-85.333-85.333v-426.667c0-47.061 38.272-85.333 85.333-85.333zM853.333 661.333v-426.667h-85.333v426.667h85.333zM341.333 746.667h341.333l0.043-597.333h-341.376v597.333zM170.667 661.333h85.333v-426.667h-85.333v426.667z" />
<glyph unicode="&#xe945;" glyph-name="bx-cart" d="M333.739 287.147c13.312-31.915 44.203-52.48 78.72-52.48h325.931c35.328 0 67.456 22.229 79.915 55.339l117.632 313.685c4.907 13.141 3.072 27.776-4.864 39.296-7.979 11.477-21.077 18.347-35.072 18.347h-625.792l-60.16 144.427c-6.613 15.872-22.144 26.24-39.381 26.24h-85.333v-85.333h56.875l191.531-459.52zM834.432 576l-96-256h-325.973l-106.667 256h528.64zM512 85.333c0-35.346-28.654-64-64-64s-64 28.654-64 64c0 35.346 28.654 64 64 64s64-28.654 64-64zM765.355 85.333c0-35.346-28.654-64-64-64s-64 28.654-64 64c0 35.346 28.654 64 64 64s64-28.654 64-64z" />
<glyph unicode="&#xe946;" glyph-name="bx-cart-alt" d="M183.467 704l140.032-385.067c18.304-50.389 66.688-84.267 120.277-84.267h324.224v85.333h-324.224c-17.877 0-34.005 11.307-40.107 28.075l-20.821 57.259h395.648c37.973 0 71.68 25.515 82.048 61.909l76.501 267.691c3.669 12.885 1.067 26.709-6.955 37.419-8.107 10.709-20.736 16.981-34.091 16.981h-810.667v-85.333h98.133zM778.496 490.667h-426.667l-77.568 213.333h565.205l-60.971-213.333zM512 85.333c0-35.346-28.654-64-64-64s-64 28.654-64 64c0 35.346 28.654 64 64 64s64-28.654 64-64zM768 85.333c0-35.346-28.654-64-64-64s-64 28.654-64 64c0 35.346 28.654 64 64 64s64-28.654 64-64z" />
<glyph unicode="&#xe947;" glyph-name="bx-cast" d="M469.333 63.957h85.333c0 258.816-210.56 469.376-469.333 469.376v-85.333c211.712 0 384-172.288 384-384.043zM298.667 63.957h85.333c0 164.693-133.973 298.709-298.667 298.709v-85.333c117.632 0 213.333-95.701 213.333-213.376zM213.333 128c0-35.346-28.654-64-64-64s-64 28.654-64 64c0 35.346 28.654 64 64 64s64-28.654 64-64zM853.333 789.333h-682.667c-47.061 0-85.333-38.272-85.333-85.333v-87.552c29.013-1.067 57.557-4.011 85.333-9.259v96.811h682.667v-554.667h-224.811c5.248-27.776 8.149-56.32 9.259-85.333h215.552c47.061 0 85.333 38.272 85.333 85.333v554.667c0 47.061-38.272 85.333-85.333 85.333z" />
<glyph unicode="&#xe948;" glyph-name="bx-certification" d="M87.893 333.781c2.901-10.923 10.027-20.267 19.84-25.899l81.493-47.104v-93.824c0-23.552 19.072-42.667 42.667-42.667h93.824l47.104-81.493c5.675-9.771 15.019-16.939 25.941-19.883 3.627-0.939 7.296-1.451 11.008-1.451 7.424 0 14.805 1.92 21.376 5.717l81.408 47.104 81.493-47.104c9.771-5.675 21.461-7.168 32.384-4.267s20.267 10.069 25.899 19.883l47.061 81.451h93.824c23.595 0 42.667 19.115 42.667 42.667v93.824l81.493 47.104c20.395 11.776 27.392 37.888 15.573 58.283l-47.104 81.451 47.104 81.408c11.776 20.395 4.779 46.507-15.573 58.283l-81.493 47.104v93.867c0 23.552-19.072 42.667-42.667 42.667h-93.824l-47.061 81.451c-5.675 9.813-15.019 16.939-25.899 19.883-10.923 2.987-22.571 1.408-32.384-4.267l-81.493-47.104-81.451 47.104c-20.395 11.861-46.507 4.821-58.283-15.573l-47.104-81.493h-93.824c-23.595 0-42.667-19.115-42.667-42.667v-93.824l-81.493-47.104c-9.813-5.675-16.939-15.019-19.84-25.941-2.944-10.923-1.408-22.571 4.267-32.384l47.104-81.408-47.104-81.408c-5.675-9.813-7.211-21.461-4.267-32.384zM225.451 468.949l-38.059 65.835 65.877 38.101c13.184 7.637 21.291 21.717 21.291 36.949v75.733h75.776c15.232 0 29.355 8.107 36.949 21.333l38.059 65.835 65.877-38.059c13.184-7.637 29.483-7.637 42.667 0l65.92 38.059 38.016-65.835c7.637-13.227 21.717-21.333 36.949-21.333h75.776v-75.776c0-15.232 8.107-29.312 21.291-36.949l65.877-38.101-38.101-65.835c-7.637-13.227-7.637-29.483 0-42.709l38.101-65.835-65.877-38.101c-13.184-7.637-21.291-21.717-21.291-36.949v-75.776h-75.776c-15.232 0-29.355-8.107-36.949-21.333l-38.016-65.835-65.92 38.101c-6.571 3.797-13.952 5.717-21.333 5.717s-14.763-1.92-21.376-5.717l-65.835-38.101-38.059 65.835c-7.637 13.184-21.717 21.333-36.949 21.333h-75.776v75.776c0 15.232-8.107 29.312-21.291 36.949l-65.877 38.101 38.101 65.835c7.637 13.227 7.637 29.525-0.043 42.752z" />
<glyph unicode="&#xe949;" glyph-name="bx-chalkboard" d="M853.333 789.333h-682.667c-47.061 0-85.333-38.272-85.333-85.333v-426.667c0-47.061 38.272-85.333 85.333-85.333h170.667l-76.8-102.4 68.267-51.2 115.2 153.6h128l115.2-153.6 68.267 51.2-76.8 102.4h170.667c47.061 0 85.333 38.272 85.333 85.333v426.667c0 47.061-38.272 85.333-85.333 85.333zM170.667 277.333v426.667h682.667l0.043-426.667h-682.709zM256 448h170.667v-85.333h-170.667z" />
<glyph unicode="&#xe94a;" glyph-name="bx-chart" d="M213.333 64h597.333c47.061 0 85.333 38.272 85.333 85.333v597.333c0 47.061-38.272 85.333-85.333 85.333h-597.333c-47.061 0-85.333-38.272-85.333-85.333v-597.333c0-47.061 38.272-85.333 85.333-85.333zM213.333 746.667h597.333l0.043-597.333h-597.376v597.333zM578.261 462.592l-170.667 85.333-104.448-208.853 76.373-38.144 66.219 132.48 170.667-85.333 104.448 208.853-76.373 38.144z" />
<glyph unicode="&#xe94b;" glyph-name="bx-check" d="M198.016 480.811l-54.699-65.621 288.811-240.597 454.016 544.725-65.621 54.699-399.317-479.275z" />
<glyph unicode="&#xe94c;" glyph-name="bx-checkbox" d="M298.667 746.667c-47.061 0-85.333-38.272-85.333-85.333v-426.667c0-47.061 38.272-85.333 85.333-85.333h426.667c47.061 0 85.333 38.272 85.333 85.333v426.667c0 47.061-38.272 85.333-85.333 85.333h-426.667zM298.667 234.667v426.667h426.667l0.085-426.667h-426.752z" />
<glyph unicode="&#xe94d;" glyph-name="bx-checkbox-checked" d="M298.667 746.667c-47.061 0-85.333-38.272-85.333-85.333v-426.667c0-47.061 38.272-85.333 85.333-85.333h426.667c47.061 0 85.333 38.272 85.333 85.333v426.667c0 47.061-38.272 85.333-85.333 85.333h-426.667zM298.667 234.667v426.667h426.667l0.085-426.667h-426.752zM469.163 424.277l-55.296 54.229-59.733-61.013 115.371-112.939 200.491 198.443-59.989 60.672z" />
<glyph unicode="&#xe94e;" glyph-name="bx-checkbox-square" d="M384 576h256v-256h-256v256zM810.667 234.667v426.667c0 47.061-38.272 85.333-85.333 85.333h-426.667c-47.061 0-85.333-38.272-85.333-85.333v-426.667c0-47.061 38.272-85.333 85.333-85.333h426.667c47.061 0 85.333 38.272 85.333 85.333zM298.667 661.333h426.667l0.085-426.667h-426.752v426.667z" />
<glyph unicode="&#xe94f;" glyph-name="bx-check-circle" d="M512 874.667c-235.264 0-426.667-191.403-426.667-426.667s191.403-426.667 426.667-426.667 426.667 191.403 426.667 426.667-191.403 426.667-426.667 426.667zM512 106.667c-188.203 0-341.333 153.131-341.333 341.333s153.131 341.333 341.333 341.333 341.333-153.131 341.333-341.333-153.131-341.333-341.333-341.333zM426.624 380.288l-98.091 97.92-60.245-60.416 158.421-158.080 307.456 307.456-60.331 60.331z" />
<glyph unicode="&#xe950;" glyph-name="bx-check-double" d="M102.144 373.675l202.368-154.453 324.949 371.371-64.256 56.149-272.384-311.296-138.965 106.069zM928.128 590.592l-64.256 56.149-271.744-310.571-32.128 25.685-53.333-66.645 95.872-76.715z" />
<glyph unicode="&#xe951;" glyph-name="bx-chevron-down" d="M695.168 563.499l-183.168-183.168-183.168 183.168-60.331-60.331 243.499-243.499 243.499 243.499z" />
<glyph unicode="&#xe952;" glyph-name="bx-chevron-left" d="M567.168 691.499l-243.499-243.499 243.499-243.499 60.331 60.331-183.168 183.168 183.168 183.168z" />
<glyph unicode="&#xe953;" glyph-name="bx-chevron-right" d="M456.832 204.501l243.499 243.499-243.499 243.499-60.331-60.331 183.168-183.168-183.168-183.168z" />
<glyph unicode="&#xe954;" glyph-name="bx-chevrons-down" d="M512 294.997l-183.168 183.168-60.331-60.331 243.499-243.499 243.499 243.499-60.331 60.331zM755.499 631.168l-60.331 60.331-183.168-183.168-183.168 183.168-60.331-60.331 243.499-243.499z" />
<glyph unicode="&#xe955;" glyph-name="bx-chevrons-left" d="M542.165 631.168l-60.331 60.331-243.499-243.499 243.499-243.499 60.331 60.331-183.168 183.168zM695.168 691.499l-243.499-243.499 243.499-243.499 60.331 60.331-183.168 183.168 183.168 183.168z" />
<glyph unicode="&#xe956;" glyph-name="bx-chevrons-right" d="M439.296 631.040l184.533-183.040-184.533-183.040 60.075-60.587 245.632 243.627-245.632 243.627zM286.037 691.627l-60.075-60.587 184.533-183.040-184.533-183.040 60.075-60.587 245.632 243.627z" />
<glyph unicode="&#xe957;" glyph-name="bx-chevrons-up" d="M268.501 478.165l60.331-60.331 183.168 183.168 183.168-183.168 60.331 60.331-243.499 243.499zM268.501 264.832l60.331-60.331 183.168 183.168 183.168-183.168 60.331 60.331-243.499 243.499z" />
<glyph unicode="&#xe958;" glyph-name="bx-chevron-up" d="M268.501 392.832l60.331-60.331 183.168 183.168 183.168-183.168 60.331 60.331-243.499 243.499z" />
<glyph unicode="&#xe959;" glyph-name="bx-chip" d="M384 576h256v-256h-256v256zM853.333 704c0 47.061-38.272 85.333-85.333 85.333h-42.667v85.333h-85.333v-85.333h-85.333v85.333h-85.333v-85.333h-85.333v85.333h-85.333v-85.333h-42.667c-47.061 0-85.333-38.272-85.333-85.333v-42.667h-85.333v-85.333h85.333v-85.333h-85.333v-85.333h85.333v-85.333h-85.333v-85.333h85.333v-42.667c0-47.061 38.272-85.333 85.333-85.333h42.667v-85.333h85.333v85.333h85.333v-85.333h85.333v85.333h85.333v-85.333h85.333v85.333h42.667c47.061 0 85.333 38.272 85.333 85.333v42.667h85.333v85.333h-85.333v85.333h85.333v85.333h-85.333v85.333h85.333v85.333h-85.333v42.667zM256 192v512h512l0.085-512h-512.085z" />
<glyph unicode="&#xe95a;" glyph-name="bx-circle" d="M512 874.667c-235.264 0-426.667-191.403-426.667-426.667 0.043-235.307 191.445-426.709 426.667-426.709 235.264 0 426.667 191.403 426.709 426.709 0 235.264-191.403 426.667-426.709 426.667zM512 106.624c-188.16 0-341.291 153.131-341.333 341.376 0 188.203 153.131 341.333 341.333 341.333 188.245 0 341.376-153.131 341.376-341.333-0.043-188.245-153.173-341.376-341.376-341.376z" />
<glyph unicode="&#xe95b;" glyph-name="bx-clipboard" d="M768 832h-85.333c0 23.595-19.072 42.667-42.667 42.667h-256c-23.595 0-42.667-19.072-42.667-42.667h-85.333c-47.061 0-85.333-38.272-85.333-85.333v-640c0-47.061 38.272-85.333 85.333-85.333h512c47.061 0 85.333 38.272 85.333 85.333v640c0 47.061-38.272 85.333-85.333 85.333zM768 106.667h-512v640h85.333v-42.667c0-23.595 19.072-42.667 42.667-42.667h256c23.595 0 42.667 19.072 42.667 42.667v42.667h85.333v-640z" />
<glyph unicode="&#xe95c;" glyph-name="bx-closet" d="M900.309 260.992l-345.643 251.392v26.368c73.557 18.944 128 85.888 128 165.248 0 94.123-76.544 170.667-170.667 170.667s-170.667-76.544-170.667-170.667h85.333c0 47.061 38.272 85.333 85.333 85.333s85.333-38.272 85.333-85.333-38.272-85.333-85.333-85.333c-23.552 0-42.667-19.072-42.667-42.667v-63.616l-345.643-251.392c-30.464-22.144-42.624-59.563-30.976-95.36 11.648-35.84 43.477-58.965 81.152-58.965h676.267c37.675 0 69.504 23.125 81.152 58.965 11.648 35.797-0.555 73.259-30.976 95.36zM850.133 192h-676.267l338.133 245.931 338.645-245.888c0.043 0-0.128-0.043-0.512-0.043z" />
<glyph unicode="&#xe95d;" glyph-name="bx-cloud" d="M808.277 485.888c-18.645 146.859-144.384 260.779-296.277 260.779-117.589 0-219.733-68.736-266.368-177.067-91.648-27.392-160.299-113.92-160.299-206.933 0-117.632 95.701-213.333 213.333-213.333h469.333c94.123 0 170.667 76.544 170.667 170.667 0 80.213-55.68 147.712-130.389 165.888zM768 234.667h-469.333c-70.571 0-128 57.429-128 128 0 59.904 51.157 117.589 114.048 128.64l24.789 4.352 8.192 23.808c29.995 87.509 104.491 141.867 194.304 141.867 117.632 0 213.333-95.701 213.333-213.333v-42.667h42.667c47.061 0 85.333-38.272 85.333-85.333s-38.272-85.333-85.333-85.333z" />
<glyph unicode="&#xe95e;" glyph-name="bx-cloud-download" d="M808.448 485.888c-18.645 146.859-144.427 260.779-296.277 260.779-117.589 0-219.733-68.736-266.368-177.067-91.648-27.392-160.299-113.92-160.299-206.933 0-117.632 95.701-213.333 213.333-213.333h42.667v85.333h-42.667c-70.571 0-128 57.429-128 128 0 59.904 51.157 117.632 114.048 128.683l24.789 4.352 8.192 23.808c29.995 87.509 104.448 141.824 194.304 141.824 117.632 0 213.333-95.701 213.333-213.333v-42.667h42.667c47.061 0 85.333-38.272 85.333-85.333s-38.272-85.333-85.333-85.333h-85.333v-85.333h85.333c94.123 0 170.667 76.544 170.667 170.667 0 80.256-55.68 147.712-130.389 165.888zM469.504 490.667v-170.667h-128l170.667-170.667 170.667 170.667h-128v170.667z" />
<glyph unicode="&#xe95f;" glyph-name="bx-cloud-drizzle" d="M341.333 405.333h85.333v-128h-85.333zM341.333 234.667h85.333v-128h-85.333zM469.333 320h85.333v-128h-85.333zM469.333 149.333h85.333v-128h-85.333zM597.333 405.333h85.333v-128h-85.333zM597.333 234.667h85.333v-128h-85.333zM808.277 528.555c-18.645 146.859-144.384 260.779-296.277 260.779-117.547 0-219.733-68.736-266.368-177.067-91.648-27.392-160.299-113.877-160.299-206.933 0-117.632 95.701-213.333 213.333-213.333v85.333c-70.571 0-128 57.429-128 128 0 59.861 51.157 117.589 114.048 128.64l24.832 4.395 8.149 23.851c29.995 87.467 104.491 141.781 194.304 141.781 117.632 0 213.333-95.701 213.333-213.333v-42.667h42.667c47.061 0 85.333-38.272 85.333-85.333s-38.272-85.333-85.333-85.333h-42.667v-85.333h42.667c94.123 0 170.667 76.544 170.667 170.667 0 80.256-55.68 147.712-130.389 165.888z" />
<glyph unicode="&#xe960;" glyph-name="bx-cloud-lightning" d="M426.667 405.333l-42.667-213.333h85.333v-170.667l169.6 256h-84.267l42.667 128zM808.277 528.555c-18.645 146.859-144.384 260.779-296.277 260.779-117.589 0-219.733-68.736-266.368-177.067-91.648-27.392-160.299-113.877-160.299-206.933 0-117.632 95.701-213.333 213.333-213.333v85.333c-70.571 0-128 57.429-128 128 0 59.861 51.157 117.589 114.048 128.64l24.789 4.395 8.192 23.851c29.995 87.467 104.491 141.781 194.304 141.781 117.632 0 213.333-95.701 213.333-213.333v-42.667h42.667c47.061 0 85.333-38.272 85.333-85.333s-38.272-85.333-85.333-85.333h-42.667v-85.333h42.667c94.123 0 170.667 76.544 170.667 170.667 0 80.256-55.68 147.712-130.389 165.888z" />
<glyph unicode="&#xe961;" glyph-name="bx-cloud-light-rain" d="M341.333 405.333h85.333v-170.667h-85.333zM341.333 192h85.333v-85.333h-85.333zM469.333 320h85.333v-170.667h-85.333zM469.333 106.667h85.333v-85.333h-85.333zM597.333 405.333h85.333v-170.667h-85.333zM597.333 192h85.333v-85.333h-85.333zM808.277 528.555c-18.645 146.859-144.384 260.779-296.277 260.779-117.589 0-219.733-68.736-266.368-177.067-91.648-27.392-160.299-113.877-160.299-206.933 0-117.632 95.701-213.333 213.333-213.333v85.333c-70.571 0-128 57.429-128 128 0 59.861 51.157 117.589 114.048 128.64l24.789 4.395 8.192 23.851c29.995 87.467 104.491 141.781 194.304 141.781 117.632 0 213.333-95.701 213.333-213.333v-42.667h42.667c47.061 0 85.333-38.272 85.333-85.333s-38.272-85.333-85.333-85.333h-42.667v-85.333h42.667c94.123 0 170.667 76.544 170.667 170.667 0 80.256-55.68 147.712-130.389 165.888z" />
<glyph unicode="&#xe962;" glyph-name="bx-cloud-rain" d="M341.333 405.333h85.333v-298.667h-85.333zM469.333 320h85.333v-298.667h-85.333zM597.333 405.333h85.333v-298.667h-85.333zM808.277 528.512c-18.645 146.859-144.384 260.779-296.277 260.779-117.589 0-219.733-68.736-266.368-177.067-91.648-27.392-160.299-113.877-160.299-206.933 0-117.632 95.701-213.333 213.333-213.333v85.333c-70.571 0-128 57.429-128 128 0 59.861 51.157 117.589 114.048 128.64l24.789 4.395 8.192 23.851c29.995 87.467 104.491 141.781 194.304 141.781 117.632 0 213.333-95.701 213.333-213.333v-42.667h42.667c47.061 0 85.333-38.272 85.333-85.333s-38.272-85.333-85.333-85.333h-42.667v-85.333h42.667c94.123 0 170.667 76.544 170.667 170.667 0 80.256-55.68 147.712-130.389 165.888z" />
<glyph unicode="&#xe963;" glyph-name="bx-cloud-snow" d="M808.277 528.555c-18.645 146.859-144.384 260.779-296.277 260.779-117.589 0-219.733-68.736-266.368-177.067-91.648-27.392-160.299-113.877-160.299-206.933 0-117.632 95.701-213.333 213.333-213.333v85.333c-70.571 0-128 57.429-128 128 0 59.861 51.157 117.589 114.048 128.64l24.789 4.395 8.192 23.851c29.995 87.467 104.491 141.781 194.304 141.781 117.632 0 213.333-95.701 213.333-213.333v-42.667h42.667c47.061 0 85.333-38.272 85.333-85.333s-38.272-85.333-85.333-85.333h-42.667v-85.333h42.667c94.123 0 170.667 76.544 170.667 170.667 0 80.256-55.68 147.712-130.389 165.888zM682.667 277.333c0-23.564-19.103-42.667-42.667-42.667s-42.667 19.103-42.667 42.667c0 23.564 19.103 42.667 42.667 42.667s42.667-19.103 42.667-42.667zM682.667 149.333c0-23.564-19.103-42.667-42.667-42.667s-42.667 19.103-42.667 42.667c0 23.564 19.103 42.667 42.667 42.667s42.667-19.103 42.667-42.667zM554.667 192c0-23.564-19.103-42.667-42.667-42.667s-42.667 19.103-42.667 42.667c0 23.564 19.103 42.667 42.667 42.667s42.667-19.103 42.667-42.667zM554.667 64c0-23.564-19.103-42.667-42.667-42.667s-42.667 19.103-42.667 42.667c0 23.564 19.103 42.667 42.667 42.667s42.667-19.103 42.667-42.667zM426.667 149.333c0-23.564-19.103-42.667-42.667-42.667s-42.667 19.103-42.667 42.667c0 23.564 19.103 42.667 42.667 42.667s42.667-19.103 42.667-42.667zM426.667 277.333c0-23.564-19.103-42.667-42.667-42.667s-42.667 19.103-42.667 42.667c0 23.564 19.103 42.667 42.667 42.667s42.667-19.103 42.667-42.667z" />
<glyph unicode="&#xe964;" glyph-name="bx-cloud-upload" d="M554.667 149.333v170.667h128l-170.667 170.667-170.667-170.667h128v-170.667zM298.667 149.333h85.333v85.333h-85.333c-70.571 0-128 57.429-128 128 0 59.904 51.157 117.589 114.048 128.64l24.789 4.352 8.192 23.808c29.995 87.509 104.491 141.867 194.304 141.867 117.632 0 213.333-95.701 213.333-213.333v-42.667h42.667c47.061 0 85.333-38.272 85.333-85.333s-38.272-85.333-85.333-85.333h-128v-85.333h128c94.123 0 170.667 76.544 170.667 170.667 0 80.213-55.68 147.712-130.389 165.888-18.645 146.859-144.384 260.779-296.277 260.779-117.589 0-219.733-68.736-266.368-177.067-91.648-27.392-160.299-113.92-160.299-206.933 0-117.632 95.701-213.333 213.333-213.333z" />
<glyph unicode="&#xe965;" glyph-name="bx-code" d="M353.835 691.499l-243.499-243.499 243.499-243.499 60.331 60.331-183.168 183.168 183.168 183.168zM670.165 204.501l243.499 243.499-243.499 243.499-60.331-60.331 183.168-183.168-183.168-183.168z" />
<glyph unicode="&#xe966;" glyph-name="bx-code-block" d="M853.333 789.333h-682.667c-47.061 0-85.333-38.272-85.333-85.333v-512c0-47.061 38.272-85.333 85.333-85.333h682.667c47.061 0 85.333 38.272 85.333 85.333v512c0 47.061-38.272 85.333-85.333 85.333zM170.667 192v426.667h682.667l0.085-426.667h-682.752zM396.501 563.499l-158.165-158.165 158.165-158.165 60.331 60.331-97.835 97.835 97.835 97.835zM627.499 563.499l-60.331-60.331 97.835-97.835-97.835-97.835 60.331-60.331 158.165 158.165z" />
<glyph unicode="&#xe967;" glyph-name="bx-code-curly" d="M384 21.333h42.667v85.333h-42.197c-13.141 0.256-128.469 7.381-128.469 170.667 0 85.035-28.373 138.496-64.085 170.667 35.712 32.171 64.085 85.632 64.085 170.667 0 163.285 115.328 170.411 128 170.667h42.667v85.333h-42.752c-73.771-0.171-213.248-53.931-213.248-256 0-119.467-71.595-127.573-85.931-128l0.597-85.333c3.499 0 85.333-1.451 85.333-128 0-202.069 139.477-255.829 213.333-256zM938.667 490.667c-3.499 0-85.333 1.451-85.333 128 0 202.069-139.477 255.829-213.333 256h-42.667v-85.333h42.197c13.141-0.256 128.469-7.381 128.469-170.667 0-85.035 28.373-138.496 64.085-170.667-35.712-32.171-64.085-85.632-64.085-170.667 0-163.285-115.328-170.411-128-170.667h-42.667v-85.333h42.752c73.771 0.171 213.248 53.931 213.248 256 0 119.467 71.595 127.573 85.931 128l-0.597 85.333z" />
<glyph unicode="&#xe968;" glyph-name="bx-coffee" d="M213.333 874.667h85.333v-128h-85.333zM384 874.667h85.333v-128h-85.333zM554.667 874.667h85.333v-128h-85.333zM896 277.333v213.333c0 47.061-38.272 85.333-85.333 85.333h-85.333v42.667c0 23.595-19.072 42.667-42.667 42.667h-512c-23.595 0-42.667-19.072-42.667-42.667v-426.667c0-70.571 57.429-128 128-128h341.333c70.571 0 128 57.429 128 128h85.333c47.061 0 85.333 38.272 85.333 85.333zM640 192c0-23.552-19.115-42.667-42.667-42.667h-341.333c-23.552 0-42.667 19.115-42.667 42.667v384h426.667v-384zM725.333 490.667h85.333l0.085-213.333h-85.419v213.333z" />
<glyph unicode="&#xe969;" glyph-name="bx-cog" d="M512 277.333c94.123 0 170.667 76.544 170.667 170.667s-76.544 170.667-170.667 170.667-170.667-76.544-170.667-170.667 76.544-170.667 170.667-170.667zM512 533.333c46.251 0 85.333-39.083 85.333-85.333s-39.083-85.333-85.333-85.333-85.333 39.083-85.333 85.333 39.083 85.333 85.333 85.333zM121.387 271.531l42.667-73.813c22.656-39.125 77.184-53.803 116.48-31.147l22.571 13.056c24.832-19.499 52.096-35.499 80.896-47.445v-25.515c0-47.061 38.272-85.333 85.333-85.333h85.333c47.061 0 85.333 38.272 85.333 85.333v25.515c28.8 11.947 56.064 27.947 80.896 47.403l22.571-13.056c39.381-22.613 93.781-8.021 116.523 31.189l42.624 73.771c23.552 40.747 9.557 93.056-31.189 116.565l-21.547 12.459c2.304 15.829 3.456 31.659 3.456 47.488s-1.152 31.701-3.456 47.403l21.547 12.459c40.747 23.552 54.741 75.819 31.189 116.565l-42.624 73.771c-22.656 39.253-77.141 53.973-116.523 31.232l-22.571-13.056c-24.832 19.499-52.096 35.499-80.896 47.445v25.515c0 47.061-38.272 85.333-85.333 85.333h-85.333c-47.061 0-85.333-38.272-85.333-85.333v-25.515c-28.8-11.947-56.064-27.947-80.896-47.403l-22.571 13.056c-39.424 22.656-93.867 7.979-116.523-31.232l-42.624-73.771c-23.552-40.747-9.557-93.056 31.189-116.565l21.547-12.459c-2.304-15.744-3.456-31.616-3.456-47.445s1.152-31.659 3.456-47.403l-21.547-12.459c-40.747-23.552-54.741-75.861-31.189-116.608zM263.296 389.205c-4.821 19.328-7.296 39.125-7.296 58.795 0 19.712 2.475 39.509 7.253 58.795 4.608 18.475-3.541 37.76-20.053 47.275l-47.915 27.733 42.581 73.771 48.853-28.245c16.384-9.429 36.992-7.040 50.688 6.059 29.141 27.605 64.299 48.256 101.717 59.691 17.963 5.461 30.208 22.059 30.208 40.789v55.467h85.333v-55.467c0-18.731 12.245-35.328 30.208-40.789 37.419-11.477 72.576-32.085 101.717-59.691 13.696-13.099 34.389-15.445 50.688-6.059l48.811 28.203 42.667-73.771-47.957-27.691c-16.512-9.557-24.661-28.843-20.053-47.275 4.779-19.285 7.253-39.083 7.253-58.795 0-19.669-2.475-39.467-7.296-58.795-4.565-18.475 3.584-37.76 20.096-47.275l47.915-27.691-42.581-73.771-48.853 28.203c-16.341 9.429-36.992 7.083-50.688-6.059-29.141-27.605-64.299-48.256-101.717-59.691-17.963-5.461-30.208-22.059-30.208-40.789l0.085-55.467h-85.419v55.467c0 18.731-12.245 35.328-30.208 40.789-37.419 11.477-72.576 32.085-101.717 59.691-8.107 7.765-18.688 11.733-29.355 11.733-7.339 0-14.677-1.877-21.333-5.717l-48.811-28.245-42.667 73.771 47.957 27.776c16.512 9.515 24.661 28.8 20.096 47.275z" />
<glyph unicode="&#xe96a;" glyph-name="bx-collapse" d="M687.829 684.16l-90.496 90.496v-241.323h241.323l-90.496 90.496 135.339 135.339-60.331 60.331zM200.832 819.499l-60.331-60.331 135.339-135.339-90.496-90.496h241.323v241.323l-90.496-90.496zM838.656 362.667h-241.323v-241.323l90.496 90.496 135.339-135.339 60.331 60.331-135.339 135.339zM275.84 272.171l-135.339-135.339 60.331-60.331 135.339 135.339 90.496-90.496v241.323h-241.323z" />
<glyph unicode="&#xe96b;" glyph-name="bx-collection" d="M810.667 533.333h-597.333c-47.061 0-85.333-38.272-85.333-85.333v-341.333c0-47.061 38.272-85.333 85.333-85.333h597.333c47.061 0 85.333 38.272 85.333 85.333v341.333c0 47.061-38.272 85.333-85.333 85.333zM213.333 106.667v341.333h597.333l0.085-341.333h-597.419zM213.333 704h597.333v-85.333h-597.333zM298.667 874.667h426.667v-85.333h-426.667z" />
<glyph unicode="&#xe96c;" glyph-name="bx-columns" d="M213.333 63.957h597.333c47.061 0 85.333 38.272 85.333 85.333v597.376c-0.043 47.061-38.315 85.291-85.333 85.291h-597.333c-47.061 0-85.333-38.272-85.333-85.333v-597.333c0-47.061 38.272-85.333 85.333-85.333zM213.333 149.291v469.376h256v-469.376h-256zM810.709 149.291h-256.043v469.376h256l0.043-469.376z" />
<glyph unicode="&#xe96d;" glyph-name="bx-command" d="M256 362.667c-94.123 0-170.667-76.544-170.667-170.667s76.544-170.667 170.667-170.667c93.824 0 170.112 76.117 170.581 169.813h0.085v86.187h170.667v-86.997h0.171c0.896-93.312 76.971-169.003 170.496-169.003 94.123 0 170.667 76.544 170.667 170.667s-76.544 170.667-170.667 170.667h-85.333v170.667h85.333c94.123 0 170.667 76.544 170.667 170.667s-76.544 170.667-170.667 170.667-170.667-76.544-170.667-170.667v-85.333h-170.667v86.187h-0.085c-0.469 93.696-76.757 169.813-170.581 169.813-94.123 0-170.667-76.544-170.667-170.667s76.544-170.667 170.667-170.667h85.333v-170.667h-85.333zM341.333 192c0-47.872-37.504-85.333-85.333-85.333s-85.333 37.461-85.333 85.333 37.504 85.333 85.333 85.333h85.333v-85.333zM768 277.333c47.829 0 85.333-37.461 85.333-85.333s-37.504-85.333-85.333-85.333-85.333 37.461-85.333 85.333v85.333h85.333zM682.667 704c0 47.872 37.504 85.333 85.333 85.333s85.333-37.461 85.333-85.333-37.504-85.333-85.333-85.333h-85.333v85.333zM256 618.667c-47.829 0-85.333 37.461-85.333 85.333s37.504 85.333 85.333 85.333 85.333-37.461 85.333-85.333v-85.333h-85.333zM426.667 533.333h170.667v-170.667h-170.667v170.667z" />
<glyph unicode="&#xe96e;" glyph-name="bx-compass" d="M512 874.667c-235.264 0-426.667-191.403-426.667-426.667s191.403-426.667 426.667-426.667 426.667 191.403 426.667 426.667-191.403 426.667-426.667 426.667zM512 106.667c-188.203 0-341.333 153.131-341.333 341.333s153.131 341.333 341.333 341.333 341.333-153.131 341.333-341.333-153.131-341.333-341.333-341.333zM341.333 277.333l255.616 85.333 85.717 256-256-85.333z" />
<glyph unicode="&#xe96f;" glyph-name="bx-copy" d="M597.333 618.667h-426.667c-47.061 0-85.333-38.272-85.333-85.333v-426.667c0-47.061 38.272-85.333 85.333-85.333h426.667c47.061 0 85.333 38.272 85.333 85.333v426.667c0 47.061-38.272 85.333-85.333 85.333zM170.667 106.667v426.667h426.667l0.085-426.667h-426.752zM853.333 874.667h-426.667c-47.061 0-85.333-38.272-85.333-85.333v-85.333h85.333v85.333h426.667v-426.667h-85.333v-85.333h85.333c47.061 0 85.333 38.272 85.333 85.333v426.667c0 47.061-38.272 85.333-85.333 85.333z" />
<glyph unicode="&#xe970;" glyph-name="bx-copyright" d="M512 21.333c231.296 0 426.667 195.371 426.667 426.667s-195.371 426.667-426.667 426.667-426.667-195.371-426.667-426.667 195.371-426.667 426.667-426.667zM512 789.333c185.045 0 341.333-156.288 341.333-341.333s-156.288-341.333-341.333-341.333-341.333 156.288-341.333 341.333 156.288 341.333 341.333 341.333zM512 234.667c38.443 0 110.123 7.168 158.165 55.125l-60.331 60.416c-18.901-18.901-55.509-30.208-97.835-30.208-69.376 0-128 58.624-128 128s58.624 128 128 128c42.368 0 78.976-11.307 97.835-30.165l60.331 60.331c-48 48-119.723 55.168-158.165 55.168-117.632 0-213.333-95.701-213.333-213.333s95.701-213.333 213.333-213.333z" />
<glyph unicode="&#xe971;" glyph-name="bx-credit-card" d="M853.333 789.333h-682.667c-47.061 0-85.333-38.272-85.333-85.333v-512c0-47.061 38.272-85.333 85.333-85.333h682.667c47.061 0 85.333 38.272 85.333 85.333v512c0 47.061-38.272 85.333-85.333 85.333zM853.333 704v-85.333h-682.667v85.333h682.667zM170.667 192v256h682.709l0.043-256h-682.752zM256 362.667h256v-85.333h-256z" />
<glyph unicode="&#xe972;" glyph-name="bx-crop" d="M810.667 661.333c0 47.061-38.272 85.333-85.333 85.333h-426.667v128h-85.333v-128h-128v-85.333h640v-640h85.333v128h128v85.333h-128v426.667zM213.333 576v-341.333c0-47.061 38.272-85.333 85.333-85.333h341.333v85.333h-341.333v341.333h-85.333z" />
<glyph unicode="&#xe973;" glyph-name="bx-crosshair" d="M512 874.667c-235.264 0-426.667-191.403-426.667-426.667s191.403-426.667 426.667-426.667 426.667 191.403 426.667 426.667-191.403 426.667-426.667 426.667zM554.667 109.611v125.056h-85.333v-125.056c-154.069 19.328-276.395 141.653-295.723 295.723h125.056v85.333h-125.056c19.328 154.069 141.653 276.395 295.723 295.723v-125.056h85.333v125.056c154.069-19.328 276.395-141.611 295.723-295.723h-125.056v-85.333h125.056c-19.328-154.069-141.653-276.395-295.723-295.723z" />
<glyph unicode="&#xe974;" glyph-name="bx-crown" d="M478.677 816l-137.344-171.691-137.344 171.691c-11.349 14.165-30.421 19.584-47.445 13.611-17.067-6.016-28.544-22.144-28.544-40.277v-640c0-47.061 38.272-85.333 85.333-85.333h597.333c47.061 0 85.333 38.272 85.333 85.333v640c0 18.133-11.477 34.261-28.544 40.277-17.067 5.888-36.096 0.512-47.445-13.611l-137.344-171.691-137.344 171.691c-16.256 20.224-50.389 20.224-66.645 0zM213.333 149.333v85.333h597.376v-85.333h-597.376zM649.344 549.333c16.256-20.267 50.432-20.267 66.688 0l94.635 118.357 0.043-347.691h-597.376v347.691l94.677-118.357c16.256-20.267 50.432-20.267 66.688 0l137.301 171.691 137.344-171.691z" />
<glyph unicode="&#xe975;" glyph-name="bx-cube" d="M913.323 700.331l-384 170.667c-11.093 4.907-23.595 4.907-34.688 0l-384-170.667c-0.853-0.384-1.451-1.024-2.304-1.493-1.195-0.597-2.475-0.981-3.584-1.707-0.939-0.64-1.664-1.451-2.56-2.133-1.195-0.896-2.347-1.877-3.413-2.901-1.749-1.664-3.285-3.456-4.693-5.376-0.853-1.195-1.749-2.261-2.517-3.456-1.323-2.261-2.304-4.608-3.243-7.040-0.384-1.152-0.981-2.219-1.323-3.371-1.024-3.712-1.664-7.552-1.664-11.52v-426.667c0-16.896 9.899-32.128 25.344-38.997l384-170.667c5.547-2.475 11.435-3.669 17.323-3.669 5.931 0 11.648 1.664 17.152 4.096l0.171-0.427 384 170.667c15.445 6.869 25.344 22.101 25.344 38.997v426.667c0 16.896-9.899 32.128-25.344 38.997zM512 785.28l278.955-123.947-278.955-123.947-278.912 123.947 278.912 123.947zM170.667 262.357v333.312l298.667-132.736v-333.269l-298.667 132.693zM554.667 129.664v333.269l298.667 132.736v-333.312l-298.667-132.693z" />
<glyph unicode="&#xe976;" glyph-name="bx-cut" d="M347.819 344.149c-21.077 11.435-44.843 18.517-70.485 18.517-82.347 0-149.333-66.987-149.333-149.333s66.987-149.333 149.333-149.333 149.333 66.987 149.333 149.333c0 25.643-7.083 49.408-18.517 70.485l103.851 103.851 281.003-281.003h120.661l-505.515 505.515c11.435 21.077 18.517 44.843 18.517 70.485 0 82.347-66.987 149.333-149.333 149.333s-149.333-66.987-149.333-149.333 66.987-149.333 149.333-149.333c25.643 0 49.408 7.083 70.485 18.517l103.851-103.851-103.851-103.851zM277.333 149.333c-35.285 0-64 28.715-64 64s28.715 64 64 64 64-28.715 64-64-28.715-64-64-64zM213.333 682.667c0 35.285 28.715 64 64 64s64-28.715 64-64-28.715-64-64-64-64 28.715-64 64zM567.168 563.499l60.331-60.331 286.165 286.165h-120.661z" />
<glyph unicode="&#xe977;" glyph-name="bx-dashboard" d="M814.080 749.312c-8.277 8.277-16.981 15.915-25.813 23.467l-5.376 6.229-0.853-0.725c-76.117 62.421-170.368 96.384-269.611 96.384-113.749 0-220.928-44.544-301.739-125.355-151.595-151.552-164.608-389.419-40.021-556.416v-0.896h0.683c11.989-16 24.789-31.531 39.339-46.080 80.853-80.853 187.989-125.355 301.739-125.355s220.885 44.501 301.653 125.312c166.357 166.315 166.357 437.035 0 603.435zM539.989 570.283c-8.704 3.029-17.92 4.992-27.648 4.992-46.891 0-84.949-38.101-84.949-84.907 0-46.976 38.101-85.035 84.949-85.035 46.933 0 84.992 38.101 84.992 85.035 0 5.248-0.64 10.325-1.536 15.317l182.016 156.501c40.917-50.56 64.939-110.165 72.661-171.52h-82.475v-85.333h82.645c-5.504-44.544-19.797-88.021-42.795-128h-590.891c-22.997 39.979-37.333 83.456-42.837 128h81.877v85.333h-81.749c7.467 59.179 30.293 116.651 68.651 166.059l57.899-57.899 60.331 60.331-57.941 57.941c48.469 37.803 105.472 61.525 166.144 69.205v-82.304h85.333v82.432c58.581-7.253 113.707-29.568 161.109-65.024l-175.787-151.125z" />
<glyph unicode="&#xe978;" glyph-name="bx-data" d="M853.333 234.667v426.667c0 92.501-156.288 170.667-341.333 170.667s-341.333-78.165-341.333-170.667v-426.667c0-92.501 156.288-170.667 341.333-170.667s341.333 78.165 341.333 170.667zM512 746.667c157.483 0 253.056-64.299 256-85.077-2.944-21.291-98.517-85.589-256-85.589s-253.056 64.299-256 85.077c2.944 21.291 98.517 85.589 256 85.589zM256 550.101c63.104-36.139 155.179-59.435 256-59.435s192.896 23.296 256 59.435v-101.845c-2.944-21.291-98.517-85.589-256-85.589s-253.056 64.299-256 85.333v102.101zM256 234.667v102.101c63.104-36.139 155.179-59.435 256-59.435s192.896 23.296 256 59.435v-101.845c-2.944-21.291-98.517-85.589-256-85.589s-253.056 64.299-256 85.333z" />
<glyph unicode="&#xe979;" glyph-name="bx-desktop" d="M853.333 789.333h-682.667c-47.061 0-85.333-38.272-85.333-85.333v-426.667c0-47.061 38.272-85.333 85.333-85.333h298.667v-85.333h-85.333v-85.333h256v85.333h-85.333v85.333h298.667c47.061 0 85.333 38.272 85.333 85.333v426.667c0 47.061-38.272 85.333-85.333 85.333zM853.333 704l0.085-384h-682.752v384h682.667z" />
<glyph unicode="&#xe97a;" glyph-name="bx-dialpad" d="M426.667 832h170.667v-128h-170.667zM426.667 618.667h170.667v-128h-170.667zM426.667 405.333h170.667v-128h-170.667zM682.667 832h170.667v-128h-170.667zM682.667 618.667h170.667v-128h-170.667zM682.667 405.333h170.667v-128h-170.667zM170.667 832h170.667v-128h-170.667zM170.667 618.667h170.667v-128h-170.667zM170.667 405.333h170.667v-128h-170.667zM426.667 192h170.667v-128h-170.667z" />
<glyph unicode="&#xe97b;" glyph-name="bx-diamond" d="M760.021 796.245c-15.957 22.4-41.899 35.755-69.376 35.755h-357.291c-27.477 0-53.419-13.355-71.125-38.357l-170.667-280.789c-9.771-16.085-7.893-36.693 4.736-50.688l384-426.667c0.683-0.768 1.664-1.024 2.389-1.749 2.859-2.731 6.016-4.992 9.515-6.869 1.365-0.768 2.645-1.579 4.139-2.176 4.864-2.005 10.112-3.371 15.659-3.371s10.795 1.365 15.701 3.328c1.493 0.597 2.731 1.408 4.139 2.176 3.499 1.877 6.613 4.139 9.515 6.869 0.725 0.725 1.707 0.981 2.389 1.749l384 426.667c12.629 13.995 14.549 34.645 4.736 50.688l-172.459 283.435zM820.139 533.333h-147.925l-61.525 215.381 78.208 0.597 131.243-215.979zM352.256 448l64.213-214.101-192.683 214.101h128.469zM522.496 746.667l60.928-213.333h-142.848l60.928 213.333h20.992zM582.656 448l-70.656-235.52-70.656 235.52h141.312zM671.744 448h128.427l-192.64-214.059 64.213 214.059zM333.355 746.667l79.531 0.597-61.099-213.931h-147.968l129.536 213.333z" />
<glyph unicode="&#xe97c;" glyph-name="bx-directions" d="M843.989 474.667c-8.107 10.112-20.352 16-33.323 16h-256v85.333h170.667c47.061 0 85.333 38.272 85.333 85.333v128c0 47.061-38.272 85.333-85.333 85.333h-512c-12.971 0-25.216-5.888-33.323-16l-85.333-106.667c-12.459-15.573-12.459-37.76 0-53.333l85.333-106.667c8.107-10.112 20.352-16 33.323-16h256v-85.333h-170.667c-47.061 0-85.333-38.272-85.333-85.333v-128c0-47.061 38.272-85.333 85.333-85.333h170.667v-170.667h85.333v170.667h256c12.971 0 25.216 5.888 33.323 16l85.333 106.667c12.459 15.573 12.459 37.76 0 53.333l-85.333 106.667zM182.656 725.333l51.157 64h491.52l0.085-128h-491.605l-51.157 64zM790.187 277.333h-491.52v128h491.52l51.2-64-51.2-64z" />
<glyph unicode="&#xe97d;" glyph-name="bx-disc" d="M512 874.667c-235.264 0-426.667-191.403-426.667-426.667s191.403-426.667 426.667-426.667 426.667 191.403 426.667 426.667-191.403 426.667-426.667 426.667zM512 106.667c-188.203 0-341.333 153.131-341.333 341.333s153.131 341.333 341.333 341.333 341.333-153.131 341.333-341.333-153.131-341.333-341.333-341.333zM512 618.667c-94.123 0-170.667-76.544-170.667-170.667s76.544-170.667 170.667-170.667 170.667 76.544 170.667 170.667-76.544 170.667-170.667 170.667zM512 362.667c-47.061 0-85.333 38.272-85.333 85.333s38.272 85.333 85.333 85.333 85.333-38.272 85.333-85.333-38.272-85.333-85.333-85.333z" />
<glyph unicode="&#xe97e;" glyph-name="bx-dislike" d="M853.333 832h-567.765c-35.371 0-67.456-22.229-79.915-55.381l-117.632-313.643c-1.792-4.779-2.688-9.856-2.688-14.976v-85.333c0-47.061 38.272-85.333 85.333-85.333h239.445l-47.872-143.659c-8.661-25.941-4.309-54.699 11.691-76.885 16.043-22.187 41.899-35.456 69.291-35.456h68.779c12.672 0 24.661 5.632 32.811 15.36l200.533 240.64h107.989c47.061 0 85.333 38.272 85.333 85.333v384c0 47.061-38.272 85.333-85.333 85.333zM491.989 106.667h-48.853l66.645 199.851c4.395 13.013 2.176 27.307-5.845 38.443s-20.907 17.707-34.603 17.707h-298.667v77.611l114.901 306.389h397.099v-411.221l-190.677-228.779zM768 362.667v384h85.333l0.043-384h-85.376z" />
<glyph unicode="&#xe97f;" glyph-name="bx-dollar" d="M341.291 277.333h-85.333c0-1.621 2.688-150.955 213.333-168.832v-86.656h85.333v86.528c184.277 14.507 213.333 123.477 213.333 190.293 0 53.931-21.931 174.677-213.333 190.251v211.328c78.72-14.763 84.949-69.803 85.333-82.176l42.667 0.597h42.667c0 53.675-37.163 150.528-170.667 167.765v88.235h-85.333v-87.083c-191.403-15.573-213.333-136.32-213.333-190.251 0-66.816 29.056-175.787 213.333-190.293v-212.779c-120.363 12.373-127.616 75.947-128 83.072zM682.624 298.667c0-26.453-0.469-92.544-128-104.576v209.067c127.531-12.416 128-80.555 128-104.491zM341.291 597.333c0 23.936 0.469 92.075 128 104.533v-209.109c-127.531 12.032-128 78.123-128 104.576z" />
<glyph unicode="&#xe980;" glyph-name="bx-dollar-circle" d="M512 874.667c-235.264 0-426.667-191.403-426.667-426.667s191.403-426.667 426.667-426.667 426.667 191.403 426.667 426.667-191.403 426.667-426.667 426.667zM512 106.667c-188.203 0-341.333 153.131-341.333 341.333s153.131 341.333 341.333 341.333 341.333-153.131 341.333-341.333-153.131-341.333-341.333-341.333zM512 490.667c-85.333 0-85.333 26.709-85.333 42.667 0 20.651 29.909 42.667 85.333 42.667 50.56 0 59.136-27.221 59.733-43.435l42.667 0.768h42.667c0 43.776-28.416 105.344-102.4 122.837v47.317h-85.333v-45.781c-84.096-14.123-128-69.419-128-124.373 0-47.787 22.187-128 170.667-128 85.333 0 85.333-28.843 85.333-42.667 0-17.707-26.453-42.667-85.333-42.667-78.549 0-84.864 36.565-85.333 42.667h-85.333c0-39.168 28.203-108.928 128-124.587v-46.080h85.333v46.293c84.096 14.123 128 69.419 128 124.373 0 47.787-22.187 128-170.667 128z" />
<glyph unicode="&#xe981;" glyph-name="bx-dots-horizontal" d="M426.667 533.333h170.667v-170.667h-170.667zM682.667 533.333h170.667v-170.667h-170.667zM170.667 533.333h170.667v-170.667h-170.667z" />
<glyph unicode="&#xe982;" glyph-name="bx-dots-horizontal-rounded" d="M512 533.333c-46.933 0-85.333-38.4-85.333-85.333s38.4-85.333 85.333-85.333 85.333 38.4 85.333 85.333-38.4 85.333-85.333 85.333zM768 533.333c-46.933 0-85.333-38.4-85.333-85.333s38.4-85.333 85.333-85.333 85.333 38.4 85.333 85.333-38.4 85.333-85.333 85.333zM256 533.333c-46.933 0-85.333-38.4-85.333-85.333s38.4-85.333 85.333-85.333 85.333 38.4 85.333 85.333-38.4 85.333-85.333 85.333z" />
<glyph unicode="&#xe983;" glyph-name="bx-dots-vertical" d="M426.667 533.333h170.667v-170.667h-170.667zM426.667 789.333h170.667v-170.667h-170.667zM426.667 277.333h170.667v-170.667h-170.667z" />
<glyph unicode="&#xe984;" glyph-name="bx-dots-vertical-rounded" d="M512 533.333c-46.933 0-85.333-38.4-85.333-85.333s38.4-85.333 85.333-85.333 85.333 38.4 85.333 85.333-38.4 85.333-85.333 85.333zM512 789.333c-46.933 0-85.333-38.4-85.333-85.333s38.4-85.333 85.333-85.333 85.333 38.4 85.333 85.333-38.4 85.333-85.333 85.333zM512 277.333c-46.933 0-85.333-38.4-85.333-85.333s38.4-85.333 85.333-85.333 85.333 38.4 85.333 85.333-38.4 85.333-85.333 85.333z" />
<glyph unicode="&#xe985;" glyph-name="bx-down-arrow" d="M933.803 723.797c-7.381 14.037-21.931 22.869-37.803 22.869h-768c-15.872 0-30.421-8.832-37.803-22.869s-6.315-31.019 2.731-44.075l384-554.667c7.936-11.52 21.077-18.389 35.072-18.389s27.136 6.869 35.072 18.389l384 554.667c9.045 13.056 10.112 30.037 2.731 44.075zM512 224.299l-302.592 437.035h605.184l-302.592-437.035z" />
<glyph unicode="&#xe986;" glyph-name="bx-down-arrow-circle" d="M512 874.965c-235.264-0.043-426.667-191.445-426.667-426.709 0-235.221 191.403-426.624 426.667-426.667 235.264 0 426.667 191.403 426.667 426.667s-191.36 426.667-426.667 426.709zM512 106.923c-188.203 0.043-341.333 153.173-341.333 341.333 0 188.203 153.131 341.333 341.333 341.376 188.203-0.043 341.333-153.173 341.333-341.376s-153.131-341.333-341.333-341.333zM554.667 618.667h-85.333v-170.667h-128.384l170.88-170.88 170.837 170.88h-128z" />
<glyph unicode="&#xe987;" glyph-name="bx-download" d="M512 320l170.667 170.667h-128v298.667h-85.333v-298.667h-128zM853.333 192h-682.667v298.667h-85.333v-298.667c0-47.061 38.272-85.333 85.333-85.333h682.667c47.061 0 85.333 38.272 85.333 85.333v298.667h-85.333v-298.667z" />
<glyph unicode="&#xe988;" glyph-name="bx-downvote" d="M597.333 874.667h-170.667c-47.061 0-85.333-38.272-85.333-85.333v-256h-170.667c-16.427 0-31.317-9.429-38.443-24.149-7.083-14.805-5.12-32.341 5.12-45.184l341.333-426.667c8.107-10.112 20.352-16 33.323-16s25.216 5.888 33.323 16l341.333 426.667c10.24 12.843 12.203 30.379 5.12 45.184-7.125 14.72-22.016 24.149-38.443 24.149h-170.667v256c0 47.061-38.272 85.333-85.333 85.333zM764.544 448l-252.544-315.691-252.544 315.691h124.544c23.595 0 42.667 19.072 42.667 42.667v298.667h170.667v-298.667c0-23.595 19.072-42.667 42.667-42.667h124.544z" />
<glyph unicode="&#xe989;" glyph-name="bx-dumbbell" d="M256 746.667v-597.333h128v256h256v-256h128v597.333h-128v-256h-256v256zM128 320c0-23.595 19.072-42.667 42.667-42.667h42.667v341.333h-42.667c-23.595 0-42.667-19.072-42.667-42.667v-85.333h-42.667v-85.333h42.667v-85.333zM896 576c0 23.595-19.072 42.667-42.667 42.667h-42.667v-341.333h42.667c23.595 0 42.667 19.072 42.667 42.667v85.333h42.667v85.333h-42.667v85.333z" />
<glyph unicode="&#xe98a;" glyph-name="bx-duplicate" d="M469.333 533.333h-85.333v-128h-128v-85.333h128v-128h85.333v128h128v85.333h-128zM170.667 21.333h512c47.061 0 85.333 38.272 85.333 85.333v512c0 47.061-38.272 85.333-85.333 85.333h-512c-47.061 0-85.333-38.272-85.333-85.333v-512c0-47.061 38.272-85.333 85.333-85.333zM170.667 618.667h512l0.085-512h-512.085v512zM853.333 874.667h-512v-85.333h512v-512h85.333v512c0 47.061-38.272 85.333-85.333 85.333z" />
<glyph unicode="&#xe98b;" glyph-name="bx-edit" d="M709.589 830.123l-352.384-352.341c-5.461-5.461-9.344-12.331-11.221-19.797l-42.667-170.667c-3.669-14.549 0.64-29.909 11.221-40.533 8.064-8.107 18.987-12.501 30.165-12.501 3.456 0 6.912 0.427 10.325 1.28l170.667 42.667c7.509 1.877 14.379 5.76 19.84 11.221l352.384 352.341c16.128 16.128 25.003 37.547 25.003 60.331s-8.875 44.203-25.003 60.331l-67.669 67.669c-32.256 32.213-88.405 32.213-120.661 0zM493.525 358.101l-90.197-22.528 22.571 90.197 216.021 215.979 67.669-67.627-216.064-216.021zM769.92 634.453l-67.669 67.627 67.669 67.669 67.669-67.669-67.669-67.627zM213.333 64h597.333c47.061 0 85.333 38.272 85.333 85.333v369.835l-85.333-85.333v-284.501h-462.592c-1.109 0-2.261-0.427-3.371-0.427-1.408 0-2.816 0.384-4.267 0.427h-127.104v597.333h292.139l85.333 85.333h-377.472c-47.061 0-85.333-38.272-85.333-85.333v-597.333c0-47.061 38.272-85.333 85.333-85.333z" />
<glyph unicode="&#xe98c;" glyph-name="bx-envelope" d="M853.333 789.333h-682.667c-47.061 0-85.333-38.272-85.333-85.333v-512c0-47.061 38.272-85.333 85.333-85.333h682.667c47.061 0 85.333 38.272 85.333 85.333v512c0 47.061-38.272 85.333-85.333 85.333zM853.333 704v-21.803l-341.333-265.515-341.333 265.472v21.845h682.667zM170.667 192v382.123l315.136-245.12c7.68-6.016 16.939-9.003 26.197-9.003s18.517 2.987 26.197 9.003l315.136 245.12 0.085-382.123h-682.752z" />
<glyph unicode="&#xe98d;" glyph-name="bx-equalizer" d="M469.333 576h85.333v-256h-85.333zM640 704h85.333v-512h-85.333zM298.667 789.333h85.333v-682.667h-85.333zM810.667 490.667h85.333v-85.333h-85.333zM128 533.333h85.333v-170.667h-85.333z" />
<glyph unicode="&#xe98e;" glyph-name="bx-error" d="M469.376 576h85.333v-213.333h-85.333v213.333zM469.333 277.333h85.333v-85.333h-85.333v85.333zM587.435 780.8c-14.848 27.947-43.776 45.312-75.435 45.312s-60.587-17.365-75.435-45.355l-313.088-591.488c-14.123-26.709-13.269-58.069 2.304-83.968 15.573-25.856 42.88-41.301 73.088-41.301h626.261c30.208 0 57.557 15.445 73.131 41.301 15.531 25.856 16.427 57.259 2.304 83.968l-313.131 591.531zM198.869 149.333l313.131 591.488 313.344-591.488h-626.475z" />
<glyph unicode="&#xe98f;" glyph-name="bx-error-circle" d="M509.995 874.667c-234.155 0-424.661-191.403-424.661-426.667s191.403-426.667 426.667-426.667 426.667 191.403 426.667 426.667-192.299 426.667-428.672 426.667zM512 106.667c-188.203 0-341.333 153.131-341.333 341.333s152.192 341.333 339.328 341.333c189.355 0 343.339-153.131 343.339-341.333s-153.131-341.333-341.333-341.333zM469.333 661.333h85.333v-256h-85.333zM469.333 320h85.333v-85.333h-85.333z" />
<glyph unicode="&#xe990;" glyph-name="bx-exit-fullscreen" d="M426.667 789.333h-85.333v-170.667h-170.667v-85.333h256zM341.333 106.667h85.333v256h-256v-85.333h170.667zM853.333 362.667h-256v-256h85.333v170.667h170.667zM853.333 618.667h-170.667v170.667h-85.333v-256h256z" />
<glyph unicode="&#xe991;" glyph-name="bx-expand" d="M896 305.323l-90.496-90.496-135.339 135.339-60.331-60.331 135.339-135.339-90.496-90.496h241.323zM128 590.677l90.496 90.496 135.339-135.339 60.331 60.331-135.339 135.339 90.496 90.496h-241.323zM896 832h-241.323l90.496-90.496-135.339-135.339 60.331-60.331 135.339 135.339 90.496-90.496zM128 64h241.323l-90.496 90.496 135.339 135.339-60.331 60.331-135.339-135.339-90.496 90.496z" />
<glyph unicode="&#xe992;" glyph-name="bx-export" d="M469.333 277.333h85.333v426.667h128l-170.667 170.667-170.667-170.667h128zM213.333 64h597.333c47.061 0 85.333 38.272 85.333 85.333v384c0 47.061-38.272 85.333-85.333 85.333h-170.667v-85.333h170.667v-384h-597.333v384h170.667v85.333h-170.667c-47.061 0-85.333-38.272-85.333-85.333v-384c0-47.061 38.272-85.333 85.333-85.333z" />
<glyph unicode="&#xe993;" glyph-name="bx-fast-forward" d="M810.667 448l-298.667 213.333v-426.667zM213.333 661.333v-426.667l298.667 213.333z" />
<glyph unicode="&#xe994;" glyph-name="bx-fast-forward-circle" d="M512 21.333c235.264 0 426.667 191.403 426.667 426.667s-191.403 426.667-426.667 426.667-426.667-191.403-426.667-426.667 191.403-426.667 426.667-426.667zM512 789.333c188.203 0 341.333-153.131 341.333-341.333s-153.131-341.333-341.333-341.333-341.333 153.131-341.333 341.333 153.131 341.333 341.333 341.333zM554.667 576v-256l170.667 128zM341.333 576v-256l170.667 128z" />
<glyph unicode="&#xe995;" glyph-name="bx-female" d="M789.333 597.333c0 152.917-124.416 277.333-277.333 277.333s-277.333-124.416-277.333-277.333c0-138.368 101.973-253.099 234.667-273.707v-88.96h-128v-85.333h128v-127.488h85.333v127.488h128v85.333h-128v88.96c132.651 20.608 234.667 135.339 234.667 273.707zM320 597.333c0 105.856 86.144 192 192 192s192-86.144 192-192c0-105.813-86.016-191.872-191.787-192h-0.427c-105.771 0.128-191.787 86.187-191.787 192z" />
<glyph unicode="&#xe996;" glyph-name="bx-file" d="M849.195 593.664c-2.091 4.523-4.693 8.832-8.363 12.501l-256 256c-3.669 3.669-7.979 6.272-12.501 8.363-1.28 0.597-2.645 0.939-4.011 1.408-3.584 1.195-7.253 1.963-11.051 2.176-0.896 0.085-1.707 0.555-2.603 0.555h-298.667c-47.061 0-85.333-38.272-85.333-85.333v-682.667c0-47.061 38.272-85.333 85.333-85.333h512c47.061 0 85.333 38.272 85.333 85.333v469.333c0 0.896-0.469 1.707-0.555 2.645-0.213 3.797-0.939 7.467-2.176 11.051-0.427 1.365-0.811 2.688-1.408 3.968zM707.669 618.667h-110.336v110.336l110.336-110.336zM256 106.667v682.667h256v-213.333c0-23.595 19.072-42.667 42.667-42.667h213.333l0.085-426.667h-512.085zM341.333 448h341.333v-85.333h-341.333zM341.333 277.333h341.333v-85.333h-341.333zM341.333 618.667h85.333v-85.333h-85.333z" />
<glyph unicode="&#xe997;" glyph-name="bx-file-blank" d="M850.645 589.653c-0.469 1.365-0.853 2.688-1.408 4.011-2.091 4.523-4.693 8.832-8.363 12.501l-256 256c-3.669 3.669-7.979 6.272-12.501 8.363-1.28 0.597-2.645 0.939-4.011 1.408-3.584 1.195-7.253 1.963-11.051 2.176-0.939 0.085-1.749 0.555-2.645 0.555h-298.667c-47.061 0-85.333-38.272-85.333-85.333v-682.667c0-47.061 38.272-85.333 85.333-85.333h512c47.061 0 85.333 38.272 85.333 85.333v469.333c0 0.896-0.469 1.707-0.555 2.645-0.213 3.755-0.939 7.424-2.133 11.008zM707.669 618.667h-110.336v110.336l110.336-110.336zM256 106.667v682.667h256v-213.333c0-23.595 19.072-42.667 42.667-42.667h213.333l0.085-426.667h-512.085z" />
<glyph unicode="&#xe998;" glyph-name="bx-film" d="M810.667 832h-597.333c-47.061 0-85.333-38.272-85.333-85.333v-597.333c0-47.061 38.272-85.333 85.333-85.333h597.333c47.061 0 85.333 38.272 85.333 85.333v597.333c0 47.061-38.272 85.333-85.333 85.333zM384 490.667v256h256v-256h-256zM640 405.333v-256h-256v256h256zM213.333 746.667h85.333v-85.333h-85.333v85.333zM213.333 576h85.333v-85.333h-85.333v85.333zM213.333 405.333h85.333v-85.333h-85.333v85.333zM213.333 234.667h85.333v-85.333h-85.333v85.333zM810.752 149.333h-85.419v85.333h85.419v-85.333zM810.709 320h-85.376v85.333h85.376v-85.333zM810.709 490.667h-85.376v85.333h85.376v-85.333zM725.333 661.333v85.333h85.333v-85.333h-85.333z" />
<glyph unicode="&#xe999;" glyph-name="bx-filter" d="M298.667 490.667h426.667v-85.333h-426.667zM170.667 661.333h682.667v-85.333h-682.667zM426.667 320h170.667v-85.333h-170.667z" />
<glyph unicode="&#xe99a;" glyph-name="bx-fingerprint" d="M254.379 205.909c44.288-70.699 44.288-123.435 44.288-184.576h85.333c0 64.896 0 138.411-57.301 229.931l-72.32-45.355zM704.171 815.488c-107.819 63.019-382.037 105.003-521.515-39.168-143.701-148.523-95.957-387.072 0.043-486.059 5.035-5.205 10.411-9.771 15.744-14.208 3.072-2.603 6.229-4.949 8.747-7.851l63.744 56.747c-5.291 5.973-11.477 11.307-17.877 16.683-3.072 2.56-6.229 5.077-9.131 8.021-70.827 73.003-106.923 256.725 0.043 367.275 107.733 111.403 344.235 67.371 417.152 24.789 114.816-66.944 174.805-183.808 175.317-184.875l76.331 38.187c-2.773 5.76-71.168 140.331-208.597 220.459zM398.507 412.928c-43.947 53.76-76.245 98.859-59.392 149.589 11.221 33.493 34.688 56.533 69.845 68.437 52.224 17.493 124.587 6.827 172.373-25.643l47.915 70.571c-70.315 47.787-169.899 62.165-247.637 35.883-60.075-20.309-103.893-63.787-123.392-122.283-33.109-99.328 34.091-181.504 74.24-230.613 6.357-7.808 12.373-15.104 17.451-21.845 119.424-158.805 119.424-235.008 119.424-315.691h85.333c0 86.869 0 185.387-136.576 366.976-5.717 7.595-12.416 15.829-19.584 24.619zM645.589 555.605c78.293-75.264 129.451-189.739 165.931-371.243l83.669 16.853c-40.064 199.595-98.816 327.893-190.421 415.915l-59.179-61.525zM493.056 568.789l-47.573-70.827c1.152-0.811 115.669-80.213 162.176-244.224l82.091 23.253c-55.424 195.499-190.976 287.957-196.693 291.797zM626.688 172.416c8.96-49.835 13.312-99.243 13.312-151.083h85.333c0 56.96-4.779 111.275-14.635 166.187l-84.011-15.104z" />
<glyph unicode="&#xe99b;" glyph-name="bx-first-aid" d="M853.333 704h-128v85.333c0 47.061-38.272 85.333-85.333 85.333h-256c-47.061 0-85.333-38.272-85.333-85.333v-85.333h-128c-47.061 0-85.333-38.272-85.333-85.333v-426.667c0-47.061 38.272-85.333 85.333-85.333h682.667c47.061 0 85.333 38.272 85.333 85.333v426.667c0 47.061-38.272 85.333-85.333 85.333zM384 789.333h256v-85.333h-256v85.333zM170.667 192v426.667h682.667l0.043-426.667h-682.709zM554.667 533.333h-85.333v-85.333h-85.333v-85.333h85.333v-85.333h85.333v85.333h85.333v85.333h-85.333z" />
<glyph unicode="&#xe99c;" glyph-name="bx-first-page" d="M695.168 204.501l60.331 60.331-183.168 183.168 183.168 183.168-60.331 60.331-243.499-243.499zM298.667 704h85.333v-512h-85.333z" />
<glyph unicode="&#xe99d;" glyph-name="bx-flag" d="M298.667 320h469.333c47.061 0 85.333 38.272 85.333 85.333v341.333c0 47.061-38.272 85.333-85.333 85.333h-469.333v42.667h-85.333v-853.333h85.333v298.667zM768 746.667v-341.333h-469.333v341.333h469.333z" />
<glyph unicode="&#xe99e;" glyph-name="bx-folder" d="M853.333 746.667h-409.003l-72.832 72.832c-7.979 8.021-18.859 12.501-30.165 12.501h-170.667c-47.061 0-85.333-38.272-85.333-85.333v-597.333c0-47.061 38.272-85.333 85.333-85.333h682.667c47.061 0 85.333 38.272 85.333 85.333v512c0 47.061-38.272 85.333-85.333 85.333zM170.667 149.333v597.333h153.003l72.832-72.832c7.979-8.021 18.859-12.501 30.165-12.501h426.667l0.085-512h-682.752z" />
<glyph unicode="&#xe99f;" glyph-name="bx-folder-minus" d="M170.667 64h682.667c47.061 0 85.333 38.272 85.333 85.333v512c0 47.061-38.272 85.333-85.333 85.333h-409.003l-72.832 72.832c-7.979 8.021-18.816 12.501-30.165 12.501h-170.667c-47.061 0-85.333-38.272-85.333-85.333v-597.333c0-47.061 38.272-85.333 85.333-85.333zM170.667 746.667h153.003l72.832-72.832c7.979-8.021 18.816-12.501 30.165-12.501h426.667l0.085-512h-682.752v597.333zM335.957 448h341.333v-85.333h-341.333v85.333z" />
<glyph unicode="&#xe9a0;" glyph-name="bx-folder-open" d="M92.373 125.824c7.936-11.947 21.291-19.157 35.627-19.157h640c17.067 0 32.512 10.155 39.211 25.856l128 298.667c5.675 13.184 4.309 28.288-3.584 40.277-7.936 11.989-21.291 19.2-35.627 19.2h-42.667v128c0 47.061-38.272 85.333-85.333 85.333h-326.613l-97.451 76.245c-7.509 5.888-16.768 9.088-26.325 9.088h-146.944c-47.061 0-85.333-38.272-85.333-85.333v-554.667h0.299c0-8.192 2.091-16.427 6.741-23.509zM739.883 192h-547.157l91.435 213.333h547.157l-91.435-213.333zM302.933 704l97.451-76.245c7.509-5.888 16.725-9.088 26.283-9.088h341.333v-128h-512c-17.067 0-32.512-10.155-39.211-25.856l-46.123-107.648v346.837h132.267z" />
<glyph unicode="&#xe9a1;" glyph-name="bx-folder-plus" d="M554.667 576h-85.333v-128h-128v-85.333h128v-128h85.333v128h128v85.333h-128zM853.333 746.667h-409.003l-72.832 72.832c-7.979 8.021-18.816 12.501-30.165 12.501h-170.667c-47.061 0-85.333-38.272-85.333-85.333v-597.333c0-47.061 38.272-85.333 85.333-85.333h682.667c47.061 0 85.333 38.272 85.333 85.333v512c0 47.061-38.272 85.333-85.333 85.333zM170.667 149.333v597.333h153.003l72.832-72.832c7.979-8.021 18.816-12.501 30.165-12.501h426.667l0.085-512h-682.752z" />
<glyph unicode="&#xe9a2;" glyph-name="bx-font" d="M594.645 761.643c-6.272 16.64-22.187 27.691-39.979 27.691h-85.333c-17.792 0-33.707-11.051-39.979-27.691l-245.589-654.976h91.179l80 213.333h314.155l80-213.333h91.179l-245.632 654.976zM386.901 405.333l112 298.667h26.197l112-298.667h-250.197z" />
<glyph unicode="&#xe9a3;" glyph-name="bx-font-color" d="M213.333 192h597.333v-128h-597.333zM533.333 789.333h-42.667c-17.109 0-32.597-10.24-39.296-25.984l-206.251-486.016h92.715l54.315 128h239.104l54.101-128h92.629l-205.355 485.973c-6.656 15.787-22.187 26.027-39.296 26.027zM428.373 490.667l83.584 196.949 83.243-196.949h-166.827z" />
<glyph unicode="&#xe9a4;" glyph-name="bx-font-family" d="M640 789.333h298.667v-85.333h-298.667zM682.667 618.667h256v-85.333h-256zM768 448h170.667v-85.333h-170.667zM256.512 320h314.155l80-213.333h91.179l-245.632 654.976c-6.272 16.64-22.187 27.691-39.979 27.691h-85.333c-17.792 0-33.707-11.051-39.979-27.691l-245.589-654.976h91.179l80 213.333zM400.469 704h26.197l112-298.667h-250.155l111.957 298.667z" />
<glyph unicode="&#xe9a5;" glyph-name="bx-font-size" d="M938.667 746.667l-128 128-128-128h85.333v-256h-85.333l128-128 128 128h-85.333v256zM256.512 320h314.155l80-213.333h91.179l-245.632 654.976c-6.272 16.64-22.187 27.691-39.979 27.691h-85.333c-17.792 0-33.707-11.051-39.979-27.691l-245.589-654.976h91.179l80 213.333zM400.469 704h26.197l112-298.667h-250.155l111.957 298.667z" />
</font>
</defs>
</svg>
