<?xml version="1.0" standalone="no"?>
<!DOCTYPE svg PUBLIC "-//W3C//DTD SVG 1.1//EN" "http://www.w3.org/Graphics/SVG/1.1/DTD/svg11.dtd" >
<svg xmlns="http://www.w3.org/2000/svg">
<metadata>Generated by IcoMoon</metadata>
<defs>
<font id="boxicons" horiz-adv-x="1024">
<font-face units-per-em="1024" ascent="960" descent="-64" />
<missing-glyph horiz-adv-x="1024" />
<glyph unicode="&#x20;" horiz-adv-x="512" d="" />
<glyph unicode="&#xe900;" glyph-name="bx-adjust" d="M512 874.667c-231.296 0-426.667-195.413-426.667-426.667s195.371-426.667 426.667-426.667 426.667 195.413 426.667 426.667-195.371 426.667-426.667 426.667zM512 106.667c-185.045 0-341.333 156.331-341.333 341.333s156.288 341.333 341.333 341.333 341.333-156.331 341.333-341.333-156.288-341.333-341.333-341.333zM512 704v-512c140.032 0 256 116.011 256 256 0 140.117-115.968 256-256 256z" />
<glyph unicode="&#xe901;" glyph-name="bx-alarm" d="M512 789.333c-208.171 0-384-175.829-384-384s175.829-384 384-384 384 175.829 384 384-175.829 384-384 384zM512 106.667c-161.877 0-298.667 136.789-298.667 298.667s136.789 298.667 298.667 298.667 298.667-136.789 298.667-298.667-136.789-298.667-298.667-298.667zM554.667 448v170.667h-85.333v-256h256v85.333zM737.451 801.835l60.245 60.416 128.427-128.043-60.288-60.416zM285.781 801.877l-127.573-127.957-60.501 60.288 127.573 127.915z" />
<glyph unicode="&#xe902;" glyph-name="bx-alarm-off" d="M797.749 862.198l128.42-128.021-60.245-60.433-128.42 128.021 60.245 60.433zM896 405.333c0 208.171-175.829 384-384 384-78.379 0-152.021-25.216-213.547-67.456l-46.251 46.251 33.621 33.749-60.459 60.245-33.536-33.621-33.664 33.664-60.331-60.331 768-768 60.331 60.331-97.621 97.621c42.197 61.525 67.456 135.168 67.456 213.547zM512 704c161.877 0 298.667-136.789 298.667-298.667 0-55.125-16.512-106.965-43.819-151.851l-109.184 109.184h67.669v85.333h-153.003l-17.664 17.664v153.003h-85.333v-67.669l-109.141 109.141c44.885 27.392 96.683 43.861 151.808 43.861zM512 106.667c-161.877 0-298.667 136.789-298.667 298.667 0 47.403 11.989 92.544 32.683 132.821l-62.336 62.336c-35.029-57.6-55.68-124.416-55.68-195.157 0-208.171 175.829-384 384-384 70.741 0 137.6 20.651 195.157 55.68l-62.336 62.336c-40.277-20.693-85.419-32.683-132.821-32.683z" />
<glyph unicode="&#xe903;" glyph-name="bx-album" d="M597.333 448.299c0-47.293-38.339-85.632-85.632-85.632s-85.632 38.339-85.632 85.632c0 47.293 38.339 85.632 85.632 85.632s85.632-38.339 85.632-85.632zM512 874.667c-235.264 0-426.667-191.403-426.667-426.667s191.403-426.667 426.667-426.667 426.667 191.403 426.667 426.667-191.403 426.667-426.667 426.667zM512 106.667c-188.203 0-341.333 153.131-341.333 341.333s153.131 341.333 341.333 341.333 341.333-153.131 341.333-341.333-153.131-341.333-341.333-341.333zM512 704c-141.184 0-256-114.816-256-256h85.333c0 94.123 76.544 170.667 170.667 170.667v85.333z" />
<glyph unicode="&#xe904;" glyph-name="bx-align-justify" d="M170.667 746.667h682.667v-85.333h-682.667zM170.667 576h682.667v-85.333h-682.667zM170.667 405.333h682.667v-85.333h-682.667zM256 234.667h512v-85.333h-512z" />
<glyph unicode="&#xe905;" glyph-name="bx-align-left" d="M170.667 234.667h682.667v-85.333h-682.667zM170.667 405.333h512v-85.333h-512zM170.667 576h682.667v-85.333h-682.667zM170.667 746.667h512v-85.333h-512z" />
<glyph unicode="&#xe906;" glyph-name="bx-align-middle" d="M170.667 234.667h682.667v-85.333h-682.667zM256 405.333h512v-85.333h-512zM170.667 576h682.667v-85.333h-682.667zM256 746.667h512v-85.333h-512z" />
<glyph unicode="&#xe907;" glyph-name="bx-align-right" d="M170.667 234.667h682.667v-85.333h-682.667zM341.333 405.333h512v-85.333h-512zM170.667 576h682.667v-85.333h-682.667zM341.333 746.667h512v-85.333h-512z" />
<glyph unicode="&#xe908;" glyph-name="bx-analyse" d="M197.419 581.205c17.98 42.162 42.606 78.152 72.952 108.408l0.008 0.008c30.27 30.367 66.276 54.995 106.26 72.122l2.199 0.838c39.268 16.765 84.955 26.512 132.919 26.512 46.334 0 90.544-9.096 130.941-25.599l-2.313 0.836c1.757-57.253 48.59-102.997 106.108-102.997 0.061 0 0.123 0 0.184 0h-0.009c59.136 0 106.667 47.531 106.667 106.667s-47.531 106.667-106.667 106.667c-29.397 0-55.979-11.776-75.221-30.933-103.723 41.515-222.848 40.875-325.76-2.517-52.757-22.507-97.795-53.308-135.674-91.258l-0.006-0.006c-37.976-37.868-68.792-82.893-90.255-132.883l-1.052-2.754c-21.096-48.843-33.366-105.713-33.366-165.449 0-0.304 0-0.608 0.001-0.912v0.047h85.333c0 46.336 9.003 91.136 26.752 133.205zM853.333 448c0-0.192 0.001-0.42 0.001-0.648 0-94.087-38.101-179.276-99.716-240.978l0.004 0.004c-30.281-30.349-66.284-54.974-106.256-72.12l-2.203-0.84c-39.268-16.765-84.955-26.512-132.919-26.512-46.334 0-90.544 9.096-130.941 25.599l2.313-0.836c-1.757 57.253-48.59 102.997-106.108 102.997-0.061 0-0.123 0-0.184 0h0.009c-59.136 0-106.667-47.531-106.667-106.667s47.531-106.667 106.667-106.667c29.397 0 55.979 11.776 75.221 30.933 47.112-19.569 101.833-30.933 159.208-30.933 0.083 0 0.167 0 0.25 0h-0.013c0.244-0.001 0.533-0.001 0.822-0.001 175.444 0 326.114 106.073 391.376 257.586l1.060 2.766c21.123 48.836 33.409 105.702 33.409 165.439 0 0.308 0 0.616-0.001 0.924v-0.048h-85.333zM512 641.621c-106.752 0-193.621-86.869-193.621-193.621s86.869-193.621 193.621-193.621 193.621 86.869 193.621 193.621-86.869 193.621-193.621 193.621zM512 339.712c-59.691 0-108.288 48.597-108.288 108.288s48.597 108.288 108.288 108.288 108.288-48.597 108.288-108.288-48.597-108.288-108.288-108.288z" />
<glyph unicode="&#xe909;" glyph-name="bx-anchor" d="M810.667 405.333h-85.333v-85.333h38.955c-18.56-105.387-104.235-190.763-209.621-209.323v294.656h85.333v85.333h-85.333v70.997c65.835 19.584 115.797 82.048 115.797 154.496 0 87.424-71.083 158.507-158.464 158.507s-158.464-71.083-158.464-158.507c0-72.448 49.963-134.912 115.797-154.496v-70.997h-85.333v-85.333h85.333v-294.656c-105.387 18.56-191.104 103.936-209.621 209.323h38.955v85.333h-85.333c-23.564 0-42.667-19.103-42.667-42.667v0c0-170.581 132.907-316.416 298.667-338.219v-3.115h85.333v3.115c165.76 21.803 298.667 167.637 298.667 338.219 0 23.564-19.103 42.667-42.667 42.667v0zM438.869 716.16c0 40.32 32.811 73.173 73.131 73.173s73.131-32.853 73.131-73.173c0-40.576-34.176-76.16-73.131-76.16s-73.131 35.584-73.131 76.16z" />
<glyph unicode="&#xe90a;" glyph-name="bx-aperture" d="M512 874.667c-231.296 0-426.667-195.371-426.667-426.667s195.371-426.667 426.667-426.667 426.667 195.371 426.667 426.667-195.371 426.667-426.667 426.667zM602.155 320h-176.085l-73.515 132.011 82.731 123.989h159.403l79.829-130.645-72.363-125.355zM170.667 448c0 40.661 7.936 79.787 21.675 116.352l136.021-244.352h-131.669c-16.37 37.774-25.933 81.758-26.027 127.964v0.036zM694.741 576h132.523c16.403-37.769 25.982-81.755 26.069-127.967v-0.033c0-36.011-6.101-70.827-16.939-103.765l-141.653 231.765zM776.021 661.333h-283.861l81.28 121.899c80.469-15.317 151.979-59.861 202.581-121.899zM473.301 786.816l-83.669-125.483h-5.632v-8.405l-78.080-117.12-64.853 116.395c55.467 72.661 138.624 123.52 232.235 134.613zM247.979 234.667h304.939l-72.917-126.336c-92.416 9.088-175.317 56.789-232.021 126.336zM581.973 114.347l143.232 248.107 65.877-107.776c-49.237-70.059-123.776-121.771-209.109-140.331z" />
<glyph unicode="&#xe90b;" glyph-name="bx-archive" d="M298.667 362.667h426.667c23.595 0 42.667 19.072 42.667 42.667v128h-85.333v-85.333h-341.333v85.333h-85.333v-128c0-23.595 19.072-42.667 42.667-42.667zM930.176 686.848l-127.616 170.709c-8.064 10.795-20.736 17.109-34.176 17.109h-512c-13.44 0-26.069-6.272-34.091-16.981l-128.384-170.667 0.597-0.427c-5.376-7.168-9.173-15.616-9.173-25.259v-512c0-23.595 19.072-42.667 42.667-42.667h768c23.595 0 42.667 19.072 42.667 42.667v512c0 9.6-3.755 17.963-9.045 25.088l0.555 0.427zM277.675 789.333h469.333l63.787-85.333h-597.291l64.171 85.333zM853.333 192h-682.667v426.667h682.667v-426.667z" />
<glyph unicode="&#xe90c;" glyph-name="bx-archive-in" d="M469.333 277.333h85.333v85.333h128l-170.667 170.667-170.667-170.667h128zM930.176 686.933l-127.616 170.624c-8.064 10.795-20.736 17.109-34.176 17.109h-512c-13.44 0-26.069-6.272-34.091-16.981l-128.384-170.667 0.597-0.427c-5.376-7.168-9.173-15.616-9.173-25.259v-512c0-23.595 19.072-42.667 42.667-42.667h768c23.595 0 42.667 19.072 42.667 42.667v512c0 9.6-3.755 18.005-9.088 25.131l0.597 0.469zM277.675 789.333h469.333l63.829-85.333h-597.333l64.171 85.333zM853.333 192h-682.667v426.667h682.667v-426.667z" />
<glyph unicode="&#xe90d;" glyph-name="bx-archive-out" d="M512 277.333l170.667 170.667h-128v85.333h-85.333v-85.333h-128zM930.005 685.824l0.64 0.469-122.667 170.624c-8.021 11.136-20.907 17.749-34.645 17.749h-512c-13.141 0-25.557-6.059-33.621-16.427l-133.333-170.667 0.555-0.427c-5.675-7.211-9.6-15.915-9.6-25.813v-512c0-23.595 19.072-42.667 42.667-42.667h768c23.595 0 42.667 19.072 42.667 42.667v512c0 9.344-3.584 17.493-8.661 24.491zM282.112 789.333h469.333l61.355-85.333h-597.333l66.645 85.333zM853.333 192h-682.667v426.667h682.667v-426.667z" />
<glyph unicode="&#xe90e;" glyph-name="bx-area" d="M128 789.333v-682.667c0-23.564 19.103-42.667 42.667-42.667v0h682.667c23.564 0 42.667 19.103 42.667 42.667v0 682.667c0 23.564-19.103 42.667-42.667 42.667v0h-682.667c-23.564 0-42.667-19.103-42.667-42.667v0zM213.333 746.667h597.333v-597.333h-597.333v597.333zM512 576h128v-128h85.333v213.333h-213.333zM384 448h-85.333v-213.333h213.333v85.333h-128z" />
<glyph unicode="&#xe90f;" glyph-name="bx-arrow-back" d="M542.165 222.165l-183.168 183.168h409.003v85.333h-409.003l183.168 183.168-60.331 60.331-286.165-286.165 286.165-286.165z" />
<glyph unicode="&#xe910;" glyph-name="bx-asterisk" d="M712.363 612.949l-157.696-91.051v182.101h-85.333v-182.101l-157.696 91.051-42.667-73.899 157.696-91.051-157.653-91.051 42.667-73.899 157.653 91.051v-182.101h85.333v182.101l157.653-91.051 42.667 73.899-157.653 91.051 157.696 91.051z" />
<glyph unicode="&#xe911;" glyph-name="bx-at" d="M512 874.667c-235.264 0-426.667-191.403-426.667-426.667s191.403-426.667 426.667-426.667c62.549 0 126.336 15.829 189.525 47.104l-37.76 76.501c-51.371-25.387-102.443-38.272-151.765-38.272-188.203 0-341.333 153.131-341.333 341.333s153.131 341.333 341.333 341.333 341.333-153.131 341.333-341.333v-42.667c0-29.525-13.355-85.333-64-85.333-59.563 0-63.744 77.611-64 85.333v213.333h-85.333v-1.067c-35.051 27.134-79.591 43.557-127.959 43.733h-0.041c-117.632 0-213.333-95.701-213.333-213.333s95.701-213.333 213.333-213.333c61.867 0 117.248 26.923 156.245 69.163 22.357-37.973 60.075-69.163 121.088-69.163 96.981 0 149.333 87.936 149.333 170.667v42.667c0 235.264-191.403 426.667-426.667 426.667zM512 320c-70.571 0-128 57.429-128 128s57.429 128 128 128 128-57.429 128-128-57.429-128-128-128z" />
<glyph unicode="&#xe912;" glyph-name="bx-award" d="M810.667 576.043c0 164.651-133.973 298.624-298.667 298.624s-298.667-133.973-298.667-298.624c0-81.152 32.64-154.752 85.333-208.64v-303.403c0-14.805 7.68-28.501 20.224-36.309 12.587-7.851 28.331-8.448 41.515-1.877l151.595 75.819 151.595-75.776c6.016-3.029 12.544-4.523 19.072-4.523 7.808 0 15.573 2.133 22.4 6.357 12.587 7.808 20.267 21.504 20.267 36.309v303.36c52.693 53.888 85.333 127.531 85.333 208.683zM512 789.333c117.589 0 213.333-95.659 213.333-213.291 0-117.675-95.701-213.376-213.333-213.376s-213.333 95.701-213.333 213.376c0 117.632 95.701 213.291 213.333 213.291zM531.072 187.52c-11.989 6.016-26.155 6.016-38.187 0l-108.885-54.485v173.525c38.869-18.517 82.176-29.227 128-29.227s89.131 10.667 128 29.227v-173.483l-108.928 54.443z" />
<glyph unicode="&#xe913;" glyph-name="bx-badge" d="M512 328.533c-93.739 0-170.667-68.267-170.667-136.533h341.333c0 65.451-76.928 136.533-170.667 136.533zM426.667 448c0-49.109 36.267-85.333 85.333-85.333s85.333 36.224 85.333 85.333-36.267 85.333-85.333 85.333-85.333-36.224-85.333-85.333zM810.411 874.667h-596.821c-23.595 0-42.667-19.115-42.667-42.667v-768c0-23.552 19.072-42.667 42.667-42.667h596.821c23.595 0 42.667 19.115 42.667 42.667v768c0 23.552-19.072 42.667-42.667 42.667zM767.744 106.667h-511.488v682.667h511.488v-682.667zM384 704h256v-85.333h-256v85.333z" />
<glyph unicode="&#xe914;" glyph-name="bx-ball" d="M863.787 830.72c-2.944 0.768-74.325 18.475-172.885 18.475-121.259 0-293.077-27.307-422.827-157.312-227.797-228.224-142.507-580.693-138.752-595.627 3.937-15.273 15.738-27.060 30.723-30.912l0.296-0.064c2.944-0.768 73.643-18.176 171.435-18.176 121.557 0 293.717 27.349 423.765 157.355 227.627 227.627 142.976 580.267 139.264 595.157-3.922 15.312-15.723 27.141-30.721 31.038l-0.297 0.066zM695.168 264.832c-109.397-109.355-258.005-132.395-363.435-132.395-53.547 0-98.261 5.931-124.757 10.453-13.611 80.043-39.509 327.424 121.472 488.704 109.099 109.269 257.323 132.224 362.453 132.224 54.187 0 99.413-6.059 126.080-10.667 13.483-80.085 39.040-327.467-121.813-488.32zM652.501 648.832l-76.501-76.501-76.501 76.501-60.373-60.331 76.544-76.501-67.627-67.669-76.501 76.544-60.373-60.331 76.501-76.544-76.501-76.501 60.373-60.331 76.459 76.459 76.459-76.459 60.373 60.331-76.459 76.501 67.627 67.669 76.501-76.459 60.373 60.331-76.501 76.459 76.501 76.501z" />
<glyph unicode="&#xe915;" glyph-name="bx-bar-chart" d="M384 746.667h85.333v-682.667h-85.333zM554.667 661.333h85.333v-597.333h-85.333zM725.333 832h85.333v-768h-85.333zM213.333 448h85.333v-384h-85.333z" />
<glyph unicode="&#xe916;" glyph-name="bx-bar-chart-alt" d="M554.667 704h85.333v-469.333h-85.333zM725.333 832h85.333v-597.333h-85.333zM384 576h85.333v-341.333h-85.333zM213.333 448h85.333v-213.333h-85.333zM170.667 149.333h682.667v-85.333h-682.667z" />
<glyph unicode="&#xe917;" glyph-name="bx-bar-chart-square" d="M128 789.333v-682.667c0-23.564 19.103-42.667 42.667-42.667v0h682.667c23.564 0 42.667 19.103 42.667 42.667v0 682.667c0 23.564-19.103 42.667-42.667 42.667v0h-682.667c-23.564 0-42.667-19.103-42.667-42.667v0zM213.333 746.667h597.333v-597.333h-597.333v597.333zM469.333 661.333h85.333v-426.667h-85.333zM640 533.333h85.333v-298.667h-85.333zM298.667 448h85.333v-213.333h-85.333z" />
<glyph unicode="&#xe918;" glyph-name="bx-barcode" d="M896 789.333h-768c-23.564 0-42.667-19.103-42.667-42.667v0-597.333c0-23.564 19.103-42.667 42.667-42.667v0h768c23.564 0 42.667 19.103 42.667 42.667v0 597.333c0 23.564-19.103 42.667-42.667 42.667v0zM853.333 192h-682.667v512h682.667v-512zM256 618.667h85.333v-341.333h-85.333zM384 618.667h42.667v-341.333h-42.667zM725.333 618.667h42.667v-341.333h-42.667zM554.667 618.667h128v-341.333h-128zM469.333 618.667h42.667v-341.333h-42.667z" />
<glyph unicode="&#xe919;" glyph-name="bx-basketball" d="M512 874.667c-235.264 0-426.667-191.403-426.667-426.667s191.403-426.667 426.667-426.667 426.667 191.403 426.667 426.667-191.403 426.667-426.667 426.667zM554.667 490.667v295.723c73.637-9.575 138.501-41.409 189.052-88.427l-0.209 0.192c-55.211-53.973-91.221-128-100.736-207.445h-88.107zM469.333 490.667h-88.064c-9.557 79.445-45.568 153.515-100.779 207.445 50.33 46.853 115.198 78.704 187.127 88.094l1.715 0.183v-295.723zM294.955 490.667h-121.344c6.859 53.55 25.274 101.733 52.674 143.493l-0.791-1.285c36.651-37.675 60.928-87.936 69.461-142.208zM294.272 405.333c-10.306-53.774-36.048-100.34-72.378-136.208l-0.027-0.027c-24.555 38.966-41.65 85.075-48.075 134.533l-0.181 1.702h120.661zM381.099 405.333h88.235v-295.723c-76.077 9.848-142.908 43.509-194.183 93.145l0.092-0.089c57.557 54.4 95.488 125.995 105.856 202.667zM554.667 405.333h88.235c10.325-76.672 48.299-148.267 105.813-202.667-51.183-49.547-118.014-83.208-192.379-92.874l-1.711-0.182v295.723zM729.728 405.333h120.661c-6.606-51.16-23.701-97.269-49.082-137.642l0.826 1.408c-37.888 37.589-63.147 85.333-72.405 136.235zM729.045 490.667c8.533 54.272 32.853 104.533 69.461 142.208 26.609-40.475 45.023-88.658 51.705-140.516l0.178-1.692h-121.344z" />
<glyph unicode="&#xe91a;" glyph-name="bx-bath" d="M896 533.333h-597.333v128c0 47.061 38.272 85.333 85.333 85.333s85.333-38.272 85.333-85.333h85.333c0 94.123-76.544 170.667-170.667 170.667s-170.667-76.544-170.667-170.667v-128h-85.333c-23.595 0-42.667-19.072-42.667-42.667v-85.333c0-111.189 71.424-205.781 170.667-241.067v-142.933h85.333v128h341.333v-128h85.333v142.933c99.243 35.285 170.667 129.877 170.667 241.067v85.333c0 23.595-19.072 42.667-42.667 42.667zM853.333 405.333c0-94.123-76.544-170.667-170.667-170.667h-341.333c-94.123 0-170.667 76.544-170.667 170.667v42.667h682.667v-42.667z" />
<glyph unicode="&#xe91b;" glyph-name="bx-battery" d="M853.333 661.333c0 23.564-19.103 42.667-42.667 42.667v0h-682.667c-23.564 0-42.667-19.103-42.667-42.667v0-426.667c0-23.564 19.103-42.667 42.667-42.667v0h682.667c23.564 0 42.667 19.103 42.667 42.667v0 128h85.333v170.667h-85.333v128zM768 277.333h-597.333v341.333h597.333v-341.333z" />
<glyph unicode="&#xe91c;" glyph-name="bx-battery-charging" d="M298.667 448l170.667-42.667-42.667-170.667 213.333 213.333-170.667 42.667 42.667 170.667zM128 192h213.333l22.869 85.333h-193.536v341.333h201.515l88.875 85.333h-333.056c-23.564 0-42.667-19.103-42.667-42.667v0-426.667c0-23.564 19.103-42.667 42.667-42.667v0zM853.333 661.333c0 23.564-19.103 42.667-42.667 42.667v0h-213.333l-22.827-85.333h193.493v-341.333h-201.515l-88.917-85.333h333.099c23.564 0 42.667 19.103 42.667 42.667v0 128h85.333v170.667h-85.333v128z" />
<glyph unicode="&#xe91d;" glyph-name="bx-battery-full" d="M853.333 661.333c0 23.564-19.103 42.667-42.667 42.667v0h-682.667c-23.564 0-42.667-19.103-42.667-42.667v0-426.667c0-23.564 19.103-42.667 42.667-42.667v0h682.667c23.564 0 42.667 19.103 42.667 42.667v0 128h85.333v170.667h-85.333v128zM768 277.333h-597.333v341.333h597.333v-341.333zM256 533.333h426.667v-170.667h-426.667z" />
<glyph unicode="&#xe91e;" glyph-name="bx-battery-low" d="M853.333 661.333c0 23.564-19.103 42.667-42.667 42.667v0h-682.667c-23.564 0-42.667-19.103-42.667-42.667v0-426.667c0-23.564 19.103-42.667 42.667-42.667v0h682.667c23.564 0 42.667 19.103 42.667 42.667v0 128h85.333v170.667h-85.333v128zM768 277.333h-597.333v341.333h597.333v-341.333zM341.333 533.333h-85.333v-170.667h256z" />
<glyph unicode="&#xe91f;" glyph-name="bx-bed" d="M853.333 552.235v279.765h-85.333v-85.333h-512v85.333h-85.333v-279.765c-50.773-29.568-85.333-83.968-85.333-146.901v-170.667c0-23.595 19.115-42.667 42.667-42.667h42.667v-170.667h85.333v170.667h512v-170.667h85.333v170.667h42.667c23.595 0 42.667 19.072 42.667 42.667v170.667c0 62.933-34.603 117.333-85.333 146.901zM768 661.333v-85.333h-213.333v85.333h213.333zM256 661.333h213.333v-85.333h-213.333v85.333zM853.333 277.333h-682.667v128c0 47.061 38.272 85.333 85.333 85.333h512c47.061 0 85.333-38.272 85.333-85.333v-128z" />
<glyph unicode="&#xe920;" glyph-name="bx-bell" d="M590.336 823.211c-13.056 30.336-43.093 51.456-78.336 51.456s-65.28-21.12-78.336-51.456c-158.080-35.712-262.997-179.883-262.997-375.211v-121.088l-40.448-121.429c-1.386-4.023-2.186-8.66-2.186-13.483 0-23.553 19.084-42.648 42.633-42.667h213.335c0-70.997 57.003-128 128-128s128 57.003 128 128h214.187c0.001 0 0.003 0 0.005 0 23.564 0 42.667 19.103 42.667 42.667 0 7.768-2.076 15.052-5.704 21.326l0.11-0.206-37.931 113.792v121.088c0 195.328-104.917 339.499-262.997 375.211zM229.888 234.667l23.936 71.851c1.361 4.023 2.156 8.656 2.176 13.473v128.010c0 181.419 100.48 298.667 256 298.667s256-117.248 256-298.667v-128c0-4.565 0.768-9.131 2.219-13.483l23.893-71.851h-564.224z" />
<glyph unicode="&#xe921;" glyph-name="bx-bell-minus" d="M341.333 533.333h341.333v-85.333h-341.333zM853.333 326.912v121.088c0 195.328-104.917 339.499-262.997 375.211-13.056 30.336-43.093 51.456-78.336 51.456s-65.28-21.12-78.336-51.456c-158.080-35.712-262.997-179.883-262.997-375.211v-121.088l-40.448-121.429c-1.386-4.023-2.186-8.66-2.186-13.483 0-23.553 19.084-42.648 42.633-42.667h213.335c0-70.997 57.003-128 128-128s128 57.003 128 128h213.333c0.257-0.006 0.559-0.009 0.863-0.009 23.564 0 42.667 19.103 42.667 42.667 0 7.772-2.078 15.058-5.708 21.334l0.11-0.205-37.931 113.792zM229.888 234.667l23.936 71.851c1.361 4.023 2.156 8.656 2.176 13.473v128.010c0 181.419 100.48 298.667 256 298.667s256-117.248 256-298.667v-128c0-4.565 0.768-9.131 2.219-13.483l23.893-71.851h-564.224z" />
<glyph unicode="&#xe922;" glyph-name="bx-bell-off" d="M256 320v128c0 26.027 2.304 50.603 6.272 73.856l-69.973 70.016c-13.725-42.339-21.637-91.056-21.637-141.62 0-0.792 0.002-1.583 0.006-2.374v0.122-121.088l-40.448-121.429c-1.386-4.023-2.186-8.66-2.186-13.483 0-23.553 19.084-42.648 42.633-42.667h219.906c0-70.997 57.003-128 128-128 0.049 0 0.108 0 0.166 0 66.767 0 121.515 51.464 126.739 116.887l0.029 0.446-96 96h-319.616l23.936 71.851c1.361 4.023 2.156 8.656 2.176 13.473v0.010zM887.979 167.040c5.027 6.912 8.041 15.569 8.041 24.931 0 4.834-0.804 9.48-2.285 13.812l0.089-0.3-40.491 121.429v121.088c0 195.328-104.917 339.499-262.997 375.211-13.361 30.52-43.297 51.456-78.124 51.456-0.074 0-0.149 0-0.223 0h0.011c-35.2 0-65.152-21.077-78.251-51.328-60.202-13.773-112.147-43.205-153.022-83.774l0.020 0.019-122.581 122.581-60.331-60.331 768-768 60.331 60.331-58.069 58.069c7.808 2.944 14.805 7.851 19.883 14.805zM512 746.667c155.52 0 256-117.248 256-298.667v-128c0-4.565 0.768-9.131 2.219-13.483l23.893-71.851h-8.448l-445.312 445.312c43.435 42.624 101.803 66.688 171.648 66.688z" />
<glyph unicode="&#xe923;" glyph-name="bx-bell-plus" d="M554.667 661.333h-85.333v-128h-128v-85.333h128v-128h85.333v128h128v85.333h-128zM853.333 326.912v121.088c0 195.328-104.917 339.499-262.997 375.211-13.056 30.336-43.093 51.456-78.336 51.456s-65.28-21.12-78.336-51.456c-158.080-35.712-262.997-179.883-262.997-375.211v-121.088l-40.448-121.429c-1.386-4.023-2.186-8.66-2.186-13.483 0-23.553 19.084-42.648 42.633-42.667h213.335c0-70.997 57.003-128 128-128s128 57.003 128 128h213.333c0.257-0.006 0.559-0.009 0.863-0.009 23.564 0 42.667 19.103 42.667 42.667 0 7.772-2.078 15.058-5.708 21.334l0.11-0.205-37.931 113.792zM229.888 234.667l23.936 71.851c1.361 4.023 2.156 8.656 2.176 13.473v128.010c0 181.419 100.48 298.667 256 298.667s256-117.248 256-298.667v-128c0-4.565 0.768-9.131 2.219-13.483l23.893-71.851h-564.224z" />
<glyph unicode="&#xe924;" glyph-name="bx-bell-ring" d="M768 330.069v117.931c0 110.549-72.32 207.744-176.085 242.517-12.079 33.013-43.222 56.149-79.768 56.149-0.051 0-0.103 0-0.154 0h0.008c-36.907 0-67.883-23.253-79.829-55.893-102.912-34.005-176.171-131.541-176.171-242.773v-117.931l-38.187-76.331c-2.87-5.577-4.553-12.171-4.553-19.158 0-23.517 19.064-42.581 42.581-42.581 0.056 0 0.111 0 0.167 0h170.658c0-47.128 38.205-85.333 85.333-85.333s85.333 38.205 85.333 85.333v0h170.667c0.26-0.006 0.566-0.009 0.873-0.009 23.564 0 42.667 19.103 42.667 42.667 0 9.789-3.297 18.808-8.84 26.008l0.074-0.1-34.773 69.504zM325.035 277.333l11.776 23.595c2.851 5.536 4.523 12.081 4.523 19.016 0 0.020 0 0.039 0 0.059v-0.003 128c0 84.181 62.891 156.672 143.531 168.363l27.179 2.176 24.747-1.92c82.775-12.771 145.471-83.312 145.877-168.576v-128.043c0-6.613 1.536-13.184 4.48-19.072l11.819-23.595h-373.931zM225.963 776.96c-140.629-139.648-140.629-240.853-140.629-371.627h42.667l42.667 2.688c0 124.928 0 193.749 115.371 308.352l-60.075 60.587zM798.037 776.96l-60.075-60.587c115.371-114.603 115.371-183.424 115.371-311.040l85.333 2.688c0 128.085 0 229.291-140.629 368.939z" />
<glyph unicode="&#xe925;" glyph-name="bx-bicycle" d="M797.355 440.32l-170.197 306.347h140.843v85.333h-213.333c-23.555-0.013-42.645-19.11-42.645-42.667 0-7.596 1.985-14.729 5.465-20.907l-0.111 0.214 83.285-149.973h-313.813l-36.48 63.829c-7.489 12.935-21.261 21.499-37.034 21.504h-85.334v-85.333h60.587l98.048-171.605c-3.115 0.128-6.144 0.939-9.301 0.939-105.856 0-192-86.144-192-192s86.144-192 192-192 192 86.144 192 192c-0.123 15.256-2.013 30.010-5.477 44.147l0.271-1.31 180.48 240.725 54.571-98.219c-82.859-21.248-144.512-95.915-144.512-185.344 0-105.856 86.144-192 192-192s192 86.144 192 192c0 88.192-60.117 161.963-141.312 184.32zM277.333 149.333c-58.837 0-106.667 47.829-106.667 106.667s47.829 106.667 106.667 106.667 106.667-47.829 106.667-106.667-47.829-106.667-106.667-106.667zM420.437 382.763c-0.137 0.19-0.277 0.357-0.428 0.513l0.001-0.001 1.024 0.597-85.419 149.461h197.717l-112.896-150.571zM746.667 149.333c-58.837 0-106.667 47.829-106.667 106.667s47.829 106.667 106.667 106.667 106.667-47.829 106.667-106.667-47.829-106.667-106.667-106.667z" />
<glyph unicode="&#xe926;" glyph-name="bx-block" d="M512 21.333c235.264 0 426.667 191.403 426.667 426.667s-191.403 426.667-426.667 426.667-426.667-191.403-426.667-426.667 191.403-426.667 426.667-426.667zM853.333 448c-0.024-79.146-27.137-151.956-72.572-209.664l0.551 0.726-478.251 478.251c56.975 44.901 129.79 72.019 208.938 72.021v0c188.203 0 341.333-153.131 341.333-341.333zM242.688 656.939l478.251-478.251c-56.967-44.903-129.777-72.021-208.92-72.021-0.006 0-0.013 0-0.019 0h0.001c-188.203 0-341.333 153.131-341.333 341.333 0 78.763 27.051 151.125 72.021 208.939z" />
<glyph unicode="&#xe927;" glyph-name="bx-bluetooth" d="M239.829 201.216l186.837 147.925v-285.141c0.048-23.551 19.151-42.624 42.709-42.624 9.633 0 18.521 3.189 25.666 8.569l-0.109-0.079 256 192c10.413 7.867 17.072 20.224 17.072 34.137 0 13.515-6.284 25.563-16.090 33.38l-0.086 0.066-200.277 158.549 200.277 158.549c9.877 7.892 16.149 19.936 16.149 33.446 0 13.907-6.647 26.262-16.938 34.061l-0.107 0.077-256 192c-7.036 5.302-15.924 8.491-25.557 8.491-23.558 0-42.661-19.073-42.709-42.62v-285.146l-186.837 147.925-52.992-66.901 227.243-179.883-227.243-179.883 52.992-66.901zM512 746.667l143.445-107.563-143.445-113.579v221.141zM512 370.475l143.445-113.579-143.445-107.563v221.141z" />
<glyph unicode="&#xe928;" glyph-name="bx-body" d="M597.333 789.333c0-47.128-38.205-85.333-85.333-85.333s-85.333 38.205-85.333 85.333c0 47.128 38.205 85.333 85.333 85.333s85.333-38.205 85.333-85.333zM853.333 661.333h-682.667v-85.333h213.333v-554.667h85.333v298.667h85.333v-298.667h85.333v554.667h213.333z" />
<glyph unicode="&#xe929;" glyph-name="bx-bold" d="M533.333 789.333h-277.333v-682.667h277.333c138.155 0 234.667 87.723 234.667 213.333 0 66.773-33.237 122.112-81.152 159.659 23.991 32.543 38.42 73.417 38.485 117.659v0.016c0 93.099-67.285 192-192 192zM384 661.333h149.333c50.517 0 64-40.235 64-64s-13.483-64-64-64h-149.333v128zM533.333 234.667h-149.333v170.667h149.333c50.347 0 106.667-36.48 106.667-85.333 0-53.419-39.893-85.333-106.667-85.333z" />
<glyph unicode="&#xe92a;" glyph-name="bx-bolt" d="M414.293 23.168c3.709-1.169 7.974-1.843 12.397-1.843 14.735 0 27.723 7.476 35.378 18.843l0.096 0.152 341.333 512c4.494 6.653 7.174 14.854 7.174 23.68 0 23.564-19.103 42.667-42.667 42.667-0.002 0-0.005 0-0.007 0h-205.61l34.389 206.293c0.374 2.118 0.588 4.557 0.588 7.046 0 10.542-3.838 20.187-10.194 27.614l0.048-0.058c-7.861 9.264-19.513 15.104-32.529 15.104-0.009 0-0.018 0-0.027 0h-255.999c0 0 0 0-0.001 0-22.061 0-40.212-16.744-42.437-38.217l-0.015-0.183-42.667-426.667c-0.136-1.279-0.214-2.764-0.214-4.267 0-23.564 19.103-42.667 42.667-42.667 0 0 0 0 0.001 0h128v-298.667c0.001-19.15 12.617-35.353 29.991-40.751l0.302-0.081zM303.147 448l34.133 341.333h166.997l-34.389-206.293c-0.374-2.118-0.588-4.557-0.588-7.046 0-10.542 3.838-20.187 10.194-27.614l-0.048 0.058c8.107-9.6 20.011-15.104 32.555-15.104h176.299l-218.965-328.405v200.405c0 23.564-19.103 42.667-42.667 42.667v0h-123.52z" />
<glyph unicode="&#xe92b;" glyph-name="bx-book" d="M848.427 680.277l0.384 0.171-85.76 170.667c-7.253 14.464-22.016 23.552-38.144 23.552h-468.907c-51.456 0-128-34.091-128-128v-597.333c0-93.909 76.544-128 128-128h554.667c23.595 0 42.667 19.115 42.667 42.667v597.333c0 6.912-2.005 13.184-4.907 18.944zM256.512 789.333h442.112l42.88-85.333h-484.992c-19.712 0.512-43.179 8.32-43.179 42.667s23.467 42.155 43.179 42.667zM768 106.667h-511.488c-19.712 0.512-43.179 8.32-43.179 42.667v469.333h554.667v-512zM341.333 533.333h341.333v-85.333h-341.333v85.333z" />
<glyph unicode="&#xe92c;" glyph-name="bx-book-bookmark" d="M848.811 679.765l0.256 0.128-82.261 170.667c-7.040 14.72-22.016 24.107-38.4 24.107h-472.405c-51.456 0-128-34.091-128-128v-597.333c0-93.909 76.544-128 128-128h554.667c23.595 0 42.667 19.072 42.667 42.667v597.333c0 6.656-1.835 12.8-4.523 18.432zM256 789.333h445.611l41.131-85.333h-486.229c-19.712 0.512-43.179 8.277-43.179 42.667s23.467 42.155 42.667 42.667zM768 106.667h-511.488c-19.712 0.512-43.179 8.277-43.179 42.667v469.333h298.667v-256l85.333 42.667 85.333-42.667v256h85.333v-512z" />
<glyph unicode="&#xe92d;" glyph-name="bx-bookmark" d="M170.667 64c0.008-23.558 19.107-42.653 42.667-42.653 7.786 0 15.084 2.085 21.367 5.728l-0.205-0.11 277.504 158.592 277.504-158.592c6.079-3.555 13.384-5.654 21.18-5.654 7.886 0 15.269 2.148 21.599 5.89l-0.197-0.108c12.795 7.526 21.248 21.226 21.248 36.901 0 0.002 0 0.004 0 0.006v0 768c0 23.564-19.103 42.667-42.667 42.667v0h-597.333c-23.564 0-42.667-19.103-42.667-42.667v0-768zM256 789.333h512v-651.776l-234.837 134.187c-6.074 3.5-13.359 5.565-21.125 5.565-7.797 0-15.108-2.081-21.407-5.718l0.207 0.11-234.837-134.144v651.776z" />
<glyph unicode="&#xe92e;" glyph-name="bx-bookmark-minus" d="M341.333 576h341.333v-85.333h-341.333zM832.085 27.093c12.795 7.526 21.248 21.226 21.248 36.901 0 0.002 0 0.004 0 0.006v0 768c0 23.564-19.103 42.667-42.667 42.667v0h-597.333c-23.564 0-42.667-19.103-42.667-42.667v0-768c0.050-23.55 19.152-42.622 42.709-42.622 7.768 0 15.051 2.074 21.326 5.697l-0.206-0.11 277.504 158.549 277.504-158.549c6.079-3.555 13.384-5.654 21.18-5.654 7.886 0 15.269 2.148 21.599 5.89l-0.197-0.108zM768 137.515l-234.837 134.187c-6.078 3.537-13.376 5.625-21.163 5.625s-15.085-2.088-21.367-5.734l0.204 0.109-234.837-134.187v651.819h512v-651.819z" />
<glyph unicode="&#xe92f;" glyph-name="bx-bookmark-plus" d="M469.333 362.667h85.333v128h128v85.333h-128v128h-85.333v-128h-128v-85.333h128zM853.333 832c0 23.564-19.103 42.667-42.667 42.667v0h-597.333c-23.564 0-42.667-19.103-42.667-42.667v0-768c0.008-23.558 19.107-42.653 42.667-42.653 7.786 0 15.084 2.085 21.367 5.728l-0.205-0.11 277.504 158.549 277.504-158.549c6.079-3.555 13.384-5.654 21.18-5.654 7.886 0 15.269 2.148 21.599 5.89l-0.197-0.108c12.795 7.526 21.248 21.226 21.248 36.901 0 0.002 0 0.004 0 0.006v0 768zM768 137.515l-234.837 134.187c-6.075 3.549-13.374 5.644-21.163 5.644s-15.088-2.095-21.365-5.753l0.202 0.109-234.837-134.187v651.819h512v-651.819z" />
<glyph unicode="&#xe930;" glyph-name="bx-bookmarks" d="M170.667 64c0.005-23.561 19.105-42.659 42.667-42.659 8.116 0 15.703 2.266 22.162 6.2l-0.188-0.107 191.36 114.816 191.36-114.816c6.277-3.813 13.866-6.070 21.982-6.070 7.727 0 14.977 2.046 21.236 5.626l-0.21-0.111c13.010 7.474 21.632 21.29 21.632 37.12v0 597.333c0 23.564-19.103 42.667-42.667 42.667v0h-426.667c-23.564 0-42.667-19.103-42.667-42.667v0-597.333zM256 618.667h341.333v-479.275l-148.693 89.216c-6.267 3.797-13.84 6.044-21.938 6.044-8.127 0-15.725-2.263-22.199-6.194l0.19 0.107-148.693-89.173v479.275zM853.333 277.333v554.667c0 23.564-19.103 42.667-42.667 42.667v0h-384v-85.333h341.333v-512h85.333z" />
<glyph unicode="&#xe931;" glyph-name="bx-bookmark-star" d="M398.208 362.667l113.792 75.861 113.792-75.861-37.973 132.736 94.848 80.597-113.792 14.208-56.875 113.792-56.875-113.792-113.792-14.208 94.848-80.597zM810.667 21.333c0.025 0 0.055 0 0.085 0 23.517 0 42.581 19.064 42.581 42.581 0 0.030 0 0.060 0 0.090v-0.005 768c0 23.564-19.103 42.667-42.667 42.667v0h-597.333c-23.564 0-42.667-19.103-42.667-42.667v0-768c0.008-23.558 19.107-42.653 42.667-42.653 7.786 0 15.084 2.085 21.367 5.728l-0.205-0.11 277.504 158.549 277.504-158.549c6.070-3.541 13.361-5.632 21.141-5.632 0.007 0 0.015 0 0.022 0h-0.001zM768 137.515l-234.837 134.187c-6.075 3.549-13.374 5.644-21.163 5.644s-15.088-2.095-21.365-5.753l0.202 0.109-234.837-134.187v651.819h512v-651.819z" />
<glyph unicode="&#xe932;" glyph-name="bx-book-open" d="M896 832c-77.909 0-292.48-7.808-384-85.803-91.52 77.995-306.091 85.803-384 85.803-23.564 0-42.667-19.103-42.667-42.667v0-554.667c0-23.564 19.103-42.667 42.667-42.667v0c233.259 0 352.811-114.517 354.005-115.627l0.299 0.299c3.84-3.755 8.107-7.083 13.269-9.259 4.871-2.085 10.54-3.298 16.491-3.298 11.669 0 22.249 4.661 29.981 12.223l-0.008-0.008c1.152 1.152 120.704 115.669 353.963 115.669 23.564 0 42.667 19.103 42.667 42.667v0 554.667c0 23.564-19.103 42.667-42.667 42.667v0zM170.667 745.813c148.651-5.632 298.667-39.936 298.667-84.48v-471.125c-61.141 36.139-160.555 78.549-298.667 86.016v469.589zM853.333 276.181c-137.984-7.424-237.525-49.792-298.667-85.931v471.083c0 44.459 150.016 78.763 298.667 84.48v-469.632z" />
<glyph unicode="&#xe933;" glyph-name="bx-bot" d="M426.667 448c0-47.128-28.654-85.333-64-85.333s-64 38.205-64 85.333c0 47.128 28.654 85.333 64 85.333s64-38.205 64-85.333zM725.333 448c0-47.128-28.654-85.333-64-85.333s-64 38.205-64 85.333c0 47.128 28.654 85.333 64 85.333s64-38.205 64-85.333zM896 661.333c0 23.564-19.103 42.667-42.667 42.667v0h-298.667v55.979c13.013 11.691 21.333 28.501 21.333 47.36 0 35.346-28.654 64-64 64s-64-28.654-64-64v0c0-18.859 8.32-35.669 21.333-47.36v-55.979h-298.667c-23.564 0-42.667-19.103-42.667-42.667v0-170.667h-42.667v-170.667h42.667v-256c0-23.564 19.103-42.667 42.667-42.667v0h682.667c23.564 0 42.667 19.103 42.667 42.667v0 256h42.667v170.667h-42.667v170.667zM810.667 106.667h-597.333v512h597.333v-512zM341.333 277.333v-85.333s298.496 0.128 341.248 0l0.171 85.333c-42.709 0.085-341.419 0-341.419 0z" />
<glyph unicode="&#xe934;" glyph-name="bx-box" d="M896 832h-768c-23.564 0-42.667-19.103-42.667-42.667v0-170.667c0-23.564 19.103-42.667 42.667-42.667v0-469.333c0-23.564 19.103-42.667 42.667-42.667v0h682.667c23.564 0 42.667 19.103 42.667 42.667v0 469.333c23.564 0 42.667 19.103 42.667 42.667v0 170.667c0 23.564-19.103 42.667-42.667 42.667v0zM170.667 746.667h682.667v-85.333h-682.667v85.333zM810.667 149.333h-597.333v426.667h597.333v-426.667zM341.333 490.667h341.333v-85.333h-341.333z" />
<glyph unicode="&#xe935;" glyph-name="bx-briefcase" d="M896 704h-170.667v128c0 23.552-19.072 42.667-42.667 42.667h-341.333c-23.595 0-42.667-19.115-42.667-42.667v-128h-170.667c-23.595 0-42.667-19.115-42.667-42.667v-512c0-23.552 19.072-42.667 42.667-42.667h768c23.595 0 42.667 19.115 42.667 42.667v512c0 23.552-19.072 42.667-42.667 42.667zM640 789.333v-85.333h-256v85.333h256zM341.333 618.667h512v-128h-682.667v128h170.667zM170.667 192v213.333h256v-85.333h170.667v85.333h256v-213.333h-682.667z" />
<glyph unicode="&#xe936;" glyph-name="bx-briefcase-alt" d="M896 704h-170.667v128c0 23.564-19.103 42.667-42.667 42.667v0h-341.333c-23.564 0-42.667-19.103-42.667-42.667v0-128h-170.667c-23.564 0-42.667-19.103-42.667-42.667v0-512c0-23.564 19.103-42.667 42.667-42.667v0h768c23.564 0 42.667 19.103 42.667 42.667v0 512c0 23.564-19.103 42.667-42.667 42.667v0zM682.667 618.667v-426.667h-341.333v426.667h341.333zM640 789.333v-85.333h-256v85.333h256zM170.667 618.667h85.333v-426.667h-85.333v426.667zM853.333 192h-85.333v426.667h85.333v-426.667z" />
<glyph unicode="&#xe937;" glyph-name="bx-broadcast" d="M780.501 716.501c116.608-116.608 116.608-313.728 0-430.336l60.331-60.331c149.333 149.333 149.333 401.664 0 550.997l-60.331-60.331zM712.832 353.835c40.277 40.235 62.507 92.672 62.507 147.499s-22.229 107.264-62.507 147.499l-60.331-60.331c24.149-24.149 37.504-55.125 37.504-87.168s-13.355-63.019-37.504-87.168l60.331-60.331zM264.832 286.165c-116.608 116.608-116.608 313.728 0 430.336l-60.331 60.331c-149.333-149.333-149.333-401.664 0-550.997l60.331 60.331zM311.168 648.832c-40.277-40.235-62.507-92.672-62.507-147.499s22.229-107.264 62.507-147.499l60.331 60.331c-24.149 24.149-37.504 55.125-37.504 87.168s13.355 63.019 37.504 87.168l-60.331 60.331zM554.667 64v374.485c25.638 14.902 42.614 42.22 42.667 73.507v0.008c0 47.128-38.205 85.333-85.333 85.333s-85.333-38.205-85.333-85.333v0c0.034-31.299 17.016-58.625 42.261-73.297l0.405-0.217v-374.485h85.333z" />
<glyph unicode="&#xe938;" glyph-name="bx-bug" d="M720.853 681.856l120.021 119.979-60.331 60.331-121.429-121.429c-8.82 6.457-18.902 12.874-29.393 18.638l-1.455 0.732c-33.647 18.349-73.697 29.139-116.267 29.139s-82.619-10.79-117.563-29.784l1.296 0.645c-10.667-5.632-20.821-12.245-30.805-19.328l-121.429 121.387-60.331-60.331 120.021-119.979c-23.924-30.227-43.459-65.322-56.824-103.323l-0.776-2.533h-160.256v-85.333h98.432c-2.773-21.12-4.565-42.539-4.565-64 0-21.632 1.792-43.221 4.565-64.469h-98.432v-85.333h117.461c0.555-1.664 0.896-3.413 1.451-5.035 8.021-23.68 17.963-46.635 29.653-68.267 1.877-3.456 4.053-6.613 6.016-9.984l-99.413-99.413 60.331-60.331 90.027 90.069c24.789-27.616 53.963-50.679 86.54-68.242l1.695-0.835c20.437-10.795 41.899-19.157 63.829-24.747 20.75-5.549 44.572-8.736 69.139-8.736 24.507 0 48.273 3.171 70.91 9.126l-1.937-0.433c24.302 6.341 45.531 14.804 65.372 25.508l-1.543-0.761c19.84 10.496 38.997 23.467 56.875 38.571 11.008 9.301 21.333 19.712 31.317 30.549l90.069-90.069 60.331 60.331-99.413 99.413c2.005 3.413 4.181 6.613 6.059 10.069 11.648 21.547 21.632 44.501 29.611 68.224 0.555 1.664 0.896 3.371 1.451 5.035h117.504v85.333h-98.475c2.773 21.291 4.565 42.837 4.565 64.469 0 21.461-1.792 42.88-4.523 64h98.432v85.291h-160.256c-14.146 40.53-33.665 75.623-58.14 106.621l0.583-0.765zM370.389 629.419c18.987 23.808 40.96 42.368 65.195 55.211 22.090 12.14 48.408 19.281 76.395 19.281s54.305-7.142 77.233-19.702l-0.838 0.421c25.866-14.177 47.584-32.695 64.938-54.801l0.342-0.452c12.757-15.915 23.040-34.133 32.128-53.376h-347.563c9.131 19.243 19.371 37.504 32.171 53.419zM759.467 426.667c0-22.272-1.792-44.544-5.376-66.261-3.371-20.907-8.491-41.515-15.147-61.269-7.25-21.362-15.311-39.517-24.774-56.794l0.923 1.84c-9.835-18.033-20.196-33.527-31.774-48.006l0.499 0.646c-11.392-14.208-23.893-27.136-37.077-38.315-13.227-11.136-27.264-20.651-41.771-28.331s-29.653-13.525-45.099-17.493c-1.707-0.427-3.499-0.597-5.205-0.981v250.965h-85.333v-250.923c-1.707 0.384-3.499 0.555-5.205 0.981-15.403 3.968-30.592 9.813-45.099 17.493s-28.544 17.195-41.728 28.331c-13.649 11.641-25.828 24.198-36.742 37.814l-0.421 0.543c-11.096 13.811-21.432 29.28-30.364 45.626l-0.825 1.649c-8.54 15.442-16.614 33.609-23.142 52.498l-0.751 2.499c-6.045 17.197-11.325 37.85-14.876 59.090l-0.313 2.265c-3.388 19.8-5.324 42.605-5.324 65.863 0 22.691 1.843 44.951 5.388 66.639l-0.319-2.369h484.736c3.371-20.949 5.12-42.453 5.12-64z" />
<glyph unicode="&#xe939;" glyph-name="bx-building" d="M213.333 21.333h597.333c23.564 0 42.667 19.103 42.667 42.667v0 768c0 23.564-19.103 42.667-42.667 42.667v0h-597.333c-23.564 0-42.667-19.103-42.667-42.667v0-768c0-23.564 19.103-42.667 42.667-42.667v0zM256 789.333h512v-682.667h-170.667v85.333h-170.667v-85.333h-170.667v682.667zM341.333 704h128v-85.333h-128zM554.667 704h128v-85.333h-128zM341.333 533.333h128v-85.333h-128zM554.667 532.011h128v-84.011h-128zM341.333 362.667h128v-85.333h-128zM554.667 362.667h128v-85.333h-128z" />
<glyph unicode="&#xe93a;" glyph-name="bx-bulb" d="M384 106.667h256v-85.333h-256zM721.323 374.955c43.947 51.456 89.344 104.661 89.344 201.045 0 164.651-134.016 298.667-298.667 298.667s-298.667-134.016-298.667-298.667c0-97.493 45.525-150.528 89.643-201.813 15.275-17.835 31.104-36.309 46.251-57.557 6.144-8.789 16.213-42.496 25.216-81.963h-33.109v-85.333h341.333v85.333h-33.024c9.088 39.552 19.2 73.344 25.301 82.133 15.019 21.461 30.976 40.107 46.379 58.155zM605.099 365.867c-18.517-26.325-33.963-88.533-42.923-131.2h-100.309c-8.917 42.752-24.405 105.088-43.136 131.413-17.48 23.922-34.211 44.66-51.836 64.588l0.806-0.929c-41.557 48.384-69.035 80.384-69.035 146.261 0 117.632 95.701 213.333 213.333 213.333s213.333-95.701 213.333-213.333c0-64.896-27.435-97.024-68.907-145.621-15.915-18.688-33.963-39.808-51.328-64.512z" />
<glyph unicode="&#xe93b;" glyph-name="bx-bullseye" d="M512 192c141.184 0 256 114.816 256 256s-114.816 256-256 256-256-114.816-256-256 114.816-256 256-256zM512 618.667c94.123 0 170.667-76.544 170.667-170.667s-76.544-170.667-170.667-170.667-170.667 76.544-170.667 170.667 76.544 170.667 170.667 170.667zM512 21.333c231.296 0 426.667 195.371 426.667 426.667s-195.371 426.667-426.667 426.667-426.667-195.371-426.667-426.667 195.371-426.667 426.667-426.667zM512 789.333c185.045 0 341.333-156.288 341.333-341.333s-156.288-341.333-341.333-341.333-341.333 156.288-341.333 341.333 156.288 341.333 341.333 341.333zM512 362.667c46.123 0 85.333 39.211 85.333 85.333s-39.211 85.333-85.333 85.333-85.333-39.211-85.333-85.333 39.211-85.333 85.333-85.333z" />
<glyph unicode="&#xe93c;" glyph-name="bx-buoy" d="M512 874.667c-235.264 0-426.667-191.403-426.667-426.667s191.403-426.667 426.667-426.667 426.667 191.403 426.667 426.667-191.403 426.667-426.667 426.667zM828.203 576h-145.536v-1.323c-12.637 16.852-27.138 31.353-43.435 43.591l-0.554 0.398h1.323v145.536c85.784-35.597 152.605-102.418 187.365-185.933l0.838-2.27zM512 320c-70.571 0-128 57.429-128 128s57.429 128 128 128 128-57.429 128-128-57.429-128-128-128zM554.667 786.389v-129.365c-12.827 2.747-27.563 4.321-42.667 4.321s-29.84-1.573-44.054-4.565l1.387 0.244v129.365c13.995 1.749 28.16 2.944 42.667 2.944s28.672-1.195 42.667-2.944zM384 764.203v-145.536h1.323c-16.852-12.637-31.353-27.138-43.591-43.435l-0.398-0.554v1.323h-145.536c34.688 85.333 102.827 153.515 188.203 188.203zM173.611 490.667h129.365c-2.73-12.795-4.293-27.496-4.293-42.562 0-15.141 1.579-29.913 4.581-44.161l-0.245 1.39h-129.408c-1.749 13.995-2.944 28.203-2.944 42.667s1.195 28.672 2.944 42.667zM195.797 320h145.536v1.323c12.117-16.256 26.496-30.635 42.667-42.88v-146.645c-85.784 35.597-152.605 102.418-187.365 185.933l-0.838 2.27zM469.333 109.611v129.365c12.827-2.747 27.563-4.321 42.667-4.321s29.84 1.573 44.054 4.565l-1.387-0.244v-129.365c-13.995-1.749-28.16-2.944-42.667-2.944s-28.672 1.195-42.667 2.944zM640 131.797v146.645c16.293 12.382 30.35 26.507 42.271 42.332l0.395 0.548v-1.323h145.536c-35.597-85.784-102.418-152.605-185.933-187.365l-2.27-0.838zM850.389 405.333h-129.365c2.73 12.795 4.293 27.496 4.293 42.562 0 15.141-1.579 29.913-4.581 44.161l0.245-1.39h129.365c1.792-13.995 2.987-28.203 2.987-42.667s-1.195-28.672-2.944-42.667z" />
<glyph unicode="&#xe93d;" glyph-name="bx-bus" d="M896 703.104c0.128 6.229-0.299 62.507-55.467 116.693-54.315 53.333-109.099 54.869-115.2 54.869h-426.837c-10.197 0-63.701-2.688-115.541-55.552-53.419-54.443-54.955-109.099-54.955-115.115v-128h-42.667v-128h42.667v-298.667c0-23.564 19.103-42.667 42.667-42.667v0h42.667v-42.667c0-23.564 19.103-42.667 42.667-42.667v0h85.333c23.564 0 42.667 19.103 42.667 42.667v0 42.667h256v-42.667c0-23.564 19.103-42.667 42.667-42.667v0h85.333c23.564 0 42.667 19.103 42.667 42.667v0 42.667h42.667c23.564 0 42.667 19.103 42.667 42.667v0 298.667h42.667v128h-42.667v127.104zM213.333 618.667h256v-170.667h-256v170.667zM554.667 618.667h256v-170.667h-256v170.667zM298.667 789.333h425.6c1.109-0.043 27.307-1.792 56.491-30.421 28.672-28.16 29.867-54.016 29.909-54.912h-597.248c0.512 4.907 4.267 28.672 30.464 55.381 28.117 28.672 53.973 29.909 54.784 29.952zM768 192h-554.667v170.667h597.333v-170.667h-42.667zM256 320h85.333v-85.333h-85.333zM682.667 320h85.333v-85.333h-85.333z" />
<glyph unicode="&#xe93e;" glyph-name="bx-calculator" d="M341.333 832h-85.333v-128h-128v-85.333h128v-128h85.333v128h128v85.333h-128zM876.16 325.163l-60.331 60.331-90.496-90.496-90.496 90.496-60.331-60.331 90.496-90.496-90.496-90.496 60.331-60.331 90.496 90.496 90.496-90.496 60.331 60.331-90.496 90.496zM170.667 192h256v-85.333h-256v85.333zM170.667 362.667h256v-85.333h-256v85.333zM597.333 704h256v-85.333h-256v85.333z" />
<glyph unicode="&#xe93f;" glyph-name="bx-calendar" d="M298.667 490.667h85.333v-85.333h-85.333zM298.667 320h85.333v-85.333h-85.333zM469.333 490.667h85.333v-85.333h-85.333zM469.333 320h85.333v-85.333h-85.333zM640 490.667h85.333v-85.333h-85.333zM640 320h85.333v-85.333h-85.333zM170.667 21.333h682.667c23.564 0 42.667 19.103 42.667 42.667v0 682.667c0 23.564-19.103 42.667-42.667 42.667v0h-128v85.333h-85.333v-85.333h-256v85.333h-85.333v-85.333h-128c-23.564 0-42.667-19.103-42.667-42.667v0-682.667c0-23.564 19.103-42.667 42.667-42.667v0zM810.667 618.667v-512h-597.333v512h597.333z" />
<glyph unicode="&#xe940;" glyph-name="bx-calendar-alt" d="M896 618.667v128c0 23.564-19.103 42.667-42.667 42.667v0h-128v85.333h-85.333v-85.333h-256v85.333h-85.333v-85.333h-128c-23.564 0-42.667-19.103-42.667-42.667v0-682.667c0-23.564 19.103-42.667 42.667-42.667v0h682.667c23.564 0 42.667 19.103 42.667 42.667v0 554.667zM213.333 106.667v512h597.333v-512h-597.333z" />
<glyph unicode="&#xe941;" glyph-name="bx-calendar-check" d="M853.333 789.333h-128v85.333h-85.333v-85.333h-256v85.333h-85.333v-85.333h-128c-23.564 0-42.667-19.103-42.667-42.667v0-682.667c0-23.564 19.103-42.667 42.667-42.667v0h682.667c23.564 0 42.667 19.103 42.667 42.667v0 682.667c0 23.564-19.103 42.667-42.667 42.667v0zM810.667 106.667h-597.333v512h597.333v-512zM439.168 247.168c7.706-7.749 18.376-12.545 30.165-12.545s22.459 4.796 30.163 12.544l192.002 192.002-60.331 60.331-161.835-161.835-55.168 55.168-60.331-60.331 85.333-85.333z" />
<glyph unicode="&#xe942;" glyph-name="bx-calendar-minus" d="M341.333 405.333h341.333v-85.333h-341.333zM853.333 789.333h-128v85.333h-85.333v-85.333h-256v85.333h-85.333v-85.333h-128c-23.564 0-42.667-19.103-42.667-42.667v0-682.667c0-23.564 19.103-42.667 42.667-42.667v0h682.667c23.564 0 42.667 19.103 42.667 42.667v0 682.667c0 23.564-19.103 42.667-42.667 42.667v0zM810.667 106.667h-597.333v512h597.333v-512z" />
<glyph unicode="&#xe943;" glyph-name="bx-calendar-plus" d="M341.333 320h128v-128h85.333v128h128v85.333h-128v128h-85.333v-128h-128zM853.333 789.333h-128v85.333h-85.333v-85.333h-256v85.333h-85.333v-85.333h-128c-23.564 0-42.667-19.103-42.667-42.667v0-682.667c0-23.564 19.103-42.667 42.667-42.667v0h682.667c23.564 0 42.667 19.103 42.667 42.667v0 682.667c0 23.564-19.103 42.667-42.667 42.667v0zM810.667 106.667h-597.333v512h597.333v-512z" />
<glyph unicode="&#xe944;" glyph-name="bx-calendar-x" d="M353.835 264.832l60.331-60.331 97.835 97.835 97.835-97.835 60.331 60.331-97.835 97.835 97.835 97.835-60.331 60.331-97.835-97.835-97.835 97.835-60.331-60.331 97.835-97.835zM853.333 789.333h-128v85.333h-85.333v-85.333h-256v85.333h-85.333v-85.333h-128c-23.564 0-42.667-19.103-42.667-42.667v0-682.667c0-23.564 19.103-42.667 42.667-42.667v0h682.667c23.564 0 42.667 19.103 42.667 42.667v0 682.667c0 23.564-19.103 42.667-42.667 42.667v0zM810.667 106.667h-597.333v512h597.333v-512z" />
<glyph unicode="&#xe945;" glyph-name="bx-camera" d="M512 618.667c-92.501 0-170.667-78.165-170.667-170.667s78.165-170.667 170.667-170.667 170.667 78.165 170.667 170.667-78.165 170.667-170.667 170.667zM512 362.667c-45.44 0-85.333 39.893-85.333 85.333s39.893 85.333 85.333 85.333 85.333-39.893 85.333-85.333-39.893-85.333-85.333-85.333zM896 746.667h-153.003l-115.499 115.499c-7.696 7.723-18.342 12.501-30.104 12.501-0.022 0-0.043 0-0.065 0h-170.664c-0.018 0-0.040 0-0.062 0-11.762 0-22.408-4.779-30.102-12.5l-115.5-115.5h-153.003c-23.564 0-42.667-19.103-42.667-42.667v0-554.667c0-23.564 19.103-42.667 42.667-42.667v0h768c23.564 0 42.667 19.103 42.667 42.667v0 554.667c0 23.564-19.103 42.667-42.667 42.667v0zM853.333 192h-682.667v469.333h128c11.349 0 22.187 4.48 30.165 12.501l115.499 115.499h135.339l115.499-115.499c7.696-7.723 18.342-12.501 30.104-12.501 0.022 0 0.043 0 0.065 0h127.997v-469.333z" />
<glyph unicode="&#xe946;" glyph-name="bx-camera-alt" d="M896 789.333h-85.333v42.667h-128v-42.667h-298.667v85.333h-170.667v-85.333h-85.333c-23.564 0-42.667-19.103-42.667-42.667v0-597.333c0-23.564 19.103-42.667 42.667-42.667v0h768c23.564 0 42.667 19.103 42.667 42.667v0 597.333c0 23.564-19.103 42.667-42.667 42.667v0zM170.667 704h682.667v-170.667h-195.115c-30.080 50.389-84.693 85.333-146.219 85.333s-116.139-34.944-146.219-85.333h-195.115v170.667zM512 533.333c45.44 0 85.333-39.893 85.333-85.333s-39.893-85.333-85.333-85.333-85.333 39.893-85.333 85.333 39.893 85.333 85.333 85.333zM170.667 192v256h170.667c0-92.501 78.165-170.667 170.667-170.667s170.667 78.165 170.667 170.667h170.667v-256h-682.667zM810.667 576v85.333h-85.333l0.427-85.333z" />
<glyph unicode="&#xe947;" glyph-name="bx-camera-off" d="M341.931 442.24c3.157-87.979 76.331-161.152 164.309-164.309l-164.309 164.309zM896 746.667h-153.003l-115.499 115.499c-7.696 7.723-18.342 12.501-30.104 12.501-0.022 0-0.043 0-0.065 0h-170.664c-0.013 0-0.028 0-0.044 0-11.768 0-22.419-4.778-30.12-12.5l-115.5-115.5h-7.339l-115.499 115.499-60.331-60.331 768-768 60.331 60.331-15.445 15.445c16.403 6.062 27.896 21.544 27.947 39.716v554.673c0 23.564-19.103 42.667-42.667 42.667v0zM593.877 426.453l-103.424 103.467c6.955 1.963 14.123 3.413 21.547 3.413 45.44 0 85.333-39.893 85.333-85.333 0-7.424-1.408-14.592-3.456-21.547zM657.963 362.411c15.262 24.342 24.421 53.867 24.703 85.513l0.001 0.077c0 92.501-78.165 170.667-170.667 170.667-31.104 0-60.245-9.387-85.632-24.704l-88.704 88.704 106.667 106.667h135.339l115.499-115.499c7.696-7.723 18.342-12.501 30.104-12.501 0.022 0 0.043 0 0.065 0h127.997v-469.333h-25.003l-170.368 170.411zM128 106.667h549.504l-85.333 85.333h-421.504v421.504l-85.333 85.333v-549.504c0-23.564 19.103-42.667 42.667-42.667v0z" />
<glyph unicode="&#xe948;" glyph-name="bx-capsule" d="M512.597 144.981l304.384 304.341c38.523 38.643 62.341 91.964 62.341 150.848 0 58.905-23.836 112.243-62.389 150.895l0.005-0.005c-38.398 38.561-91.532 62.422-150.239 62.422-0.222 0-0.443 0-0.664-0.001h0.034c-56.96 0-110.507-22.187-150.784-62.464l-304.384-304.341c-38.528-38.657-62.349-91.992-62.349-150.891 0-58.878 23.804-112.195 62.313-150.855l-0.007 0.007c38.412-38.561 91.557-62.422 150.275-62.422 0.224 0 0.448 0 0.672 0.001h-0.035c0.157 0 0.342-0.001 0.527-0.001 58.734 0 111.89 23.878 150.291 62.457l0.008 0.008zM575.573 690.688c23.024 23.141 54.894 37.462 90.109 37.462 0.121 0 0.242 0 0.363-0.001h-0.019c34.219 0 66.389-13.312 90.539-37.461 23.14-23.185 37.449-55.191 37.449-90.539 0-35.327-14.292-67.315-37.409-90.499l-123.432-123.389-180.992 181.077 123.392 123.349z" />
<glyph unicode="&#xe949;" glyph-name="bx-captions" d="M896 789.333h-768c-23.564 0-42.667-19.103-42.667-42.667v0-597.333c0-23.564 19.103-42.667 42.667-42.667v0h768c23.564 0 42.667 19.103 42.667 42.667v0 597.333c0 23.564-19.103 42.667-42.667 42.667v0zM853.333 192h-682.667v512h682.667v-512zM298.667 277.333h170.667v85.333h-128v170.667h128v85.333h-170.667c-23.564 0-42.667-19.103-42.667-42.667v0-256c0-23.564 19.103-42.667 42.667-42.667v0zM597.333 277.333h170.667v85.333h-128v170.667h128v85.333h-170.667c-23.564 0-42.667-19.103-42.667-42.667v0-256c0-23.564 19.103-42.667 42.667-42.667v0z" />
<glyph unicode="&#xe94a;" glyph-name="bx-car" d="M896 533.333h-11.904l-75.605 226.816c-5.803 17.451-22.101 29.184-40.491 29.184h-512c-18.389 0-34.645-11.733-40.448-29.184l-75.648-226.816h-11.904c-23.595 0-42.667-19.072-42.667-42.667v-256c0-23.595 19.072-42.667 42.667-42.667v-85.333c0-23.595 19.072-42.667 42.667-42.667h42.667c23.595 0 42.667 19.072 42.667 42.667v85.333h512v-85.333c0-23.595 19.072-42.667 42.667-42.667h42.667c23.595 0 42.667 19.072 42.667 42.667v85.333c23.595 0 42.667 19.072 42.667 42.667v256c0 23.595-19.072 42.667-42.667 42.667zM213.333 277.333h-42.667v170.667h682.667v-170.667h-640zM286.763 704h450.517l56.917-170.667h-564.352l56.917 170.667zM213.333 405.333h85.333v-85.333h-85.333v85.333zM725.333 405.333h85.333v-85.333h-85.333v85.333z" />
<glyph unicode="&#xe94b;" glyph-name="bx-card" d="M810.624 832h-597.333c-23.595 0-42.667-19.115-42.667-42.667v-512c0-23.595 19.072-42.667 42.667-42.667h597.333c23.595 0 42.667 19.072 42.667 42.667v512c0 23.552-19.072 42.667-42.667 42.667zM767.957 320h-512v426.667h512v-426.667zM170.624 149.333h682.667v-85.333h-682.667v85.333z" />
<glyph unicode="&#xe94c;" glyph-name="bx-carousel" d="M896 746.667h-128v42.667c0 23.564-19.103 42.667-42.667 42.667v0h-426.667c-23.564 0-42.667-19.103-42.667-42.667v0-42.667h-128c-23.564 0-42.667-19.103-42.667-42.667v0-512c0-23.564 19.103-42.667 42.667-42.667v0h128v-42.667c0-23.564 19.103-42.667 42.667-42.667v0h426.667c23.564 0 42.667 19.103 42.667 42.667v0 42.667h128c23.564 0 42.667 19.103 42.667 42.667v0 512c0 23.564-19.103 42.667-42.667 42.667v0zM170.667 234.667v426.667h85.333v-426.667h-85.333zM682.667 149.333h-341.333v597.333h341.333v-597.333zM853.333 234.667h-85.333v426.667h85.333v-426.667z" />
<glyph unicode="&#xe94d;" glyph-name="bx-cart" d="M344.661 260.907c6.606-15.541 21.742-26.24 39.378-26.24 0.001 0 0.002 0 0.004 0h383.957c17.792 0 33.707 11.051 39.979 27.648l128 341.333c1.693 4.425 2.674 9.543 2.674 14.891 0 23.585-19.079 42.714-42.645 42.794h-625.8l-60.16 144.427c-6.606 15.541-21.742 26.24-39.378 26.24-0.001 0-0.002 0-0.004 0h-85.333v-85.333h56.875l202.453-485.76zM834.432 576l-96-256h-325.973l-106.667 256h528.64zM512 85.333c0-35.346-28.654-64-64-64s-64 28.654-64 64c0 35.346 28.654 64 64 64s64-28.654 64-64zM765.355 85.333c0-35.346-28.654-64-64-64s-64 28.654-64 64c0 35.346 28.654 64 64 64s64-28.654 64-64z" />
<glyph unicode="&#xe94e;" glyph-name="bx-cart-alt" d="M183.467 704l160.469-441.259c6.109-16.515 21.722-28.075 40.034-28.075 0.011 0 0.021 0 0.032 0h383.998v85.333h-354.133l-31.061 85.333h427.861c19.029 0 35.797 12.629 41.045 30.976l85.333 298.667c1.033 3.505 1.628 7.531 1.628 11.696 0 9.701-3.225 18.648-8.66 25.83l0.078-0.107c-7.902 10.324-20.224 16.921-34.088 16.939h-810.67v-85.333h98.133zM778.496 490.667h-426.667l-77.568 213.333h565.163l-60.928-213.333zM512 85.333c0-35.346-28.654-64-64-64s-64 28.654-64 64c0 35.346 28.654 64 64 64s64-28.654 64-64zM768 85.333c0-35.346-28.654-64-64-64s-64 28.654-64 64c0 35.346 28.654 64 64 64s64-28.654 64-64z" />
<glyph unicode="&#xe94f;" glyph-name="bx-cast" d="M85.333 533.333v-85.333c211.712 0 384-172.288 384-384.043h85.333c0 258.816-210.56 469.376-469.333 469.376zM298.667 63.957h85.333c0 164.693-133.973 298.709-298.667 298.709v-85.333c117.632 0 213.333-95.701 213.333-213.376zM213.333 128c0-35.346-28.654-64-64-64s-64 28.654-64 64c0 35.346 28.654 64 64 64s64-28.654 64-64zM896 789.333h-768c-23.564 0-42.667-19.103-42.667-42.667v0-128h85.333v85.333h682.667v-554.667h-213.333v-85.333h256c23.564 0 42.667 19.103 42.667 42.667v0 640c0 23.564-19.103 42.667-42.667 42.667v0z" />
<glyph unicode="&#xe950;" glyph-name="bx-certification" d="M87.765 333.781c3.016-11.138 10.156-20.252 19.639-25.79l0.201-0.108 81.493-47.104v-93.824c0-23.564 19.103-42.667 42.667-42.667v0h93.824l47.104-81.493c7.558-12.801 21.257-21.268 36.94-21.333h0.009c0.012 0 0.026 0 0.041 0 7.856 0 15.215 2.123 21.537 5.826l-0.201-0.109 81.408 47.104 81.493-47.104c6.117-3.584 13.47-5.7 21.317-5.7 15.71 0 29.438 8.482 36.856 21.116l0.109 0.201 47.061 81.451h93.824c23.564 0 42.667 19.103 42.667 42.667v0 93.824l81.493 47.104c12.825 7.519 21.3 21.235 21.3 36.931 0 7.862-2.126 15.227-5.836 21.552l0.109-0.201-47.061 81.451 47.104 81.408c3.6 6.124 5.727 13.489 5.727 21.351 0 15.696-8.475 29.412-21.099 36.822l-0.201 0.109-81.493 47.104v93.867c0 23.564-19.103 42.667-42.667 42.667v0h-93.824l-47.061 81.451c-5.675 9.67-14.775 16.811-25.598 19.811l-0.301 0.071c-3.324 0.937-7.142 1.476-11.085 1.476-7.846 0-15.194-2.133-21.496-5.85l0.198 0.108-81.536-47.061-81.451 47.104c-6.129 3.62-13.506 5.758-21.383 5.758-15.695 0-29.406-8.491-36.791-21.13l-0.109-0.202-47.104-81.493h-93.824c-23.564 0-42.667-19.103-42.667-42.667v0-93.824l-81.493-47.104c-12.804-7.555-21.258-21.281-21.258-36.981 0-7.874 2.127-15.252 5.837-21.59l-0.109 0.202 47.104-81.408-47.104-81.451c-3.629-6.105-5.773-13.461-5.773-21.317 0-3.922 0.534-7.718 1.534-11.321l-0.070 0.297zM225.323 468.949l-38.059 65.835 65.877 38.101c12.819 7.52 21.291 21.234 21.291 36.926 0 0.008 0 0.017 0 0.025v-0.001 75.733h75.776c15.232 0 29.355 8.107 36.949 21.333l38.059 65.835 65.877-38.059c6.118-3.602 13.477-5.729 21.333-5.729s15.216 2.128 21.533 5.838l-0.2-0.109 65.92 38.059 38.016-65.835c7.514-12.843 21.24-21.333 36.949-21.333h75.776v-75.776c0-0.007 0-0.015 0-0.024 0-15.692 8.471-29.406 21.090-36.817l0.201-0.109 65.877-38.101-38.101-65.835c-3.601-6.125-5.729-13.491-5.729-21.355s2.127-15.23 5.838-21.556l-0.109 0.201 38.101-65.835-65.877-38.101c-12.819-7.52-21.291-21.234-21.291-36.926 0-0.008 0-0.017 0-0.025v0.001-75.776h-75.776c-0.014 0-0.031 0-0.048 0-15.695 0-29.407-8.492-36.792-21.132l-0.109-0.202-38.016-65.835-65.92 38.101c-6.125 3.601-13.491 5.729-21.355 5.729s-15.23-2.127-21.556-5.838l0.201 0.109-65.835-38.101-38.059 65.835c-7.527 12.831-21.245 21.314-36.947 21.333h-75.779v75.776c0 0.007 0 0.015 0 0.024 0 15.692-8.471 29.406-21.090 36.817l-0.201 0.109-65.877 38.101 38.101 65.835c3.596 6.121 5.72 13.482 5.72 21.339 0 7.887-2.14 15.274-5.871 21.613l0.109-0.2z" />
<glyph unicode="&#xe951;" glyph-name="bx-chalkboard" d="M554.667 789.333v85.333h-85.333v-85.333h-384v-85.333h85.333v-469.333c0-23.564 19.103-42.667 42.667-42.667v0h153.003l-97.835-97.835 60.331-60.331 158.165 158.165h50.005l158.165-158.165 60.331 60.331-97.835 97.835h153.003c23.564 0 42.667 19.103 42.667 42.667v0 469.333h85.333v85.333h-384zM768 277.333h-512v426.667h512v-426.667z" />
<glyph unicode="&#xe952;" glyph-name="bx-chart" d="M896 106.667v682.667c0 23.564-19.103 42.667-42.667 42.667v0h-682.667c-23.564 0-42.667-19.103-42.667-42.667v0-682.667c0-23.564 19.103-42.667 42.667-42.667v0h682.667c23.564 0 42.667 19.103 42.667 42.667v0zM810.667 149.333h-597.333v597.333h597.333v-597.333zM442.923 434.816l135.339-67.669c5.561-2.843 12.131-4.509 19.089-4.509 15.46 0 29 8.223 36.484 20.533l0.107 0.189 128 213.333-73.173 43.904-107.648-179.456-135.339 67.669c-5.554 2.826-12.112 4.482-19.057 4.482-15.463 0-29.009-8.209-36.516-20.508l-0.107-0.188-128-213.333 73.173-43.904 107.648 179.456z" />
<glyph unicode="&#xe953;" glyph-name="bx-check" d="M414.165 204.501l426.667 426.667-60.331 60.331-396.501-396.501-183.168 183.168-60.331-60.331 213.333-213.333c7.706-7.749 18.376-12.545 30.165-12.545s22.459 4.796 30.163 12.544l0.002 0.002z" />
<glyph unicode="&#xe954;" glyph-name="bx-checkbox" d="M256 746.667c-23.564 0-42.667-19.103-42.667-42.667v0-512c0-23.564 19.103-42.667 42.667-42.667v0h512c23.564 0 42.667 19.103 42.667 42.667v0 512c0 23.564-19.103 42.667-42.667 42.667v0h-512zM725.333 234.667h-426.667v426.667h426.667v-426.667z" />
<glyph unicode="&#xe955;" glyph-name="bx-checkbox-checked" d="M256 746.667c-23.564 0-42.667-19.103-42.667-42.667v0-512c0-23.564 19.103-42.667 42.667-42.667v0h512c23.564 0 42.667 19.103 42.667 42.667v0 512c0 23.564-19.103 42.667-42.667 42.667v0h-512zM725.333 234.667h-426.667v426.667h426.667v-426.667zM469.333 320c0.013 0 0.028 0 0.044 0 11.768 0 22.419 4.778 30.12 12.5l192.001 192.001-60.331 60.331-161.835-161.835-55.168 55.168-60.331-60.331 85.333-85.333c7.702-7.723 18.354-12.501 30.121-12.501 0.015 0 0.031 0 0.046 0h-0.002z" />
<glyph unicode="&#xe956;" glyph-name="bx-checkbox-square" d="M810.667 192v512c0 23.564-19.103 42.667-42.667 42.667v0h-512c-23.564 0-42.667-19.103-42.667-42.667v0-512c0-23.564 19.103-42.667 42.667-42.667v0h512c23.564 0 42.667 19.103 42.667 42.667v0zM725.333 234.667h-426.667v426.667h426.667v-426.667zM384 576h256v-256h-256z" />
<glyph unicode="&#xe957;" glyph-name="bx-check-circle" d="M512 874.667c-235.264 0-426.667-191.403-426.667-426.667s191.403-426.667 426.667-426.667 426.667 191.403 426.667 426.667-191.403 426.667-426.667 426.667zM512 106.667c-188.203 0-341.333 153.131-341.333 341.333s153.131 341.333 341.333 341.333 341.333-153.131 341.333-341.333-153.131-341.333-341.333-341.333zM426.624 380.288l-98.091 97.92-60.245-60.416 128.256-128c7.707-7.714 18.358-12.485 30.123-12.485 11.786 0 22.454 4.789 30.164 12.526l277.334 277.334-60.331 60.331-247.211-247.211z" />
<glyph unicode="&#xe958;" glyph-name="bx-check-double" d="M272.811 243.413c7.088-5.478 16.1-8.781 25.884-8.781 12.789 0 24.26 5.644 32.058 14.576l0.043 0.050 298.667 341.333-64.256 56.149-272.384-311.296-138.965 106.027-51.755-67.84 170.709-130.219zM500.821 297.301l70.613-53.888c7.093-5.49 16.114-8.801 25.909-8.801 12.798 0 24.276 5.652 32.074 14.595l0.043 0.051 298.667 341.333-64.256 56.149-272.384-311.296-34.347 26.197-56.32-64.341z" />
<glyph unicode="&#xe959;" glyph-name="bx-chevron-down" d="M695.168 563.499l-183.168-183.168-183.168 183.168-60.331-60.331 243.499-243.499 243.499 243.499z" />
<glyph unicode="&#xe95a;" glyph-name="bx-chevron-left" d="M567.168 691.499l-243.499-243.499 243.499-243.499 60.331 60.331-183.168 183.168 183.168 183.168z" />
<glyph unicode="&#xe95b;" glyph-name="bx-chevron-right" d="M456.832 204.501l243.499 243.499-243.499 243.499-60.331-60.331 183.168-183.168-183.168-183.168z" />
<glyph unicode="&#xe95c;" glyph-name="bx-chevrons-down" d="M328.832 478.165l-60.331-60.331 243.499-243.499 243.499 243.499-60.331 60.331-183.168-183.168zM695.168 691.499l-183.168-183.168-183.168 183.168-60.331-60.331 243.499-243.499 243.499 243.499z" />
<glyph unicode="&#xe95d;" glyph-name="bx-chevrons-left" d="M542.165 631.168l-60.331 60.331-243.499-243.499 243.499-243.499 60.331 60.331-183.168 183.168zM695.168 691.499l-243.499-243.499 243.499-243.499 60.331 60.331-183.168 183.168 183.168 183.168z" />
<glyph unicode="&#xe95e;" glyph-name="bx-chevrons-right" d="M439.296 631.040l184.533-183.040-184.533-183.040 60.075-60.587 245.632 243.627-245.632 243.627zM286.037 204.373l245.632 243.627-245.632 243.627-60.075-60.587 184.533-183.040-184.533-183.040z" />
<glyph unicode="&#xe95f;" glyph-name="bx-chevrons-up" d="M512 721.664l-243.499-243.499 60.331-60.331 183.168 183.168 183.168-183.168 60.331 60.331zM268.501 264.832l60.331-60.331 183.168 183.168 183.168-183.168 60.331 60.331-243.499 243.499z" />
<glyph unicode="&#xe960;" glyph-name="bx-chevron-up" d="M512 515.669l183.168-183.168 60.331 60.331-243.499 243.499-243.499-243.499 60.331-60.331z" />
<glyph unicode="&#xe961;" glyph-name="bx-chip" d="M384 576h256v-256h-256v256zM938.667 576v85.333h-85.333v85.333c0 23.595-19.072 42.667-42.667 42.667h-85.333v85.333h-85.333v-85.333h-85.333v85.333h-85.333v-85.333h-85.333v85.333h-85.333v-85.333h-85.333c-23.595 0-42.667-19.072-42.667-42.667v-85.333h-85.333v-85.333h85.333v-85.333h-85.333v-85.333h85.333v-85.333h-85.333v-85.333h85.333v-85.333c0-23.595 19.072-42.667 42.667-42.667h85.333v-85.333h85.333v85.333h85.333v-85.333h85.333v85.333h85.333v-85.333h85.333v85.333h85.333c23.595 0 42.667 19.072 42.667 42.667v85.333h85.333v85.333h-85.333v85.333h85.333v85.333h-85.333v85.333h85.333zM768 192h-512v512h512v-512z" />
<glyph unicode="&#xe962;" glyph-name="bx-circle" d="M512 874.667c-235.264 0-426.667-191.403-426.667-426.667 0.043-235.307 191.445-426.709 426.667-426.709 235.264 0 426.667 191.403 426.709 426.709 0 235.264-191.403 426.667-426.709 426.667zM512 106.624c-188.16 0-341.291 153.131-341.333 341.376 0 188.203 153.131 341.333 341.333 341.333 188.245 0 341.376-153.131 341.376-341.333-0.043-188.245-153.173-341.376-341.376-341.376z" />
<glyph unicode="&#xe963;" glyph-name="bx-clipboard" d="M810.667 832h-128c0 23.564-19.103 42.667-42.667 42.667v0h-256c-23.564 0-42.667-19.103-42.667-42.667v0h-128c-23.564 0-42.667-19.103-42.667-42.667v0-725.333c0-23.564 19.103-42.667 42.667-42.667v0h597.333c23.564 0 42.667 19.103 42.667 42.667v0 725.333c0 23.564-19.103 42.667-42.667 42.667v0zM768 106.667h-512v640h85.333v-42.667c0-23.564 19.103-42.667 42.667-42.667v0h256c23.564 0 42.667 19.103 42.667 42.667v0 42.667h85.333v-640z" />
<glyph unicode="&#xe964;" glyph-name="bx-closet" d="M554.667 509.824v28.928c74.154 19.692 127.922 86.18 128 165.239v0.009c0 94.123-76.544 170.667-170.667 170.667s-170.667-76.544-170.667-170.667h85.333c0 47.061 38.272 85.333 85.333 85.333s85.333-38.272 85.333-85.333-38.272-85.333-85.333-85.333c-23.564 0-42.667-19.103-42.667-42.667v0-66.176l-369.707-328.619c-8.752-7.854-14.232-19.202-14.232-31.829 0-23.551 19.062-42.65 42.599-42.709h768.006c23.545 0.056 42.61 19.156 42.61 42.709 0 12.65-5.5 24.016-14.239 31.836l-0.041 0.036-369.664 328.576zM240.213 192l271.787 241.579 271.787-241.579h-543.573z" />
<glyph unicode="&#xe965;" glyph-name="bx-cloud" d="M808.277 485.888c-18.645 146.859-144.384 260.779-296.277 260.779-117.589 0-219.733-68.736-266.368-177.067-91.648-27.392-160.299-113.92-160.299-206.933 0-117.632 95.701-213.333 213.333-213.333h469.333c94.123 0 170.667 76.544 170.667 170.667-0.141 79.922-55.060 146.978-129.209 165.636l-1.181 0.252zM768 234.667h-469.333c-70.571 0-128 57.429-128 128 0 59.904 51.157 117.589 114.048 128.64l24.789 4.352 8.192 23.808c29.995 87.509 104.491 141.867 194.304 141.867 117.632 0 213.333-95.701 213.333-213.333v-42.667h42.667c47.061 0 85.333-38.272 85.333-85.333s-38.272-85.333-85.333-85.333z" />
<glyph unicode="&#xe966;" glyph-name="bx-cloud-download" d="M298.667 149.333h42.667v85.333h-42.667c-70.571 0-128 57.429-128 128 0 59.904 51.157 117.632 114.048 128.683l24.789 4.352 8.192 23.808c29.995 87.509 104.491 141.824 194.304 141.824 117.632 0 213.333-95.701 213.333-213.333v-42.667h42.667c47.061 0 85.333-38.272 85.333-85.333s-38.272-85.333-85.333-85.333h-85.333v-85.333h85.333c94.123 0 170.667 76.544 170.667 170.667-0.109 79.933-55.043 147.006-129.21 165.637l-1.18 0.251c-18.645 146.859-144.384 260.779-296.277 260.779-117.589 0-219.733-68.693-266.368-177.024-91.648-27.435-160.299-113.963-160.299-206.976 0-117.632 95.701-213.333 213.333-213.333zM469.333 490.667v-170.667h-128l170.667-170.667 170.667 170.667h-128v170.667z" />
<glyph unicode="&#xe967;" glyph-name="bx-cloud-drizzle" d="M341.333 405.333h85.333v-128h-85.333zM341.333 234.667h85.333v-128h-85.333zM469.333 320h85.333v-128h-85.333zM469.333 149.333h85.333v-128h-85.333zM597.333 405.333h85.333v-128h-85.333zM597.333 234.667h85.333v-128h-85.333zM808.277 528.555c-18.645 146.859-144.384 260.779-296.277 260.779-117.547 0-219.733-68.736-266.368-177.067-91.648-27.392-160.299-113.877-160.299-206.933 0-117.632 95.701-213.333 213.333-213.333v85.333c-70.571 0-128 57.429-128 128 0 59.861 51.157 117.589 114.048 128.64l24.832 4.395 8.149 23.851c29.995 87.467 104.491 141.781 194.304 141.781 117.632 0 213.333-95.701 213.333-213.333v-42.667h42.667c47.061 0 85.333-38.272 85.333-85.333s-38.272-85.333-85.333-85.333h-42.667v-85.333h42.667c94.123 0 170.667 76.544 170.667 170.667-0.109 79.933-55.043 147.006-129.21 165.637l-1.18 0.251z" />
<glyph unicode="&#xe968;" glyph-name="bx-cloud-lightning" d="M426.667 405.333l-42.667-213.333h85.333v-170.667l169.6 256h-84.267l42.667 128zM808.277 528.555c-18.645 146.859-144.384 260.779-296.277 260.779-117.589 0-219.733-68.736-266.368-177.067-91.648-27.392-160.299-113.877-160.299-206.933 0-117.632 95.701-213.333 213.333-213.333v85.333c-70.571 0-128 57.429-128 128 0 59.861 51.157 117.589 114.048 128.64l24.789 4.395 8.192 23.851c29.995 87.467 104.491 141.781 194.304 141.781 117.632 0 213.333-95.701 213.333-213.333v-42.667h42.667c47.061 0 85.333-38.272 85.333-85.333s-38.272-85.333-85.333-85.333h-42.667v-85.333h42.667c94.123 0 170.667 76.544 170.667 170.667-0.109 79.933-55.043 147.006-129.21 165.637l-1.18 0.251z" />
<glyph unicode="&#xe969;" glyph-name="bx-cloud-light-rain" d="M341.333 405.333h85.333v-170.667h-85.333zM341.333 192h85.333v-85.333h-85.333zM469.333 320h85.333v-170.667h-85.333zM469.333 106.667h85.333v-85.333h-85.333zM597.333 405.333h85.333v-170.667h-85.333zM597.333 192h85.333v-85.333h-85.333zM808.277 528.555c-18.645 146.859-144.384 260.779-296.277 260.779-117.589 0-219.733-68.736-266.368-177.067-91.648-27.392-160.299-113.877-160.299-206.933 0-117.632 95.701-213.333 213.333-213.333v85.333c-70.571 0-128 57.429-128 128 0 59.861 51.157 117.589 114.048 128.64l24.789 4.395 8.192 23.851c29.995 87.467 104.491 141.781 194.304 141.781 117.632 0 213.333-95.701 213.333-213.333v-42.667h42.667c47.061 0 85.333-38.272 85.333-85.333s-38.272-85.333-85.333-85.333h-42.667v-85.333h42.667c94.123 0 170.667 76.544 170.667 170.667-0.109 79.933-55.043 147.006-129.21 165.637l-1.18 0.251z" />
<glyph unicode="&#xe96a;" glyph-name="bx-cloud-rain" d="M341.333 405.333h85.333v-298.667h-85.333zM469.333 320h85.333v-298.667h-85.333zM597.333 405.333h85.333v-298.667h-85.333zM808.277 528.512c-18.645 146.859-144.384 260.779-296.277 260.779-117.589 0-219.733-68.736-266.368-177.067-91.648-27.392-160.299-113.877-160.299-206.933 0-117.632 95.701-213.333 213.333-213.333v85.333c-70.571 0-128 57.429-128 128 0 59.861 51.157 117.589 114.048 128.64l24.789 4.395 8.192 23.851c29.995 87.467 104.491 141.781 194.304 141.781 117.632 0 213.333-95.701 213.333-213.333v-42.667h42.667c47.061 0 85.333-38.272 85.333-85.333s-38.272-85.333-85.333-85.333h-42.667v-85.333h42.667c94.123 0 170.667 76.544 170.667 170.667-0.109 79.933-55.043 147.006-129.21 165.637l-1.18 0.251z" />
<glyph unicode="&#xe96b;" glyph-name="bx-cloud-snow" d="M808.277 528.555c-18.645 146.859-144.384 260.779-296.277 260.779-117.589 0-219.733-68.736-266.368-177.067-91.648-27.392-160.299-113.877-160.299-206.933 0-117.632 95.701-213.333 213.333-213.333v85.333c-70.571 0-128 57.429-128 128 0 59.861 51.157 117.589 114.048 128.64l24.789 4.395 8.192 23.851c29.995 87.467 104.491 141.781 194.304 141.781 117.632 0 213.333-95.701 213.333-213.333v-42.667h42.667c47.061 0 85.333-38.272 85.333-85.333s-38.272-85.333-85.333-85.333h-42.667v-85.333h42.667c94.123 0 170.667 76.544 170.667 170.667-0.109 79.933-55.043 147.006-129.21 165.637l-1.18 0.251zM682.667 277.333c0-23.564-19.103-42.667-42.667-42.667s-42.667 19.103-42.667 42.667c0 23.564 19.103 42.667 42.667 42.667s42.667-19.103 42.667-42.667zM682.667 149.333c0-23.564-19.103-42.667-42.667-42.667s-42.667 19.103-42.667 42.667c0 23.564 19.103 42.667 42.667 42.667s42.667-19.103 42.667-42.667zM554.667 192c0-23.564-19.103-42.667-42.667-42.667s-42.667 19.103-42.667 42.667c0 23.564 19.103 42.667 42.667 42.667s42.667-19.103 42.667-42.667zM554.667 64c0-23.564-19.103-42.667-42.667-42.667s-42.667 19.103-42.667 42.667c0 23.564 19.103 42.667 42.667 42.667s42.667-19.103 42.667-42.667zM426.667 149.333c0-23.564-19.103-42.667-42.667-42.667s-42.667 19.103-42.667 42.667c0 23.564 19.103 42.667 42.667 42.667s42.667-19.103 42.667-42.667zM426.667 277.333c0-23.564-19.103-42.667-42.667-42.667s-42.667 19.103-42.667 42.667c0 23.564 19.103 42.667 42.667 42.667s42.667-19.103 42.667-42.667z" />
<glyph unicode="&#xe96c;" glyph-name="bx-cloud-upload" d="M554.667 149.333v170.667h128l-170.667 170.667-170.667-170.667h128v-170.667zM298.667 149.333h85.333v85.333h-85.333c-70.571 0-128 57.429-128 128 0 59.904 51.157 117.589 114.048 128.64l24.789 4.352 8.192 23.808c29.995 87.509 104.491 141.867 194.304 141.867 117.632 0 213.333-95.701 213.333-213.333v-42.667h42.667c47.061 0 85.333-38.272 85.333-85.333s-38.272-85.333-85.333-85.333h-128v-85.333h128c94.123 0 170.667 76.544 170.667 170.667-0.141 79.922-55.060 146.978-129.209 165.636l-1.181 0.252c-18.645 146.859-144.384 260.779-296.277 260.779-117.589 0-219.733-68.736-266.368-177.067-91.648-27.392-160.299-113.92-160.299-206.933 0-117.632 95.701-213.333 213.333-213.333z" />
<glyph unicode="&#xe96d;" glyph-name="bx-code" d="M353.835 691.499l-213.333-213.333c-7.729-7.716-12.51-18.382-12.51-30.165s4.781-22.449 12.509-30.165l213.334-213.334 60.331 60.331-183.168 183.168 183.168 183.168-60.331 60.331zM670.165 691.499l-60.331-60.331 183.168-183.168-183.168-183.168 60.331-60.331 213.333 213.333c7.729 7.716 12.51 18.382 12.51 30.165s-4.781 22.449-12.509 30.165l-213.334 213.334z" />
<glyph unicode="&#xe96e;" glyph-name="bx-code-block" d="M896 789.333h-768c-23.564 0-42.667-19.103-42.667-42.667v0-597.333c0-23.564 19.103-42.667 42.667-42.667v0h768c23.564 0 42.667 19.103 42.667 42.667v0 597.333c0 23.564-19.103 42.667-42.667 42.667v0zM170.667 192v426.667h682.667v-426.667h-682.667zM396.501 563.499l-128-128c-7.729-7.716-12.51-18.382-12.51-30.165s4.781-22.449 12.509-30.165l128.001-128.001 60.331 60.331-97.835 97.835 97.835 97.835-60.331 60.331zM627.499 563.499l-60.331-60.331 97.835-97.835-97.835-97.835 60.331-60.331 128 128c7.729 7.716 12.51 18.382 12.51 30.165s-4.781 22.449-12.509 30.165l-128.001 128.001z" />
<glyph unicode="&#xe96f;" glyph-name="bx-code-curly" d="M810.667 618.667c0 202.069-139.477 255.829-213.248 256l-0.555-85.333c13.141-0.256 128.469-7.381 128.469-170.667 0-85.035 35.456-138.496 80.085-170.667-44.629-32.171-80.085-85.632-80.085-170.667 0-163.285-115.328-170.411-128.469-170.667l0.469-42.667 0.085-42.667c73.771 0.171 213.248 53.931 213.248 256 0 120.448 106.837 127.744 128 128l0.256 85.333c-21.419 0.256-128.256 7.552-128.256 128zM213.333 277.333c0-202.069 139.477-255.829 213.248-256l0.555 85.333c-13.141 0.256-128.469 7.381-128.469 170.667 0 85.035-35.456 138.496-80.085 170.667 44.629 32.171 80.085 85.632 80.085 170.667 0 163.285 115.328 170.411 128.469 170.667l-0.469 42.667-0.085 42.667c-73.771-0.171-213.248-53.931-213.248-256 0-120.448-106.837-127.744-128-128l-0.256-85.333c21.419-0.256 128.256-7.552 128.256-128z" />
<glyph unicode="&#xe970;" glyph-name="bx-coffee" d="M128 149.333c0-47.061 38.272-85.333 85.333-85.333h426.667c47.061 0 85.333 38.272 85.333 85.333v42.667h128c23.564 0 42.667 19.103 42.667 42.667v0 298.667c0 23.564-19.103 42.667-42.667 42.667v0h-128v42.667c0 23.564-19.103 42.667-42.667 42.667v0h-512c-23.564 0-42.667-19.103-42.667-42.667v0-469.333zM810.667 490.667v-213.333h-85.333v213.333h85.333zM213.333 576h426.667l0.085-426.667h-426.752v426.667zM213.333 874.667h85.333v-128h-85.333zM384 874.667h85.333v-128h-85.333zM554.667 874.667h85.333v-128h-85.333z" />
<glyph unicode="&#xe971;" glyph-name="bx-cog" d="M512 277.333c94.123 0 170.667 76.544 170.667 170.667s-76.544 170.667-170.667 170.667-170.667-76.544-170.667-170.667 76.544-170.667 170.667-170.667zM512 533.333c46.251 0 85.333-39.083 85.333-85.333s-39.083-85.333-85.333-85.333-85.333 39.083-85.333 85.333 39.083 85.333 85.333 85.333zM95.744 340.821c-2.901-10.923-1.365-22.571 4.267-32.384l85.333-147.627c11.776-20.352 37.931-27.349 58.283-15.616l59.563 34.389c24.747-19.499 52.096-35.499 80.853-47.445v-68.139c0-23.564 19.103-42.667 42.667-42.667v0h170.667c23.564 0 42.667 19.103 42.667 42.667v0 68.181c30.882 13.021 57.525 28.94 81.571 47.994l-0.718-0.549 59.563-34.389c6.111-3.565 13.453-5.669 21.286-5.669 15.711 0 29.445 8.466 36.887 21.086l0.109 0.2 85.333 147.627c5.632 9.771 7.168 21.419 4.267 32.384s-10.069 20.267-19.883 25.899l-58.496 33.792c2.17 14.17 3.409 30.517 3.409 47.154 0 16.844-1.27 33.391-3.721 49.551l0.226-1.814 58.496 33.792c12.827 7.539 21.301 21.271 21.301 36.981 0 7.84-2.111 15.188-5.794 21.505l0.109-0.203-85.333 147.627c-7.527 12.835-21.256 21.316-36.965 21.316-7.847 0-15.201-2.116-21.52-5.81l0.202 0.109-59.563-34.389c-23.31 18.534-49.942 34.456-78.565 46.599l-2.246 0.846v68.181c0 23.564-19.103 42.667-42.667 42.667v0h-170.667c-23.564 0-42.667-19.103-42.667-42.667v0-68.181c-30.882-13.021-57.525-28.94-81.571-47.994l0.718 0.549-59.52 34.389c-6.12 3.594-13.478 5.716-21.333 5.716-15.709 0-29.435-8.489-36.841-21.131l-0.109-0.201-85.333-147.627c-5.632-9.771-7.168-21.419-4.267-32.384s10.069-20.224 19.883-25.899l58.496-33.792c-2.197-14.258-3.452-30.705-3.452-47.445s1.255-33.188 3.676-49.253l-0.224 1.808-58.496-33.792c-9.69-5.67-16.839-14.793-19.813-25.642l-0.070-0.299zM263.253 389.205c-4.779 19.328-7.253 39.125-7.253 58.795s2.475 39.467 7.253 58.795c0.811 3.107 1.276 6.675 1.276 10.351 0 15.701-8.489 29.419-21.128 36.814l-0.202 0.109-47.957 27.733 42.624 73.771 48.853-28.203c6.116-3.599 13.473-5.726 21.327-5.726 11.391 0 21.737 4.473 29.378 11.758l-0.017-0.016c27.952 26.672 62.029 47.181 99.89 59.19l1.827 0.5c17.629 5.476 30.208 21.641 30.208 40.744 0 0.016 0 0.032 0 0.048v-0.002 55.467h85.333v-55.467c0-0.007 0-0.016 0-0.025 0-19.119 12.575-35.301 29.906-40.726l0.302-0.082c39.688-12.51 73.766-33.019 101.819-59.787l-0.101 0.096c7.634-7.257 17.983-11.721 29.374-11.721 7.847 0 15.199 2.118 21.516 5.814l-0.202-0.109 48.853 28.203 42.624-73.771-47.957-27.691c-12.84-7.505-21.329-21.223-21.329-36.923 0-3.676 0.465-7.244 1.34-10.647l-0.064 0.296c4.779-19.328 7.253-39.125 7.253-58.795s-2.475-39.467-7.253-58.795c-0.811-3.107-1.276-6.675-1.276-10.351 0-15.701 8.489-29.419 21.128-36.814l0.202-0.109 47.957-27.733-42.624-73.771-48.853 28.203c-6.116 3.599-13.473 5.726-21.327 5.726-11.391 0-21.737-4.473-29.378-11.758l0.017 0.016c-27.952-26.672-62.029-47.181-99.89-59.19l-1.827-0.5c-17.629-5.476-30.208-21.641-30.208-40.744 0-0.016 0-0.032 0-0.048v0.002-55.467h-85.333v55.467c0 0.007 0 0.016 0 0.025 0 19.119-12.575 35.301-29.906 40.726l-0.302 0.082c-39.688 12.51-73.766 33.019-101.819 59.787l0.101-0.096c-7.634 7.257-17.983 11.721-29.374 11.721-7.847 0-15.199-2.118-21.516-5.814l0.202 0.109-48.853-28.203-42.624 73.771 47.957 27.733c12.841 7.483 21.333 21.188 21.333 36.876 0 3.678-0.467 7.247-1.344 10.651l0.065-0.295z" />
<glyph unicode="&#xe972;" glyph-name="bx-collapse" d="M200.832 76.501l135.339 135.339 90.496-90.496v241.323h-241.323l90.496-90.496-135.339-135.339zM823.168 819.499l-135.339-135.339-90.496 90.496v-241.323h241.323l-90.496 90.496 135.339 135.339zM597.333 362.667v-241.323l90.496 90.496 135.339-135.339 60.331 60.331-135.339 135.339 90.496 90.496zM426.667 774.656l-90.496-90.496-135.339 135.339-60.331-60.331 135.339-135.339-90.496-90.496h241.323z" />
<glyph unicode="&#xe973;" glyph-name="bx-collection" d="M853.333 533.333h-682.667c-23.564 0-42.667-19.103-42.667-42.667v0-426.667c0-23.564 19.103-42.667 42.667-42.667v0h682.667c23.564 0 42.667 19.103 42.667 42.667v0 426.667c0 23.564-19.103 42.667-42.667 42.667v0zM810.667 106.667h-597.333v341.333h597.333v-341.333zM213.333 704h597.333v-85.333h-597.333zM298.667 874.667h426.667v-85.333h-426.667z" />
<glyph unicode="&#xe974;" glyph-name="bx-color-fill" d="M457.259 759.125l-60.331 60.373-60.331-60.331 60.331-60.373-271.488-271.488 331.819-331.861 331.861 331.861-331.861 331.819zM457.259 638.464l211.2-211.157h-422.357l211.157 211.157zM819.285 397.141c-3.883-2.773-99.712-77.696-99.285-160.085 0-56.448 45.952-102.4 102.4-102.4 56.514 0.024 102.327 45.807 102.4 102.308v0.007c0.469 82.475-101.589 157.397-105.515 160.171z" />
<glyph unicode="&#xe975;" glyph-name="bx-columns" d="M896 106.624v682.667c0 23.564-19.103 42.667-42.667 42.667v0h-682.667c-23.564 0-42.667-19.103-42.667-42.667v0-682.667c0-23.564 19.103-42.667 42.667-42.667v0h682.667c23.564 0 42.667 19.103 42.667 42.667v0zM213.333 149.291v469.376h256v-469.376h-256zM554.667 149.291v469.376h256v-469.376h-256z" />
<glyph unicode="&#xe976;" glyph-name="bx-command" d="M256 362.667c-94.123 0-170.667-76.544-170.667-170.667s76.544-170.667 170.667-170.667c93.892 0.119 170.025 75.983 170.581 169.76v0.053h0.085v86.187h170.667v-86.997h0.171c0.988-93.462 76.913-168.863 170.482-169.003h0.014c94.123 0 170.667 76.544 170.667 170.667s-76.544 170.667-170.667 170.667h-85.333v170.667h85.333c94.123 0 170.667 76.544 170.667 170.667s-76.544 170.667-170.667 170.667-170.667-76.544-170.667-170.667v-85.333h-170.667v86.187h-0.085c-0.556 93.831-76.69 169.694-170.57 169.813h-0.011c-94.123 0-170.667-76.544-170.667-170.667s76.544-170.667 170.667-170.667h85.333v-170.667h-85.333zM341.333 192c0-47.872-37.504-85.333-85.333-85.333s-85.333 37.461-85.333 85.333 37.504 85.333 85.333 85.333h85.333v-85.333zM768 277.333c47.829 0 85.333-37.461 85.333-85.333s-37.504-85.333-85.333-85.333-85.333 37.461-85.333 85.333v85.333h85.333zM682.667 704c0 47.872 37.504 85.333 85.333 85.333s85.333-37.461 85.333-85.333-37.504-85.333-85.333-85.333h-85.333v85.333zM256 618.667c-47.829 0-85.333 37.461-85.333 85.333s37.504 85.333 85.333 85.333 85.333-37.461 85.333-85.333v-85.333h-85.333zM426.667 533.333h170.667v-170.667h-170.667v170.667z" />
<glyph unicode="&#xe977;" glyph-name="bx-compass" d="M512 874.667c-235.264 0-426.667-191.403-426.667-426.667s191.403-426.667 426.667-426.667 426.667 191.403 426.667 426.667-191.403 426.667-426.667 426.667zM512 106.667c-188.203 0-341.333 153.131-341.333 341.333s153.131 341.333 341.333 341.333 341.333-153.131 341.333-341.333-153.131-341.333-341.333-341.333zM341.333 277.333l255.616 85.333 85.717 256-256-85.333z" />
<glyph unicode="&#xe978;" glyph-name="bx-contact" d="M554.667 405.333c-117.163 0-213.333-85.333-213.333-170.667h426.667c0 81.792-96.171 170.667-213.333 170.667zM554.667 448c61.355 0 106.667 45.269 106.667 106.667s-45.312 106.667-106.667 106.667-106.667-45.269-106.667-106.667 45.355-106.667 106.667-106.667zM896 874.667h-682.667c-23.564 0-42.667-19.103-42.667-42.667v0-170.667h-85.333v-85.333h85.333v-85.333h-85.333v-85.333h85.333v-85.333h-85.333v-85.333h85.333v-170.667c0-23.564 19.103-42.667 42.667-42.667v0h682.667c23.564 0 42.667 19.103 42.667 42.667v0 768c0 23.564-19.103 42.667-42.667 42.667v0zM853.333 106.667h-597.333v682.667h597.333v-682.667z" />
<glyph unicode="&#xe979;" glyph-name="bx-conversation" d="M128 789.333v-512c0.041-23.556 19.147-42.637 42.709-42.637 10.107 0 19.394 3.511 26.708 9.379l-0.084-0.065 201.643 161.323h283.691c23.564 0 42.667 19.103 42.667 42.667v0 341.333c0 23.564-19.103 42.667-42.667 42.667v0h-512c-23.564 0-42.667-19.103-42.667-42.667v0zM213.333 746.667h426.667v-256h-256c-0.006 0-0.013 0-0.020 0-10.119 0-19.415-3.523-26.729-9.408l0.082 0.064-144-115.2v380.544zM853.333 64c23.554 0.024 42.642 19.112 42.667 42.664v512.002h-85.333v-423.211l-144 115.2c-7.232 5.821-16.528 9.344-26.647 9.344-0.007 0-0.014 0-0.021 0h-213.332v-85.333h198.357l201.643-161.323c7.221-5.821 16.508-9.344 26.617-9.344 0.018 0 0.035 0 0.053 0h-0.003z" />
<glyph unicode="&#xe97a;" glyph-name="bx-copy" d="M597.333 576h-469.333c-23.564 0-42.667-19.103-42.667-42.667v0-469.333c0-23.564 19.103-42.667 42.667-42.667v0h469.333c23.564 0 42.667 19.103 42.667 42.667v0 469.333c0 23.564-19.103 42.667-42.667 42.667v0zM554.667 106.667h-384v384h384v-384zM853.333 874.667h-512c-23.564 0-42.667-19.103-42.667-42.667v0-128h85.333v85.333h426.667v-426.667h-85.333v-85.333h128c23.564 0 42.667 19.103 42.667 42.667v0 512c0 23.564-19.103 42.667-42.667 42.667v0z" />
<glyph unicode="&#xe97b;" glyph-name="bx-copyright" d="M512 21.333c231.296 0 426.667 195.371 426.667 426.667s-195.371 426.667-426.667 426.667-426.667-195.371-426.667-426.667 195.371-426.667 426.667-426.667zM512 789.333c185.045 0 341.333-156.288 341.333-341.333s-156.288-341.333-341.333-341.333-341.333 156.288-341.333 341.333 156.288 341.333 341.333 341.333zM512 234.667c38.443 0 110.123 7.168 158.165 55.125l-60.331 60.416c-18.901-18.901-55.509-30.208-97.835-30.208-69.376 0-128 58.624-128 128s58.624 128 128 128c42.368 0 78.976-11.307 97.835-30.165l60.331 60.331c-48 48-119.723 55.168-158.165 55.168-117.632 0-213.333-95.701-213.333-213.333s95.701-213.333 213.333-213.333z" />
<glyph unicode="&#xe97c;" glyph-name="bx-coupon" d="M896 746.667h-768c-23.564 0-42.667-19.103-42.667-42.667v0-170.667c0-23.564 19.103-42.667 42.667-42.667v0c35.285 0 64-28.715 64-64s-28.715-64-64-64c-23.564 0-42.667-19.103-42.667-42.667v0-128c0-23.564 19.103-42.667 42.667-42.667v0h768c23.564 0 42.667 19.103 42.667 42.667v0 128c0 23.564-19.103 42.667-42.667 42.667v0c-35.285 0-64 28.715-64 64s28.715 64 64 64c23.564 0 42.667 19.103 42.667 42.667v0 170.667c0 23.564-19.103 42.667-42.667 42.667v0zM853.333 569.771c-61.611-18.432-106.667-75.563-106.667-143.104s45.056-124.715 106.667-143.104v-48.896h-384v85.333h-85.333v-85.333h-213.333v48.896c61.611 18.432 106.667 75.563 106.667 143.104s-45.056 124.715-106.667 143.104v91.563h213.333v-85.333h85.333v85.333h384v-91.563zM384 490.667h85.333v-85.333h-85.333z" />
<glyph unicode="&#xe97d;" glyph-name="bx-credit-card" d="M896 789.333h-768c-23.564 0-42.667-19.103-42.667-42.667v0-597.333c0-23.564 19.103-42.667 42.667-42.667v0h768c23.564 0 42.667 19.103 42.667 42.667v0 597.333c0 23.564-19.103 42.667-42.667 42.667v0zM853.333 704v-85.333h-682.667v85.333h682.667zM170.667 192v256h682.667v-256h-682.667zM256 362.667h256v-85.333h-256z" />
<glyph unicode="&#xe97e;" glyph-name="bx-crop" d="M768 661.333c0 23.564-19.103 42.667-42.667 42.667v0h-384v170.667h-85.333v-170.667h-170.667v-85.333h597.333v-597.333h85.333v170.667h170.667v85.333h-170.667v384zM256 533.333v-298.667c0-23.564 19.103-42.667 42.667-42.667v0h298.667v85.333h-256v256h-85.333z" />
<glyph unicode="&#xe97f;" glyph-name="bx-crosshair" d="M512 874.667c-235.264 0-426.667-191.403-426.667-426.667s191.403-426.667 426.667-426.667 426.667 191.403 426.667 426.667-191.403 426.667-426.667 426.667zM554.667 109.611v125.056h-85.333v-125.056c-154.488 20.255-275.468 141.235-295.537 293.993l-0.186 1.73h125.056v85.333h-125.056c20.255 154.488 141.235 275.468 293.993 295.537l1.73 0.186v-125.056h85.333v125.056c154.495-20.24 275.483-141.228 295.537-293.995l0.185-1.728h-125.056v-85.333h125.056c-20.255-154.488-141.235-275.468-293.993-295.537l-1.73-0.186z" />
<glyph unicode="&#xe980;" glyph-name="bx-crown" d="M478.677 816l-137.344-171.691-137.344 171.691c-7.901 9.711-19.851 15.864-33.238 15.864-23.533 0-42.626-19.015-42.751-42.518v-682.679c0-23.564 19.103-42.667 42.667-42.667v0h682.667c23.564 0 42.667 19.103 42.667 42.667v0 682.667c-0.126 23.516-19.218 42.53-42.751 42.53-13.387 0-25.337-6.153-33.176-15.786l-0.062-0.078-137.344-171.691-137.344 171.691c-16.256 20.224-50.389 20.224-66.645 0zM213.333 149.333v85.333h597.333v-85.333h-597.333zM649.344 549.333c16.256-20.267 50.432-20.267 66.688 0l94.635 118.357v-347.691h-597.333v347.691l94.677-118.357c16.256-20.267 50.432-20.267 66.688 0l137.301 171.691 137.344-171.691z" />
<glyph unicode="&#xe981;" glyph-name="bx-cube" d="M86.144 235.051c0.008-17.087 10.059-31.825 24.571-38.631l0.261-0.11 383.189-176.299c0.64-0.299 1.365-0.171 2.005-0.469 5.12-2.048 10.411-3.456 15.829-3.456s10.667 1.365 15.701 3.413c0.683 0.256 1.408 0.171 2.091 0.469l383.189 175.915c15.147 6.955 24.875 22.144 24.875 38.784v426.709l-0.043 0.256c-0.038 4.013-0.644 7.869-1.739 11.513l0.075-0.292c-0.341 1.195-0.896 2.261-1.323 3.413-0.98 2.699-2.058 4.993-3.315 7.17l0.115-0.216c-0.889 1.361-1.731 2.516-2.626 3.626l0.066-0.085c-2.359 3.139-5.043 5.85-8.051 8.162l-0.099 0.073c-0.896 0.725-1.579 1.536-2.56 2.176-1.109 0.768-2.432 1.109-3.584 1.749-0.811 0.384-1.365 0.981-2.219 1.365l-383.189 170.667c-5.108 2.326-11.078 3.682-17.365 3.682s-12.257-1.356-17.634-3.791l0.269 0.109-383.189-170.667c-0.853-0.384-1.493-0.981-2.261-1.408-1.195-0.64-2.432-1.024-3.541-1.707-0.939-0.64-1.664-1.451-2.56-2.176-3.198-2.279-5.899-5.007-8.078-8.127l-0.071-0.108c-0.829-1.025-1.671-2.18-2.457-3.375l-0.103-0.167c-1.28-2.219-2.304-4.565-3.2-6.955-0.427-1.195-1.024-2.219-1.323-3.413-1.041-3.356-1.648-7.215-1.664-11.213v-0.008l-0.043-0.256v-426.325zM171.477 595.413l297.856-133.717v-336.384l-297.856 137.045v333.056zM852.523 262.059l-297.856-136.747v336.427l297.856 133.717v-333.397zM512 785.28l278.656-124.117-278.656-125.099-278.656 125.099 278.656 124.117z" />
<glyph unicode="&#xe982;" glyph-name="bx-cut" d="M347.819 344.149c-20.315 11.495-44.582 18.339-70.432 18.517h-0.053c-82.347 0-149.333-66.987-149.333-149.333s66.987-149.333 149.333-149.333 149.333 66.987 149.333 149.333c0 25.643-7.083 49.408-18.517 70.485l103.851 103.851 281.003-281.003h120.661l-505.515 505.515c11.495 20.315 18.339 44.582 18.517 70.432v0.053c0 82.347-66.987 149.333-149.333 149.333s-149.333-66.987-149.333-149.333 66.987-149.333 149.333-149.333c25.643 0 49.408 7.083 70.485 18.517l103.851-103.851-103.851-103.851zM277.333 149.333c-35.285 0-64 28.715-64 64s28.715 64 64 64 64-28.715 64-64-28.715-64-64-64zM213.333 682.667c0 35.285 28.715 64 64 64s64-28.715 64-64-28.715-64-64-64-64 28.715-64 64zM567.168 563.499l60.331-60.331 286.165 286.165h-120.661z" />
<glyph unicode="&#xe983;" glyph-name="bx-dashboard" d="M814.080 749.312c-80.811 80.853-187.947 125.355-301.653 125.355-113.749 0-220.928-44.544-301.739-125.355-166.357-166.315-166.357-437.035 0-603.392 80.853-80.853 187.989-125.355 301.739-125.355s220.885 44.501 301.653 125.312c166.357 166.315 166.357 437.035 0 603.435zM807.851 277.333h-590.891c-22.997 39.979-37.333 83.456-42.837 128h81.877v85.333h-81.749c7.467 59.179 30.293 116.651 68.651 166.059l57.899-57.899 60.331 60.331-57.941 57.941c48.469 37.803 105.472 61.525 166.144 69.205v-82.304h85.333v82.432c69.376-8.576 133.931-38.272 186.453-85.973l-201.131-172.843c-8.704 3.029-17.92 4.992-27.648 4.992-46.891 0-84.949-38.101-84.949-84.907 0-46.976 38.101-85.035 84.949-85.035 46.933 0 84.992 38.101 84.992 85.035 0 5.248-0.64 10.325-1.536 15.317l201.259 172.971c29.397-44.416 47.061-94.293 53.461-145.323h-82.517v-85.333h82.645c-5.504-44.544-19.797-88.021-42.795-128z" />
<glyph unicode="&#xe984;" glyph-name="bx-data" d="M170.667 661.333v-426.667c0-92.501 156.288-170.667 341.333-170.667s341.333 78.165 341.333 170.667v426.667c0 92.501-156.288 170.667-341.333 170.667s-341.333-78.165-341.333-170.667zM512 149.333c-157.483 0-253.056 64.299-256 85.333v102.101c63.104-36.139 155.179-59.435 256-59.435s192.896 23.296 256 59.435v-101.845c-2.944-21.291-98.517-85.589-256-85.589zM512 362.667c-157.483 0-253.056 64.299-256 85.333v102.101c63.104-36.139 155.179-59.435 256-59.435s192.896 23.296 256 59.435v-101.845c-2.944-21.291-98.517-85.589-256-85.589zM512 746.667c157.483 0 253.056-64.299 256-85.077-2.944-21.291-98.517-85.589-256-85.589s-253.056 64.299-256 85.077c2.944 21.291 98.517 85.589 256 85.589z" />
<glyph unicode="&#xe985;" glyph-name="bx-desktop" d="M896 789.333h-768c-23.564 0-42.667-19.103-42.667-42.667v0-512c0-23.564 19.103-42.667 42.667-42.667v0h341.333v-85.333h-85.333v-85.333h256v85.333h-85.333v85.333h341.333c23.564 0 42.667 19.103 42.667 42.667v0 512c0 23.564-19.103 42.667-42.667 42.667v0zM853.333 704v-384h-682.667v384h682.667z" />
<glyph unicode="&#xe986;" glyph-name="bx-detail" d="M256 661.333h512v-85.333h-512zM256 490.667h383.573v-85.333h-383.573zM256 320h256v-85.333h-256zM896 832h-768c-23.564 0-42.667-19.103-42.667-42.667v0-682.667c0-23.564 19.103-42.667 42.667-42.667v0h768c23.564 0 42.667 19.103 42.667 42.667v0 682.667c0 23.564-19.103 42.667-42.667 42.667v0zM853.333 149.333h-682.667v597.333h682.667v-597.333z" />
<glyph unicode="&#xe987;" glyph-name="bx-dialpad" d="M426.667 832h170.667v-128h-170.667zM426.667 618.667h170.667v-128h-170.667zM426.667 405.333h170.667v-128h-170.667zM682.667 832h170.667v-128h-170.667zM682.667 618.667h170.667v-128h-170.667zM682.667 405.333h170.667v-128h-170.667zM170.667 832h170.667v-128h-170.667zM170.667 618.667h170.667v-128h-170.667zM170.667 405.333h170.667v-128h-170.667zM426.667 192h170.667v-128h-170.667z" />
<glyph unicode="&#xe988;" glyph-name="bx-diamond" d="M94.976 506.325l384-469.333c0.683-0.811 1.664-1.109 2.389-1.835 2.893-3.098 6.224-5.736 9.906-7.828l0.206-0.108c1.365-0.811 2.645-1.579 4.096-2.219 5.077-2.133 10.539-3.669 16.427-3.669s11.349 1.536 16.469 3.712c1.451 0.64 2.688 1.408 4.096 2.219 3.895 2.184 7.228 4.824 10.088 7.91l0.024 0.026c0.725 0.725 1.707 1.024 2.389 1.835l384 469.333c5.989 7.289 9.619 16.714 9.619 26.987 0 9.309-2.981 17.922-8.041 24.936l0.086-0.126-213.333 298.667c-7.851 10.852-20.476 17.831-34.73 17.835h-341.334c-0.008 0-0.018 0-0.027 0-14.244 0-26.853-7.001-34.574-17.75l-0.087-0.127-213.333-298.667c-4.987-6.885-7.977-15.5-7.977-24.814 0-10.275 3.639-19.7 9.7-27.057l-0.058 0.073zM351.403 490.667l66.688-244.48-200.064 244.48h133.376zM805.973 490.667l-200.021-244.48 66.645 244.48h133.376zM512 226.176l-72.107 264.491h144.256l-72.149-264.491zM813.099 576h-140.885l-60.971 213.333h49.451l152.405-213.333zM522.496 789.333l60.971-213.333h-142.933l60.971 213.333h20.992zM363.307 789.333h49.451l-60.971-213.333h-140.885l152.405 213.333z" />
<glyph unicode="&#xe989;" glyph-name="bx-directions" d="M843.989 517.333c-7.885 9.789-19.87 16-33.307 16-0.006 0-0.011 0-0.017 0h-255.999v341.333h-85.333v-85.333h-256c-0.005 0-0.010 0-0.016 0-13.436 0-25.422-6.211-33.243-15.918l-0.064-0.082-85.333-106.667c-5.824-7.238-9.348-16.541-9.348-26.667s3.524-19.429 9.412-26.749l-0.064 0.083 85.333-106.667c7.885-9.789 19.87-16 33.307-16 0.006 0 0.011 0 0.017 0h255.999v-469.333h85.333v213.333h256c0.005 0 0.010 0 0.016 0 13.436 0 25.422 6.211 33.243 15.918l0.064 0.082 85.333 106.667c5.824 7.238 9.348 16.541 9.348 26.667s-3.524 19.429-9.412 26.749l0.064-0.083-85.333 106.667zM233.813 576l-51.2 64 51.2 64h235.52v-128h-235.52zM790.187 320h-235.52v128h235.52l51.2-64-51.2-64z" />
<glyph unicode="&#xe98a;" glyph-name="bx-disc" d="M512 21.333c-235.264 0-426.667 191.403-426.667 426.667s191.403 426.667 426.667 426.667 426.667-191.403 426.667-426.667-191.403-426.667-426.667-426.667zM512 789.333c-188.203 0-341.333-153.131-341.333-341.333s153.131-341.333 341.333-341.333 341.333 153.131 341.333 341.333-153.131 341.333-341.333 341.333zM512 277.333c-94.123 0-170.667 76.544-170.667 170.667s76.544 170.667 170.667 170.667 170.667-76.544 170.667-170.667-76.544-170.667-170.667-170.667zM512 533.333c-47.061 0-85.333-38.272-85.333-85.333s38.272-85.333 85.333-85.333 85.333 38.272 85.333 85.333-38.272 85.333-85.333 85.333z" />
<glyph unicode="&#xe98b;" glyph-name="bx-discount" d="M896 746.667h-768c-23.564 0-42.667-19.103-42.667-42.667v0-170.667c0-23.564 19.103-42.667 42.667-42.667v0c35.285 0 64-28.715 64-64s-28.715-64-64-64c-23.564 0-42.667-19.103-42.667-42.667v0-128c0-23.564 19.103-42.667 42.667-42.667v0h768c23.564 0 42.667 19.103 42.667 42.667v0 128c0 23.564-19.103 42.667-42.667 42.667v0c-35.285 0-64 28.715-64 64s28.715 64 64 64c23.564 0 42.667 19.103 42.667 42.667v0 170.667c0 23.564-19.103 42.667-42.667 42.667v0zM853.333 569.771c-61.611-18.432-106.667-75.563-106.667-143.104s45.056-124.715 106.667-143.104v-48.896h-682.667v48.896c61.611 18.432 106.667 75.563 106.667 143.104s-45.056 124.715-106.667 143.104v91.563h682.667v-91.563zM426.667 533.333c0-23.564-19.103-42.667-42.667-42.667s-42.667 19.103-42.667 42.667c0 23.564 19.103 42.667 42.667 42.667s42.667-19.103 42.667-42.667zM682.667 362.667c0-23.564-19.103-42.667-42.667-42.667s-42.667 19.103-42.667 42.667c0 23.564 19.103 42.667 42.667 42.667s42.667-19.103 42.667-42.667zM632.832 552.32l-170.667-256-70.997 47.36 170.667 256z" />
<glyph unicode="&#xe98c;" glyph-name="bx-dislike" d="M896 832h-640c-17.792 0-33.707-11.051-39.979-27.691l-128-341.333c-1.702-4.428-2.688-9.551-2.688-14.905 0-0.025 0-0.050 0-0.075v0.004-128c0-23.564 19.103-42.667 42.667-42.667v0h282.112l-66.603-199.851c-1.404-4.040-2.215-8.695-2.215-13.541 0-9.355 3.023-18.003 8.144-25.023l-0.084 0.121c8.064-11.136 20.949-17.707 34.645-17.707h128c12.672 0 24.661 5.632 32.811 15.36l200.533 240.64h150.656c23.564 0 42.667 19.103 42.667 42.667v0 469.333c0 23.564-19.103 42.667-42.667 42.667v0zM491.989 106.667h-48.811l66.603 199.851c1.386 4.023 2.186 8.66 2.186 13.483 0 23.553-19.084 42.648-42.633 42.667h-298.668v77.611l114.901 306.389h397.099v-411.221l-190.677-228.779zM853.333 362.667h-85.333v384h85.333v-384z" />
<glyph unicode="&#xe98d;" glyph-name="bx-dock-bottom" d="M896 789.333c0 23.564-19.103 42.667-42.667 42.667v0h-682.667c-23.564 0-42.667-19.103-42.667-42.667v0-682.667c0-23.564 19.103-42.667 42.667-42.667v0h682.667c23.564 0 42.667 19.103 42.667 42.667v0 682.667zM810.667 746.667v-384h-597.333v384h597.333zM213.333 149.333v128h597.333v-128h-597.333z" />
<glyph unicode="&#xe98e;" glyph-name="bx-dock-left" d="M896 106.667v682.667c0 23.564-19.103 42.667-42.667 42.667v0h-682.667c-23.564 0-42.667-19.103-42.667-42.667v0-682.667c0-23.564 19.103-42.667 42.667-42.667v0h682.667c23.564 0 42.667 19.103 42.667 42.667v0zM213.333 746.667h128v-597.333h-128v597.333zM810.667 149.333h-384v597.333h384v-597.333z" />
<glyph unicode="&#xe98f;" glyph-name="bx-dock-right" d="M853.333 832h-682.667c-23.564 0-42.667-19.103-42.667-42.667v0-682.667c0-23.564 19.103-42.667 42.667-42.667v0h682.667c23.564 0 42.667 19.103 42.667 42.667v0 682.667c0 23.564-19.103 42.667-42.667 42.667v0zM213.333 746.667h384v-597.333h-384v597.333zM810.667 149.333h-128v597.333h128v-597.333z" />
<glyph unicode="&#xe990;" glyph-name="bx-dock-top" d="M853.333 832h-682.667c-23.564 0-42.667-19.103-42.667-42.667v0-682.667c0-23.564 19.103-42.667 42.667-42.667v0h682.667c23.564 0 42.667 19.103 42.667 42.667v0 682.667c0 23.564-19.103 42.667-42.667 42.667v0zM810.667 746.667v-128h-597.333v128h597.333zM213.333 149.333v384h597.333v-384h-597.333z" />
<glyph unicode="&#xe991;" glyph-name="bx-documentation" d="M256 874.667c-51.456 0-128-34.091-128-128v-597.333c0-93.909 76.544-128 128-128h597.333c23.564 0 42.667 19.103 42.667 42.667v0 768c0 23.564-19.103 42.667-42.667 42.667v0h-597.333zM213.333 746.667c0 34.389 23.467 42.155 42.667 42.667h554.667v-512h-597.333v469.333zM256.512 106.667c-19.712 0.512-43.179 8.277-43.179 42.667s23.467 42.155 43.179 42.667h554.155v-85.333h-554.155zM341.333 704h380.075v-85.333h-380.075z" />
<glyph unicode="&#xe992;" glyph-name="bx-dollar" d="M341.291 277.333h-85.333c0-1.621 2.688-150.955 213.333-168.832v-86.656h85.333v86.528c184.277 14.507 213.333 123.477 213.333 190.293 0 53.931-21.931 174.677-213.333 190.251v211.328c78.72-14.763 84.949-69.803 85.333-82.176l42.667 0.597h42.667c0 53.675-37.163 150.528-170.667 167.765v88.235h-85.333v-87.083c-191.403-15.573-213.333-136.32-213.333-190.251 0-66.816 29.056-175.787 213.333-190.293v-212.779c-120.363 12.373-127.616 75.947-128 83.072zM682.624 298.667c0-26.453-0.469-92.544-128-104.576v209.067c127.531-12.416 128-80.555 128-104.491zM341.291 597.333c0 23.936 0.469 92.075 128 104.533v-209.109c-127.531 12.032-128 78.123-128 104.576z" />
<glyph unicode="&#xe993;" glyph-name="bx-dollar-circle" d="M512 874.667c-235.264 0-426.667-191.403-426.667-426.667s191.403-426.667 426.667-426.667 426.667 191.403 426.667 426.667-191.403 426.667-426.667 426.667zM512 106.667c-188.203 0-341.333 153.131-341.333 341.333s153.131 341.333 341.333 341.333 341.333-153.131 341.333-341.333-153.131-341.333-341.333-341.333zM512 490.667c-85.333 0-85.333 26.709-85.333 42.667 0 20.651 29.909 42.667 85.333 42.667 50.56 0 59.136-27.221 59.733-43.435l42.667 0.768h42.667c0 43.776-28.416 105.344-102.4 122.837v47.317h-85.333v-45.781c-84.096-14.123-128-69.419-128-124.373 0-47.787 22.187-128 170.667-128 85.333 0 85.333-28.843 85.333-42.667 0-17.707-26.453-42.667-85.333-42.667-78.549 0-84.864 36.565-85.333 42.667h-85.333c0-39.168 28.203-108.928 128-124.587v-46.080h85.333v46.293c84.096 14.123 128 69.419 128 124.373 0 47.787-22.187 128-170.667 128z" />
<glyph unicode="&#xe994;" glyph-name="bx-dots-horizontal" d="M426.667 533.333h170.667v-170.667h-170.667zM682.667 533.333h170.667v-170.667h-170.667zM170.667 533.333h170.667v-170.667h-170.667z" />
<glyph unicode="&#xe995;" glyph-name="bx-dots-horizontal-rounded" d="M512 533.333c-46.933 0-85.333-38.4-85.333-85.333s38.4-85.333 85.333-85.333 85.333 38.4 85.333 85.333-38.4 85.333-85.333 85.333zM768 533.333c-46.933 0-85.333-38.4-85.333-85.333s38.4-85.333 85.333-85.333 85.333 38.4 85.333 85.333-38.4 85.333-85.333 85.333zM256 533.333c-46.933 0-85.333-38.4-85.333-85.333s38.4-85.333 85.333-85.333 85.333 38.4 85.333 85.333-38.4 85.333-85.333 85.333z" />
<glyph unicode="&#xe996;" glyph-name="bx-dots-vertical" d="M426.667 533.333h170.667v-170.667h-170.667zM426.667 789.333h170.667v-170.667h-170.667zM426.667 277.333h170.667v-170.667h-170.667z" />
<glyph unicode="&#xe997;" glyph-name="bx-dots-vertical-rounded" d="M512 533.333c-46.933 0-85.333-38.4-85.333-85.333s38.4-85.333 85.333-85.333 85.333 38.4 85.333 85.333-38.4 85.333-85.333 85.333zM512 789.333c-46.933 0-85.333-38.4-85.333-85.333s38.4-85.333 85.333-85.333 85.333 38.4 85.333 85.333-38.4 85.333-85.333 85.333zM512 277.333c-46.933 0-85.333-38.4-85.333-85.333s38.4-85.333 85.333-85.333 85.333 38.4 85.333 85.333-38.4 85.333-85.333 85.333z" />
<glyph unicode="&#xe998;" glyph-name="bx-down-arrow" d="M175.915 681.856c-7.467-13.653-6.955-30.293 1.408-43.477l298.667-469.333c7.733-11.895 20.959-19.652 35.997-19.652 15.055 0 28.295 7.775 35.923 19.528l0.101 0.166 298.667 469.333c8.363 13.141 8.875 29.781 1.408 43.477-7.425 13.271-21.391 22.096-37.418 22.101h-597.334c-15.573 0-29.909-8.491-37.419-22.144zM732.971 618.667l-220.971-347.179-220.971 347.179h441.941z" />
<glyph unicode="&#xe999;" glyph-name="bx-down-arrow-circle" d="M512 874.667c-235.264 0-426.667-191.403-426.667-426.667s191.403-426.667 426.667-426.667 426.667 191.403 426.667 426.667-191.403 426.667-426.667 426.667zM512 106.667c-188.203 0-341.333 153.131-341.333 341.333s153.131 341.333 341.333 341.333 341.333-153.131 341.333-341.333-153.131-341.333-341.333-341.333zM554.667 618.667h-85.333v-170.667h-128l170.667-170.667 170.667 170.667h-128z" />
<glyph unicode="&#xe99a;" glyph-name="bx-download" d="M512 320l170.667 170.667h-128v256h-85.333v-256h-128zM768 490.667v-256h-512v256h-85.333v-298.667c0-23.595 19.072-42.667 42.667-42.667h597.333c23.595 0 42.667 19.072 42.667 42.667v298.667h-85.333z" />
<glyph unicode="&#xe99b;" glyph-name="bx-downvote" d="M891.776 509.184c-7.125 14.72-22.016 24.149-38.443 24.149h-170.667v298.667c0 23.595-19.072 42.667-42.667 42.667h-256c-23.595 0-42.667-19.072-42.667-42.667v-298.667h-170.667c-16.427 0-31.317-9.429-38.443-24.149-7.083-14.805-5.12-32.341 5.12-45.184l341.333-426.667c8.107-10.112 20.352-16 33.323-16s25.216 5.888 33.323 16l341.333 426.667c10.24 12.843 12.203 30.379 5.12 45.184zM512 132.309l-252.544 315.691h124.544c23.595 0 42.667 19.072 42.667 42.667v298.667h170.667v-298.667c0-23.595 19.072-42.667 42.667-42.667h124.544l-252.544-315.691z" />
</font>
</defs>
</svg>
