<?xml version="1.0" standalone="no"?>
<!DOCTYPE svg PUBLIC "-//W3C//DTD SVG 1.1//EN" "http://www.w3.org/Graphics/SVG/1.1/DTD/svg11.dtd" >
<svg xmlns="http://www.w3.org/2000/svg">
<metadata>Generated by IcoMoon</metadata>
<defs>
<font id="boxicons" horiz-adv-x="1024">
<font-face units-per-em="1024" ascent="960" descent="-64" />
<missing-glyph horiz-adv-x="1024" />
<glyph unicode="&#x20;" horiz-adv-x="512" d="" />
<glyph unicode="&#xe900;" glyph-name="adjust" d="M512 874.667c-231.296 0-426.667-195.413-426.667-426.667s195.371-426.667 426.667-426.667 426.667 195.413 426.667 426.667-195.371 426.667-426.667 426.667zM512 106.667c-185.045 0-341.333 156.331-341.333 341.333s156.288 341.333 341.333 341.333 341.333-156.331 341.333-341.333-156.288-341.333-341.333-341.333zM512 704v-512c140.032 0 256 116.011 256 256 0 140.117-115.968 256-256 256z" />
<glyph unicode="&#xe901;" glyph-name="album" d="M597.333 448.299c0-47.293-38.339-85.632-85.632-85.632s-85.632 38.339-85.632 85.632c0 47.293 38.339 85.632 85.632 85.632s85.632-38.339 85.632-85.632zM512 874.667c-235.264 0-426.667-191.403-426.667-426.667s191.403-426.667 426.667-426.667 426.667 191.403 426.667 426.667-191.403 426.667-426.667 426.667zM512 106.667c-188.203 0-341.333 153.131-341.333 341.333s153.131 341.333 341.333 341.333 341.333-153.131 341.333-341.333-153.131-341.333-341.333-341.333zM512 704c-141.184 0-256-114.816-256-256h85.333c0 94.123 76.544 170.667 170.667 170.667v85.333z" />
<glyph unicode="&#xe902;" glyph-name="align-left" d="M170.667 234.667h682.667v-85.333h-682.667v85.333zM170.667 405.333h512v-85.333h-512v85.333zM170.667 576h682.667v-85.333h-682.667v85.333zM170.667 746.667h512v-85.333h-512v85.333z" />
<glyph unicode="&#xe903;" glyph-name="align-middle" d="M170.667 234.667h682.667v-85.333h-682.667v85.333zM256 405.333h512v-85.333h-512v85.333zM170.667 576h682.667v-85.333h-682.667v85.333zM256 746.667h512v-85.333h-512v85.333z" />
<glyph unicode="&#xe904;" glyph-name="align-right" d="M170.667 234.667h682.667v-85.333h-682.667v85.333zM341.333 405.333h512v-85.333h-512v85.333zM170.667 576h682.667v-85.333h-682.667v85.333zM341.333 746.667h512v-85.333h-512v85.333z" />
<glyph unicode="&#xe905;" glyph-name="anchor" d="M810.667 405.333h-85.333v-85.333h38.955c-18.56-105.387-104.235-190.763-209.621-209.323v294.656h85.333v85.333h-85.333v70.997c65.835 19.584 115.797 82.048 115.797 154.496 0 87.424-71.083 158.507-158.464 158.507s-158.464-71.083-158.464-158.507c0-72.448 49.963-134.912 115.797-154.496v-70.997h-85.333v-85.333h85.333v-294.656c-105.387 18.56-191.104 103.936-209.621 209.323h38.955v85.333h-85.333c-23.595 0-42.667-19.072-42.667-42.667 0-170.581 132.907-316.416 298.667-338.219v-3.115h85.333v3.115c165.76 21.803 298.667 167.637 298.667 338.219 0 23.595-19.072 42.667-42.667 42.667zM438.869 716.16c0 40.32 32.811 73.173 73.131 73.173s73.131-32.853 73.131-73.173c0-40.576-34.176-76.16-73.131-76.16s-73.131 35.584-73.131 76.16z" />
<glyph unicode="&#xe906;" glyph-name="aperture" d="M512 874.667c-231.296 0-426.667-195.371-426.667-426.667s195.371-426.667 426.667-426.667 426.667 195.371 426.667 426.667-195.371 426.667-426.667 426.667zM592.512 320h-159.232l-79.573 137.899 68.139 118.101h167.125l75.648-131.029-72.107-124.971zM170.667 448c0 41.216 8.107 80.811 22.229 117.76l141.824-245.76h-138.027c-16.64 39.765-26.027 82.987-26.027 128zM687.488 576h139.776c16.683-39.765 26.069-82.987 26.069-128 0-41.856-8.363-82.133-22.912-119.595l-142.933 247.595zM776.021 661.333h-304.896l72.917 126.336c92.373-9.088 175.275-56.789 231.979-126.336zM442.027 781.653l-137.643-238.421-63.061 109.269c49.195 64.341 120.021 111.573 200.704 129.152zM247.979 234.667h295.253l-72.192-125.184c-88.832 11.221-168.235 57.941-223.061 125.184zM571.179 112.384l142.72 247.211 67.797-117.419c-51.328-66.475-125.995-114.261-210.517-129.792z" />
<glyph unicode="&#xe907;" glyph-name="archive" d="M256 448h512v-85.333h-512v85.333zM935.637 591.787l-0.299 0.725c0 0.085-0.043 0.128-0.085 0.213l-84.949 212.437c-6.528 16.213-22.187 26.837-39.637 26.837h-597.333c-17.451 0-33.109-10.624-39.637-26.837l-84.992-212.523c-0.043 0-0.043 0-0.043-0.043l-0.299-0.768 0.128-0.043c-1.963-4.907-3.157-10.197-3.157-15.787v-426.667c0-23.595 19.072-42.667 42.667-42.667h768c23.595 0 42.667 19.072 42.667 42.667v426.667c0 5.589-1.195 10.837-3.157 15.744l0.128 0.043zM242.219 746.667h539.563l51.157-128h-641.92l51.2 128zM853.333 192h-682.667v341.333h682.667v-341.333z" />
<glyph unicode="&#xe908;" glyph-name="archive-in" d="M554.667 106.667v170.667h128l-170.667 170.667-170.667-170.667h128v-170.667zM935.637 591.872l-85.333 213.291c-6.528 16.213-22.187 26.837-39.637 26.837h-597.333c-17.451 0-33.109-10.624-39.637-26.837l-84.992-212.523c-0.043 0-0.043 0-0.043-0.043l-0.299-0.768 0.128-0.043c-1.963-4.907-3.157-10.197-3.157-15.787v-426.667c0-23.595 19.072-42.667 42.667-42.667h256v85.333h-213.333v341.333h682.667v-341.333h-213.333v-85.333h256c23.595 0 42.667 19.072 42.667 42.667v426.667c0 5.632-1.195 10.923-3.157 15.829l0.128 0.043zM242.219 746.667h539.563l51.2-128h-641.963l51.2 128z" />
<glyph unicode="&#xe909;" glyph-name="archive-out" d="M469.333 448v-170.667h-128l170.667-170.667 170.667 170.667h-128v170.667zM935.637 591.872l-85.333 213.291c-6.528 16.213-22.187 26.837-39.637 26.837h-597.333c-17.451 0-33.109-10.624-39.637-26.837l-84.992-212.523c-0.043 0-0.043 0-0.043-0.043l-0.299-0.768 0.128-0.043c-1.963-4.907-3.157-10.197-3.157-15.787v-426.667c0-23.595 19.072-42.667 42.667-42.667h256l-85.333 85.333h-128v341.333h682.667v-341.333h-128l-85.333-85.333h256c23.595 0 42.667 19.072 42.667 42.667v426.667c0 5.632-1.195 10.923-3.157 15.829l0.128 0.043zM242.219 746.667h539.563l51.2-128h-641.963l51.2 128z" />
<glyph unicode="&#xe90a;" glyph-name="arrow-back" d="M414.165 264.832l-140.501 140.501h622.080v85.333h-622.080l140.501 140.501-60.331 60.331-243.499-243.499 243.499-243.499z" />
<glyph unicode="&#xe90b;" glyph-name="at" d="M512 874.667c-235.264 0-426.667-191.403-426.667-426.667s191.403-426.667 426.667-426.667c62.549 0 126.336 15.829 189.525 47.104l-37.76 76.501c-51.371-25.387-102.443-38.272-151.765-38.272-188.203 0-341.333 153.131-341.333 341.333s153.131 341.333 341.333 341.333 341.333-153.131 341.333-341.333v-42.667c0-29.525-13.355-85.333-64-85.333-59.563 0-63.744 77.611-64 85.333v213.333h-85.333v-1.067c-35.755 27.051-79.787 43.733-128 43.733-117.632 0-213.333-95.701-213.333-213.333s95.701-213.333 213.333-213.333c61.867 0 117.248 26.923 156.245 69.163 22.357-37.973 60.075-69.163 121.088-69.163 96.981 0 149.333 87.936 149.333 170.667v42.667c0 235.264-191.403 426.667-426.667 426.667zM512 320c-70.571 0-128 57.429-128 128s57.429 128 128 128 128-57.429 128-128-57.429-128-128-128z" />
<glyph unicode="&#xe90c;" glyph-name="award" d="M213.333 576.043c0-81.152 32.64-154.752 85.333-208.64v-303.403c0-14.805 7.68-28.501 20.224-36.309 12.587-7.851 28.331-8.448 41.515-1.877l151.595 75.819 151.595-75.776c6.016-3.029 12.544-4.523 19.072-4.523 7.808 0 15.573 2.133 22.4 6.357 12.587 7.808 20.267 21.504 20.267 36.309v303.36c52.693 53.888 85.333 127.488 85.333 208.683 0 164.651-133.973 298.624-298.667 298.624s-298.667-133.973-298.667-298.624zM531.072 187.52c-11.989 6.016-26.155 6.016-38.187 0l-108.885-54.485v173.525c38.869-18.517 82.176-29.227 128-29.227s89.131 10.667 128 29.227v-173.483l-108.928 54.443zM512 789.333c117.589 0 213.333-95.659 213.333-213.291 0-117.675-95.701-213.376-213.333-213.376s-213.333 95.701-213.333 213.376c0 117.632 95.701 213.291 213.333 213.291z" />
<glyph unicode="&#xe90d;" glyph-name="bar-chart" d="M469.333 789.333h85.333v-682.667h-85.333v682.667zM640 618.667h85.333v-512h-85.333v512zM298.667 448h85.333v-341.333h-85.333v341.333z" />
<glyph unicode="&#xe90e;" glyph-name="bar-chart-alt" d="M554.667 661.333h85.333v-384h-85.333v384zM725.333 789.333h85.333v-512h-85.333v512zM384 533.333h85.333v-256h-85.333v256zM213.333 405.333h85.333v-128h-85.333v128zM170.667 192h682.667v-85.333h-682.667v85.333z" />
<glyph unicode="&#xe90f;" glyph-name="bar-chart-square" d="M128 789.333v-682.667c0-23.552 19.072-42.667 42.667-42.667h682.667c23.595 0 42.667 19.115 42.667 42.667v682.667c0 23.552-19.072 42.667-42.667 42.667h-682.667c-23.595 0-42.667-19.115-42.667-42.667zM213.333 746.667h597.333v-597.333h-597.333v597.333zM469.333 661.333h85.333v-426.667h-85.333v426.667zM640 533.333h85.333v-298.667h-85.333v298.667zM298.667 448h85.333v-213.333h-85.333v213.333z" />
<glyph unicode="&#xe910;" glyph-name="barcode" d="M896 789.333h-768c-23.552 0-42.667-19.115-42.667-42.667v-597.333c0-23.552 19.115-42.667 42.667-42.667h768c23.595 0 42.667 19.115 42.667 42.667v597.333c0 23.552-19.072 42.667-42.667 42.667zM853.333 192h-682.667v512h682.667v-512zM256 618.667h85.333v-341.333h-85.333v341.333zM384 618.667h42.667v-341.333h-42.667v341.333zM725.333 618.667h42.667v-341.333h-42.667v341.333zM554.667 618.667h128v-341.333h-128v341.333zM469.333 618.667h42.667v-341.333h-42.667v341.333z" />
<glyph unicode="&#xe911;" glyph-name="basketball" d="M512 874.667c-235.264 0-426.667-191.403-426.667-426.667s191.403-426.667 426.667-426.667 426.667 191.403 426.667 426.667-191.403 426.667-426.667 426.667zM554.667 490.667v295.723c72.448-9.131 137.771-41.003 188.843-88.235-55.211-53.973-91.221-128-100.736-207.445h-88.107zM469.333 490.667h-88.064c-9.557 79.445-45.568 153.515-100.779 207.445 51.072 47.275 116.395 79.147 188.843 88.277v-295.723zM294.955 490.667h-121.344c6.528 51.925 24.661 100.224 51.883 142.208 36.651-37.675 60.928-87.936 69.461-142.208zM294.272 405.333c-9.301-50.901-34.56-98.645-72.405-136.235-25.131 40.576-42.027 86.741-48.256 136.235h120.661zM381.099 405.333h88.235v-295.723c-74.923 9.429-142.293 43.093-194.091 93.056 57.557 54.4 95.488 125.995 105.856 202.667zM554.667 405.333h88.235c10.325-76.672 48.299-148.267 105.813-202.667-51.797-49.963-119.168-83.627-194.091-93.056v295.723zM729.728 405.333h120.661c-6.229-49.493-23.125-95.659-48.256-136.235-37.888 37.589-63.147 85.333-72.405 136.235zM729.045 490.667c8.533 54.272 32.853 104.533 69.461 142.208 27.221-41.984 45.355-90.283 51.883-142.208h-121.344z" />
<glyph unicode="&#xe912;" glyph-name="battery" d="M853.333 661.333c0 23.595-19.072 42.667-42.667 42.667h-682.667c-23.595 0-42.667-19.072-42.667-42.667v-426.667c0-23.595 19.072-42.667 42.667-42.667h682.667c23.595 0 42.667 19.072 42.667 42.667v128h85.333v170.667h-85.333v128zM768 277.333h-597.333v341.333h597.333v-341.333z" />
<glyph unicode="&#xe913;" glyph-name="battery-charging" d="M291.541 448l177.792-47.36-44.459-165.973 222.251 213.333-177.792 47.36 44.416 165.973zM85.333 661.333v-426.667c0-23.595 19.072-42.667 42.667-42.667h213.333l22.869 85.333h-193.536v341.333h201.515l88.875 85.333h-333.056c-23.595 0-42.667-19.072-42.667-42.667zM853.333 661.333c0 23.595-19.072 42.667-42.667 42.667h-213.333l-22.827-85.333h193.493v-341.333h-201.515l-88.917-85.333h333.099c23.595 0 42.667 19.072 42.667 42.667v128h85.333v170.667h-85.333v128z" />
<glyph unicode="&#xe914;" glyph-name="battery-full" d="M853.333 661.333c0 23.595-19.072 42.667-42.667 42.667h-682.667c-23.595 0-42.667-19.072-42.667-42.667v-426.667c0-23.595 19.072-42.667 42.667-42.667h682.667c23.595 0 42.667 19.072 42.667 42.667v128h85.333v170.667h-85.333v128zM768 277.333h-597.333v341.333h597.333v-341.333zM256 533.333h426.667v-170.667h-426.667v170.667z" />
<glyph unicode="&#xe915;" glyph-name="battery-low" d="M853.333 661.333c0 23.595-19.072 42.667-42.667 42.667h-682.667c-23.595 0-42.667-19.072-42.667-42.667v-426.667c0-23.595 19.072-42.667 42.667-42.667h682.667c23.595 0 42.667 19.072 42.667 42.667v128h85.333v170.667h-85.333v128zM768 277.333h-597.333v341.333h597.333v-341.333zM341.333 533.333h-85.333v-170.667h170.667z" />
<glyph unicode="&#xe916;" glyph-name="behance" d="M128 192h213.333c60.032 0 149.333 39.765 149.333 149.333 0 52.267-18.005 90.923-53.675 115.797 27.648 32.896 32.341 73.643 32.341 97.536 0 118.144-114.389 149.333-174.891 149.333h-166.443c-23.595 0-42.667-19.072-42.667-42.667v-426.667c0-23.595 19.072-42.667 42.667-42.667zM170.667 618.667h123.776c3.669 0 89.557-0.725 89.557-64 0-32.384-6.613-64-85.547-64h-127.787v128zM170.667 405.333h127.787c106.88 0 106.88-36.992 106.88-64 0-56.491-44.843-63.573-64.256-64h-170.411v128zM746.667 618.667c-105.856 0-192-86.144-192-192v-42.667c0-105.856 86.144-192 190.848-192h0.043c0.683 0 1.707-0.043 3.115-0.043 17.92 0 92.288 3.157 143.573 53.12 20.693 20.181 34.176 45.781 41.003 74.923h-90.112c-2.816-4.907-6.101-9.557-10.155-13.525-24.448-24.064-67.883-29.141-85.077-29.141-50.347-1.323-95.787 36.352-105.771 85.333h211.2c0-0.085 0-0.171 0-0.256l47.275 0.512c21.419 2.347 38.059 20.395 38.059 42.411v21.333c0 105.856-86.144 192-192 192zM642.133 448c9.899 48.64 53.035 85.333 104.533 85.333s94.635-36.693 104.533-85.333h-209.067zM597.333 746.667h256v-85.333h-256v85.333z" />
<glyph unicode="&#xe917;" glyph-name="bell" d="M512 21.333c47.317 0 85.333 38.016 85.333 85.333h-170.667c0-47.317 38.016-85.333 85.333-85.333zM558.677 871.040l-43.221 3.499c-2.304 0.171-4.565 0.171-6.869 0l-45.355-3.712c-166.784-23.979-292.565-169.088-292.565-337.493v-245.931l-38.187-76.331c-6.613-13.227-5.931-28.928 1.877-41.515s21.504-20.224 36.309-20.224h682.667c0.341 0 0.683 0 0.853 0 23.595 0 42.667 19.072 42.667 42.667 0 9.771-3.243 18.731-8.747 25.899l-34.773 69.504v245.931c0 168.107-125.525 313.173-294.656 337.707zM239.701 234.667l11.776 23.595c2.987 5.888 4.523 12.459 4.523 19.072v256c0 126.251 94.336 235.051 216.747 252.715l39.296 3.157 37.035-2.901c124.8-18.176 218.923-126.933 218.923-252.971v-256c0-6.613 1.536-13.184 4.48-19.072l11.819-23.595h-544.597z" />
<glyph unicode="&#xe918;" glyph-name="bell-minus" d="M341.333 533.76h341.333v-85.333h-341.333v85.333zM512 21.333c47.317 0 85.333 38.016 85.333 85.333h-170.667c0-47.317 38.016-85.333 85.333-85.333zM853.333 287.403v245.931c0 168.107-125.525 313.173-294.656 337.707l-43.221 3.499c-2.304 0.171-4.565 0.171-6.869 0l-45.355-3.712c-166.784-23.979-292.565-169.088-292.565-337.493v-245.931l-38.187-76.331c-6.613-13.227-5.931-28.928 1.877-41.515s21.504-20.224 36.309-20.224h682.667c0.341-0.043 0.64-0.043 0.853 0 23.595 0 42.667 19.072 42.667 42.667 0 9.771-3.243 18.731-8.747 25.899l-34.773 69.504zM239.701 234.667l11.776 23.595c2.987 5.888 4.523 12.459 4.523 19.072v256c0 126.251 94.336 235.051 216.747 252.715l39.296 3.157 37.035-2.901c124.8-18.176 218.923-126.933 218.923-252.971v-256c0-6.613 1.536-13.184 4.48-19.072l11.819-23.595h-544.597z" />
<glyph unicode="&#xe919;" glyph-name="bell-off" d="M597.333 106.667h-170.667c0-47.317 38.016-85.333 85.333-85.333s85.333 38.016 85.333 85.333zM97.835 801.835l111.744-111.744c-24.747-47.317-38.912-100.693-38.912-156.757v-245.931l-38.187-76.331c-6.613-13.227-5.931-28.928 1.877-41.515s21.504-20.224 36.309-20.224h579.669l115.499-115.499 60.331 60.331-768 768-60.331-60.331zM239.701 234.667l11.776 23.595c2.987 5.888 4.523 12.459 4.523 19.072v256c0 32.384 6.955 63.189 18.389 91.947l390.613-390.613h-425.301zM853.333 355.328v178.005c0 168.107-125.525 313.173-294.656 337.707l-43.221 3.499c-2.304 0.171-4.565 0.171-6.869 0l-45.355-3.712c-34.005-4.907-66.219-15.061-96.128-29.227l65.28-65.28c13.099 4.267 26.496 7.765 40.363 9.771l39.296 3.157 37.035-2.901c124.8-18.219 218.923-126.976 218.923-253.013v-92.672l85.333-85.333z" />
<glyph unicode="&#xe91a;" glyph-name="bell-plus" d="M554.709 661.931h-85.333v-128.597h-128.043v-85.333h128.043v-127.573h85.333v127.573h127.957v85.333h-127.957zM512 21.333c47.317 0 85.333 38.016 85.333 85.333h-170.667c0-47.317 38.016-85.333 85.333-85.333zM853.333 287.403v245.931c0 168.107-125.525 313.173-294.656 337.707l-43.221 3.499c-2.304 0.171-4.565 0.171-6.869 0l-45.355-3.712c-166.784-23.979-292.565-169.088-292.565-337.493v-245.931l-38.187-76.331c-6.613-13.227-5.931-28.928 1.877-41.515s21.504-20.224 36.309-20.224h682.667c0.299-0.043 0.64-0.043 0.853 0 23.595 0 42.667 19.072 42.667 42.667 0 9.771-3.243 18.731-8.747 25.899l-34.773 69.504zM239.701 234.667l11.776 23.595c2.987 5.888 4.523 12.459 4.523 19.072v256c0 126.251 94.336 235.051 216.747 252.715l39.296 3.157 37.035-2.901c124.8-18.176 218.923-126.933 218.923-252.971v-256c0-6.613 1.536-13.184 4.48-19.072l11.819-23.595h-544.597z" />
<glyph unicode="&#xe91b;" glyph-name="block" d="M512 874.667c-235.264 0-426.667-191.403-426.667-426.667s191.403-426.667 426.667-426.667c235.264 0 426.667 191.403 426.667 426.667s-191.403 426.667-426.667 426.667zM170.667 448c0 78.763 27.051 151.125 72.021 208.939l478.251-478.251c-57.771-44.971-130.176-72.021-208.939-72.021-188.203 0-341.333 153.131-341.333 341.333zM781.312 239.061l-478.251 478.251c57.813 44.971 130.176 72.021 208.939 72.021 188.203 0 341.333-153.131 341.333-341.333 0-78.763-27.093-151.125-72.021-208.939z" />
<glyph unicode="&#xe91c;" glyph-name="bluetooth" d="M239.829 201.216l186.837 147.925v-285.141c0-16.171 9.131-30.933 23.595-38.187 6.016-2.987 12.587-4.48 19.072-4.48 9.045 0 18.091 2.901 25.6 8.533l256 192c10.581 7.936 16.896 20.352 17.067 33.579s-5.803 25.771-16.171 34.005l-200.277 158.549 200.277 158.549c10.368 8.235 16.341 20.779 16.171 34.005s-6.485 25.643-17.067 33.579l-256 192c-12.885 9.771-30.251 11.264-44.672 4.053-14.464-7.253-23.595-22.016-23.595-38.187v-285.141l-186.837 147.925-52.992-66.901 227.243-179.883-227.243-179.883 52.992-66.901zM512 746.667l143.445-107.563-143.445-113.579v221.141zM512 370.475l143.445-113.579-143.445-107.563v221.141z" />
<glyph unicode="&#xe91d;" glyph-name="body" d="M597.333 789.333c0-47.128-38.205-85.333-85.333-85.333s-85.333 38.205-85.333 85.333c0 47.128 38.205 85.333 85.333 85.333s85.333-38.205 85.333-85.333zM640 21.333v554.667h213.333v85.333h-682.667v-85.333h213.333v-554.667h85.333v298.667h85.333v-298.667z" />
<glyph unicode="&#xe91e;" glyph-name="bold" d="M384 789.333h-85.333v-682.667h298.667v2.176c95.744 10.752 170.667 91.264 170.667 189.824 0 71.040-39.211 132.48-96.725 165.675 33.323 34.56 54.059 81.323 54.059 132.992 0 98.56-74.923 179.072-170.667 189.824v2.176h-170.667zM576 192h-192v213.333h192c58.837 0 106.667-47.872 106.667-106.667s-47.829-106.667-106.667-106.667zM640 597.333c0-58.795-47.829-106.667-106.667-106.667h-149.333v213.333h149.333c58.837 0 106.667-47.872 106.667-106.667z" />
<glyph unicode="&#xe91f;" glyph-name="bolt" d="M414.293 23.168c4.096-1.237 8.235-1.835 12.373-1.835 13.995 0 27.477 6.912 35.499 18.987l341.333 512c8.704 13.099 9.557 29.909 2.133 43.776s-21.888 22.571-37.632 22.571h-205.611l34.389 206.293c2.091 12.373-1.408 25.003-9.557 34.603-8.107 9.6-20.011 15.104-32.555 15.104h-256c-21.931 0-40.277-16.597-42.453-38.4l-42.667-426.667c-1.195-11.989 2.731-23.979 10.837-32.896 8.064-8.96 19.584-14.037 31.616-14.037h128v-298.667c0-18.773 12.288-35.371 30.293-40.832zM303.147 448l34.133 341.333h166.997l-34.389-206.293c-2.091-12.373 1.408-25.003 9.557-34.603 8.107-9.6 20.011-15.104 32.555-15.104h176.299l-218.965-328.405v200.405c0 23.552-19.072 42.667-42.667 42.667h-123.52z" />
<glyph unicode="&#xe920;" glyph-name="book" d="M763.051 851.157c-7.253 14.421-22.016 23.509-38.144 23.509h-426.24c-51.456 0-128-34.091-128-128v-597.333c0-93.909 76.544-128 128-128h512c23.595 0 42.667 19.115 42.667 42.667v597.333c0 6.912-2.005 13.184-4.907 18.944l0.384 0.171-85.76 170.709zM299.179 789.333h399.445l42.88-85.333h-442.325c-19.712 0.512-43.179 8.32-43.179 42.667s23.467 42.155 43.179 42.667zM768 106.667h-468.821c-19.712 0.512-43.179 8.32-43.179 42.667v469.333h512v-512zM384 533.333h298.667v-85.333h-298.667v85.333z" />
<glyph unicode="&#xe921;" glyph-name="book-bookmark" d="M853.333 661.333c0 6.656-1.835 12.8-4.523 18.432l0.256 0.128-82.261 170.667c-7.040 14.72-22.016 24.107-38.4 24.107h-429.739c-51.456 0-128-34.091-128-128v-597.333c0-93.909 76.544-128 128-128h512c23.595 0 42.667 19.072 42.667 42.667v597.333zM298.667 789.333h402.944l41.131-85.333h-443.563c-19.712 0.512-43.179 8.277-43.179 42.667s23.467 42.155 42.667 42.667zM768 106.667h-468.821c-19.712 0.512-43.179 8.277-43.179 42.667v469.333h256v-256l85.333 64 85.333-64v256h85.333v-512z" />
<glyph unicode="&#xe922;" glyph-name="bookmark" d="M170.667 64c0-15.189 8.064-29.269 21.248-36.907 13.184-7.595 29.355-7.68 42.581-0.128l277.504 158.592 277.504-158.592c6.528-3.755 13.867-5.632 21.163-5.632 7.424 0 14.805 1.92 21.419 5.76 13.184 7.637 21.248 21.717 21.248 36.907v768c0 23.595-19.072 42.667-42.667 42.667h-597.333c-23.595 0-42.667-19.072-42.667-42.667v-768zM256 789.333h512v-651.776l-234.837 134.187c-6.528 3.712-13.867 5.589-21.163 5.589s-14.635-1.877-21.163-5.632l-234.837-134.144v651.776z" />
<glyph unicode="&#xe923;" glyph-name="bookmark-minus" d="M341.333 576h341.333v-85.333h-341.333v85.333zM810.667 21.333c7.424 0 14.805 1.92 21.419 5.76 13.184 7.637 21.248 21.717 21.248 36.907v768c0 23.552-19.072 42.667-42.667 42.667h-597.333c-23.552 0-42.667-19.115-42.667-42.667v-768c0-15.189 8.107-29.269 21.248-36.907s29.355-7.68 42.581-0.128l277.504 158.549 277.504-158.549c6.528-3.755 13.867-5.632 21.163-5.632zM768 137.515l-234.837 134.187c-6.571 3.755-13.867 5.632-21.163 5.632s-14.592-1.877-21.163-5.632l-234.837-134.187v651.819h512v-651.819z" />
<glyph unicode="&#xe924;" glyph-name="bookmark-plus" d="M469.333 362.667h85.333v128h128v85.333h-128v128h-85.333v-128h-128v-85.333h128zM853.333 832c0 23.552-19.072 42.667-42.667 42.667h-597.333c-23.595 0-42.667-19.115-42.667-42.667v-768c0-15.189 8.064-29.269 21.248-36.907s29.355-7.68 42.581-0.128l277.504 158.549 277.504-158.549c6.528-3.755 13.867-5.632 21.163-5.632 7.424 0 14.805 1.92 21.419 5.76 13.184 7.637 21.248 21.717 21.248 36.907v768zM768 137.515l-234.837 134.187c-6.528 3.755-13.867 5.632-21.163 5.632s-14.635-1.877-21.163-5.632l-234.837-134.187v651.819h512v-651.819z" />
<glyph unicode="&#xe925;" glyph-name="bookmarks" d="M256 704c-23.595 0-42.667-19.072-42.667-42.667v-597.333c0-15.36 8.235-29.525 21.632-37.12s29.781-7.339 43.008 0.555l191.36 114.816 191.36-114.816c6.784-4.053 14.379-6.101 21.973-6.101 7.253 0 14.507 1.835 21.035 5.547 13.397 7.595 21.632 21.76 21.632 37.12v597.333c0 23.595-19.072 42.667-42.667 42.667h-426.667zM640 139.392l-148.693 89.216c-6.784 4.011-14.379 6.059-21.973 6.059s-15.189-2.048-21.973-6.101l-148.693-89.173v479.275h341.333v-479.275zM896 277.333v554.667c0 23.595-19.072 42.667-42.667 42.667h-426.667v-85.333h384v-512h85.333z" />
<glyph unicode="&#xe926;" glyph-name="briefcase" d="M896 661.333h-213.333v128c0 23.552-19.072 42.667-42.667 42.667h-256c-23.595 0-42.667-19.115-42.667-42.667v-128h-213.333c-11.349 0-22.187-4.48-30.165-12.459s-12.501-18.859-12.501-30.208v-469.333c0-23.552 19.072-42.667 42.667-42.667h768c23.595 0 42.667 19.115 42.667 42.667v469.333c0 23.552-19.072 42.667-42.667 42.667zM426.667 746.667h170.667v-85.333h-170.667v85.333zM341.333 576v0h512v-85.333h-682.667v85.333h170.667zM170.667 192v213.333h256v-85.333h170.667v85.333h256v-213.333h-682.667z" />
<glyph unicode="&#xe927;" glyph-name="broadcast" d="M840.832 225.835c149.333 149.333 149.333 401.664 0 550.997l-60.331-60.331c116.608-116.608 116.608-313.728 0-430.336l60.331-60.331zM712.832 353.835c40.277 40.235 62.507 92.672 62.507 147.499s-22.229 107.264-62.507 147.499l-60.331-60.331c24.149-24.149 37.504-55.125 37.504-87.168s-13.355-63.019-37.504-87.168l60.331-60.331zM264.832 716.501l-60.331 60.331c-149.333-149.333-149.333-401.664 0-550.997l60.331 60.331c-116.608 116.608-116.608 313.728 0 430.336zM311.168 648.832c-40.277-40.235-62.507-92.672-62.507-147.499s22.229-107.264 62.507-147.499l60.331 60.331c-24.149 24.149-37.504 55.125-37.504 87.168s13.355 63.019 37.504 87.168l-60.331 60.331zM554.667 64v374.485c25.429 14.805 42.667 41.984 42.667 73.515 0 47.104-38.229 85.333-85.333 85.333s-85.333-38.229-85.333-85.333c-0.043-31.488 17.237-58.752 42.667-73.515v-374.485h85.333z" />
<glyph unicode="&#xe928;" glyph-name="bug" d="M213.333 384c0-7.211 0.555-14.208 0.896-21.333h-43.563v-85.333h55.893c7.765-30.379 18.859-58.923 32.555-85.333h-88.448v-85.333h149.291c51.968-53.163 118.955-85.333 192.043-85.333s140.075 32.171 192.043 85.333h149.291v85.333h-88.405c13.653 26.411 24.789 54.955 32.555 85.333h55.851v85.333h-43.563c0.341 7.125 0.896 14.123 0.896 21.333 0 21.888-1.877 43.179-4.949 64h90.283v85.333h-112.128c-21.376 57.045-54.485 106.112-95.659 142.848l105.387 79.019-51.2 68.267-130.688-98.005c-31.275 13.483-64.725 21.205-99.712 21.205s-68.437-7.723-99.712-21.248l-130.688 98.048-51.2-68.267 105.387-79.061c-41.173-36.693-74.283-85.76-95.659-142.805h-112.128v-85.333h90.283c-3.072-20.821-4.949-42.112-4.949-64zM725.333 384c0-152.917-95.701-277.333-213.333-277.333s-213.333 124.416-213.333 277.333c0 22.059 2.219 43.435 5.973 64h414.763c3.712-20.565 5.931-41.941 5.931-64zM512 661.333c75.349 0 141.483-51.157 179.456-128h-358.912c37.973 76.843 104.107 128 179.456 128z" />
<glyph unicode="&#xe929;" glyph-name="building" d="M213.333 21.333h597.333c23.595 0 42.667 19.115 42.667 42.667v768c0 23.552-19.072 42.667-42.667 42.667h-597.333c-23.595 0-42.667-19.115-42.667-42.667v-768c0-23.552 19.072-42.667 42.667-42.667zM256 789.333h512v-682.667h-170.667v85.333h-170.667v-85.333h-170.667v682.667zM341.333 704h128v-85.333h-128v85.333zM554.667 704h128v-85.333h-128v85.333zM341.333 533.333h128v-85.333h-128v85.333zM554.667 532.011h128v-84.011h-128v84.011zM341.333 362.667h128v-85.333h-128v85.333zM554.667 362.667h128v-85.333h-128v85.333z" />
<glyph unicode="&#xe92a;" glyph-name="bulb" d="M384 106.667h256v-85.333h-256v85.333zM721.323 374.955c43.947 51.456 89.344 104.661 89.344 201.045 0 164.651-134.016 298.667-298.667 298.667s-298.667-134.016-298.667-298.667c0-97.493 45.525-150.528 89.643-201.813 15.275-17.835 31.104-36.309 46.251-57.557 8.619-12.416 25.173-74.112 35.456-132.096l6.229-35.2h242.133l6.272 35.157c10.368 58.027 27.008 119.893 35.584 132.309 15.061 21.461 31.019 40.107 46.421 58.155zM605.099 365.867c-18.517-26.325-33.963-88.533-42.923-131.2h-100.309c-8.917 42.752-24.405 105.088-43.136 131.413-17.365 24.405-35.243 45.269-51.029 63.659-41.557 48.384-69.035 80.384-69.035 146.261 0 117.632 95.701 213.333 213.333 213.333s213.333-95.701 213.333-213.333c0-64.896-27.435-97.024-68.907-145.621-15.915-18.688-33.963-39.808-51.328-64.512z" />
<glyph unicode="&#xe92b;" glyph-name="bullseye" d="M512 192c141.184 0 256 114.816 256 256s-114.816 256-256 256-256-114.816-256-256 114.816-256 256-256zM512 618.667c94.123 0 170.667-76.544 170.667-170.667s-76.544-170.667-170.667-170.667-170.667 76.544-170.667 170.667 76.544 170.667 170.667 170.667zM512 21.333c231.296 0 426.667 195.371 426.667 426.667s-195.371 426.667-426.667 426.667-426.667-195.371-426.667-426.667 195.371-426.667 426.667-426.667zM512 789.333c185.045 0 341.333-156.288 341.333-341.333s-156.288-341.333-341.333-341.333-341.333 156.288-341.333 341.333 156.288 341.333 341.333 341.333zM512 362.667c46.123 0 85.333 39.211 85.333 85.333s-39.211 85.333-85.333 85.333-85.333-39.211-85.333-85.333 39.211-85.333 85.333-85.333z" />
<glyph unicode="&#xe92c;" glyph-name="buoy" d="M512 874.667c-235.264 0-426.667-191.403-426.667-426.667s191.403-426.667 426.667-426.667 426.667 191.403 426.667 426.667-191.403 426.667-426.667 426.667zM828.203 576h-145.536v-1.323c-12.459 16.725-27.264 31.531-43.989 43.989h1.323v145.536c85.376-34.688 153.515-102.869 188.203-188.203zM512 320c-70.571 0-128 57.429-128 128s57.429 128 128 128 128-57.429 128-128-57.429-128-128-128zM554.667 786.389v-129.365c-13.781 2.816-28.032 4.309-42.667 4.309s-28.885-1.493-42.667-4.309v129.365c13.995 1.749 28.16 2.944 42.667 2.944s28.672-1.195 42.667-2.944zM384 764.203v-145.536h1.323c-16.725-12.459-31.531-27.264-43.989-43.989v1.323h-145.536c34.688 85.333 102.827 153.515 188.203 188.203zM173.611 490.667h129.365c-2.816-13.781-4.309-28.075-4.309-42.667s1.493-28.885 4.352-42.667h-129.408c-1.749 13.995-2.944 28.203-2.944 42.667s1.195 28.672 2.944 42.667zM195.797 320h145.536v1.323c12.117-16.256 26.496-30.635 42.667-42.88v-146.645c-85.376 34.688-153.515 102.869-188.203 188.203zM469.333 109.611v129.365c13.781-2.816 28.032-4.309 42.667-4.309s28.885 1.493 42.667 4.309v-129.365c-13.995-1.749-28.16-2.944-42.667-2.944s-28.672 1.195-42.667 2.944zM640 131.797v146.645c16.171 12.245 30.549 26.624 42.667 42.88v-1.323h145.536c-34.688-85.333-102.827-153.515-188.203-188.203zM850.389 405.333h-129.365c2.816 13.781 4.309 28.075 4.309 42.667s-1.493 28.885-4.352 42.667h129.365c1.792-13.995 2.987-28.203 2.987-42.667s-1.195-28.672-2.944-42.667z" />
<glyph unicode="&#xe92d;" glyph-name="calculator" d="M170.624 832v-768c0-23.595 19.072-42.667 42.667-42.667h597.333c23.595 0 42.667 19.072 42.667 42.667v768c0 23.552-19.072 42.667-42.667 42.667h-597.333c-23.595 0-42.667-19.115-42.667-42.667zM255.957 789.333h512v-682.667h-512v682.667zM341.291 704h341.333v-85.333h-341.333v85.333zM341.291 533.333h85.333v-85.333h-85.333v85.333zM469.291 533.333h85.333v-85.333h-85.333v85.333zM341.291 405.333h85.333v-85.333h-85.333v85.333zM469.291 405.333h85.333v-85.333h-85.333v85.333zM341.291 277.333h85.333v-85.333h-85.333v85.333zM469.291 277.333h85.333v-85.333h-85.333v85.333zM597.291 533.333h85.333v-85.333h-85.333v85.333zM597.291 405.333h85.333v-213.333h-85.333v213.333z" />
<glyph unicode="&#xe92e;" glyph-name="calendar" d="M128 21.333h768c23.595 0 42.667 19.115 42.667 42.667v682.667c0 23.552-19.072 42.667-42.667 42.667h-170.667v85.333h-85.333v-85.333h-256v85.333h-85.333v-85.333h-170.667c-23.595 0-42.667-19.115-42.667-42.667v-682.667c0-23.552 19.072-42.667 42.667-42.667zM170.667 106.667v426.667h682.667v-426.667h-682.667zM298.667 704v-42.667h85.333v42.667h256v-42.667h85.333v42.667h128v-85.333h-682.667v85.333h128zM298.667 448h85.333v-85.333h-85.333v85.333zM298.667 277.333h85.333v-85.333h-85.333v85.333zM469.333 448h85.333v-85.333h-85.333v85.333zM469.333 277.333h85.333v-85.333h-85.333v85.333zM640 448h85.333v-85.333h-85.333v85.333zM640 277.333h85.333v-85.333h-85.333v85.333z" />
<glyph unicode="&#xe92f;" glyph-name="calendar-add" d="M810.667 362.667h-85.333v-128h-128v-85.333h128v-128h85.333v128h128v85.333h-128zM896 789.333h-170.667v85.333h-85.333v-85.333h-256v85.333h-85.333v-85.333h-170.667c-23.595 0-42.667-19.072-42.667-42.667v-682.667c0-23.595 19.072-42.667 42.667-42.667h426.667v85.333h-384v426.667h682.667v-127.957h85.333v341.291c0 23.595-19.072 42.667-42.667 42.667zM170.667 618.667v85.333h128v-42.667h85.333v42.667h256v-42.667h85.333v42.667h128v-85.333h-682.667zM298.667 448h85.333v-85.333h-85.333v85.333zM298.667 277.333h85.333v-85.333h-85.333v85.333zM469.333 448h85.333v-85.333h-85.333v85.333z" />
<glyph unicode="&#xe930;" glyph-name="calendar-alt" d="M896 789.333h-170.667v85.333h-85.333v-85.333h-256v85.333h-85.333v-85.333h-170.667c-23.595 0-42.667-19.072-42.667-42.667v-682.667c0-23.595 19.072-42.667 42.667-42.667h768c23.595 0 42.667 19.072 42.667 42.667v682.667c0 23.595-19.072 42.667-42.667 42.667zM298.667 704v-42.667h85.333v42.667h256v-42.667h85.333v42.667h128v-85.333h-682.667v85.333h128zM170.667 106.667v426.667h682.667v-426.667h-682.667z" />
<glyph unicode="&#xe931;" glyph-name="calendar-check" d="M170.667 533.333h682.667v-170.24h85.333v383.573c0 23.595-19.072 42.667-42.667 42.667h-170.667v85.333h-85.333v-85.333h-256v85.333h-85.333v-85.333h-170.667c-23.595 0-42.667-19.072-42.667-42.667v-682.667c0-23.595 19.072-42.667 42.667-42.667h426.667v85.333h-384v426.667zM298.667 704v-42.667h85.333v42.667h256v-42.667h85.333v42.667h128v-85.333h-682.667v85.333h128zM298.667 448h85.333v-85.333h-85.333v85.333zM298.667 277.333h85.333v-85.333h-85.333v85.333zM469.333 448h85.333v-85.333h-85.333v85.333zM725.333 124.331l-55.168 55.168-60.331-60.331 115.499-115.499 243.499 243.499-60.331 60.331z" />
<glyph unicode="&#xe932;" glyph-name="calendar-minus" d="M597.333 234.667h341.333v-85.333h-341.333v85.333zM896 789.333h-170.667v85.333h-85.333v-85.333h-256v85.333h-85.333v-85.333h-170.667c-23.595 0-42.667-19.072-42.667-42.667v-682.667c0-23.595 19.072-42.667 42.667-42.667h426.667v85.333h-384v426.667h682.667v-213.035h85.333v426.368c0 23.595-19.072 42.667-42.667 42.667zM170.667 618.667v85.333h128v-42.667h85.333v42.667h256v-42.667h85.333v42.667h128v-85.333h-682.667zM298.667 448h85.333v-85.333h-85.333v85.333zM298.667 277.333h85.333v-85.333h-85.333v85.333zM469.333 448h85.333v-85.333h-85.333v85.333z" />
<glyph unicode="&#xe933;" glyph-name="calendar-remove" d="M865.835 350.165l-97.835-97.835-97.835 97.835-60.331-60.331 97.835-97.835-97.835-97.835 60.331-60.331 97.835 97.835 97.835-97.835 60.331 60.331-97.835 97.835 97.835 97.835zM896 789.333h-170.667v85.333h-85.333v-85.333h-256v85.333h-85.333v-85.333h-170.667c-23.595 0-42.667-19.072-42.667-42.667v-682.667c0-23.595 19.072-42.667 42.667-42.667h426.667v85.333h-384v426.667h682.667v-127.531h85.333v340.864c0 23.595-19.072 42.667-42.667 42.667zM170.667 618.667v85.333h128v-42.667h85.333v42.667h256v-42.667h85.333v42.667h128v-85.333h-682.667zM298.667 448h85.333v-85.333h-85.333v85.333zM298.667 277.333h85.333v-85.333h-85.333v85.333zM469.333 448h85.333v-85.333h-85.333v85.333z" />
<glyph unicode="&#xe934;" glyph-name="camera" d="M512 618.667c-92.501 0-170.667-78.165-170.667-170.667s78.165-170.667 170.667-170.667 170.667 78.165 170.667 170.667c0 92.501-78.165 170.667-170.667 170.667zM512 362.667c-45.44 0-85.333 39.893-85.333 85.333s39.893 85.333 85.333 85.333 85.333-39.893 85.333-85.333-39.893-85.333-85.333-85.333zM128 106.667h768c23.595 0 42.667 19.072 42.667 42.667v512c0 23.552-19.072 42.667-42.667 42.667h-153.003l-115.499 115.499c-7.979 8.021-18.816 12.501-30.165 12.501h-170.667c-11.349 0-22.187-4.48-30.165-12.501l-115.499-115.499h-153.003c-23.595 0-42.667-19.115-42.667-42.667v-512c0-23.595 19.072-42.667 42.667-42.667zM170.667 618.667h128c11.349 0 22.187 4.48 30.165 12.501l115.499 115.499h135.339l115.499-115.499c7.979-8.021 18.816-12.501 30.165-12.501h128v-426.667h-682.667v426.667z" />
<glyph unicode="&#xe935;" glyph-name="camera-off" d="M896 704h-153.003l-115.499 115.499c-7.979 8.021-18.816 12.501-30.165 12.501h-170.667c-11.307 0-22.187-4.48-30.165-12.501l-25.003-25.003 60.331-60.331 12.501 12.501h135.339l115.499-115.499c7.979-8.021 18.816-12.501 30.165-12.501h128v-306.005l85.333-85.333v434.005c0 23.552-19.072 42.667-42.667 42.667zM128 106.667h665.003l72.832-72.832 60.331 60.331-768 768-60.331-60.331 97.835-97.835h-67.669c-23.552 0-42.667-19.115-42.667-42.667v-512c0-23.552 19.115-42.667 42.667-42.667zM430.037 469.632l103.595-103.595c-6.955-2.091-14.165-3.371-21.632-3.371-45.44 0-85.333 39.893-85.333 85.333 0 7.467 1.28 14.677 3.371 21.632zM170.667 618.667h110.336l85.205-85.205c-15.36-25.344-24.875-54.357-24.875-85.461 0-92.501 78.165-170.667 170.667-170.667 31.104 0 60.117 9.515 85.461 24.875l110.208-110.208h-537.003v426.667z" />
<glyph unicode="&#xe936;" glyph-name="captions" d="M938.624 149.333v597.333c0 23.595-19.072 42.667-42.667 42.667h-767.915c-23.595 0-42.667-19.072-42.667-42.667v-597.333c0-23.595 19.072-42.667 42.667-42.667h767.915c23.595 0 42.667 19.072 42.667 42.667zM853.291 192h-682.581v512h682.581v-512zM298.667 277.333h170.667v85.333h-128v170.667h128v85.333h-170.667c-23.595 0-42.667-19.072-42.667-42.667v-256c0-23.595 19.072-42.667 42.667-42.667zM597.333 277.333h170.667v85.333h-128v170.667h128v85.333h-170.667c-23.595 0-42.667-19.072-42.667-42.667v-256c0-23.595 19.072-42.667 42.667-42.667z" />
<glyph unicode="&#xe937;" glyph-name="cart" d="M344.661 260.907c6.613-15.872 22.144-26.24 39.381-26.24h383.957c17.792 0 33.707 11.051 39.979 27.648l128 341.333c4.907 13.141 3.072 27.776-4.864 39.296-8.021 11.52-21.12 18.389-35.115 18.389h-625.792l-60.16 144.427c-6.613 15.872-22.144 26.24-39.381 26.24h-85.333v-85.333h56.875l202.453-485.76zM834.432 576l-96-256h-325.973l-106.667 256h528.64zM512 85.333c0-35.346-28.654-64-64-64s-64 28.654-64 64c0 35.346 28.654 64 64 64s64-28.654 64-64zM765.355 85.333c0-35.346-28.654-64-64-64s-64 28.654-64 64c0 35.346 28.654 64 64 64s64-28.654 64-64z" />
<glyph unicode="&#xe938;" glyph-name="cast" d="M85.333 533.333v-85.333c211.712 0 384-172.288 384-384.043h85.333c0 258.816-210.56 469.376-469.333 469.376zM298.667 63.957h85.333c0 164.693-133.973 298.709-298.667 298.709v-85.333c117.632 0 213.333-95.701 213.333-213.376zM213.333 128c0-35.346-28.654-64-64-64s-64 28.654-64 64c0 35.346 28.654 64 64 64s64-28.654 64-64zM896 789.333h-768c-23.552 0-42.667-19.072-42.667-42.667v-128h85.333v85.333h682.667v-554.667h-213.333v-85.333h256c23.595 0 42.667 19.072 42.667 42.667v640c0 23.595-19.072 42.667-42.667 42.667z" />
<glyph unicode="&#xe939;" glyph-name="chart" d="M170.667 64h682.667c23.595 0 42.667 19.115 42.667 42.667v682.667c0 23.552-19.072 42.667-42.667 42.667h-682.667c-23.595 0-42.667-19.115-42.667-42.667v-682.667c0-23.552 19.072-42.667 42.667-42.667zM213.333 746.667h597.333v-597.333h-597.333v597.333zM426.667 550.997l-128-128v-120.661l128 128 106.709-106.709 191.957 192.299v120.832l-192.043-192.384z" />
<glyph unicode="&#xe93a;" glyph-name="check" d="M414.165 204.501l426.667 426.667-60.331 60.331-396.501-396.501-183.168 183.168-60.331-60.331 213.333-213.333c8.32-8.32 19.243-12.501 30.165-12.501s21.845 4.181 30.165 12.501z" />
<glyph unicode="&#xe93b;" glyph-name="checkbox" d="M256 746.667c-23.595 0-42.667-19.072-42.667-42.667v-512c0-23.595 19.072-42.667 42.667-42.667h512c23.595 0 42.667 19.072 42.667 42.667v512c0 23.595-19.072 42.667-42.667 42.667h-512zM725.333 234.667h-426.667v426.667h426.667v-426.667z" />
<glyph unicode="&#xe93c;" glyph-name="checkbox-checked" d="M256 149.333h512c23.595 0 42.667 19.072 42.667 42.667v409.003l115.499 115.499-60.331 60.331-353.835-353.835-97.835 97.835-60.331-60.331 158.165-158.165 213.333 213.333v-281.003h-426.667v426.667h306.005l85.333 85.333h-434.005c-23.595 0-42.667-19.072-42.667-42.667v-512c0-23.595 19.072-42.667 42.667-42.667z" />
<glyph unicode="&#xe93d;" glyph-name="checkbox-square" d="M256 746.667c-23.595 0-42.667-19.072-42.667-42.667v-512c0-23.595 19.072-42.667 42.667-42.667h512c23.595 0 42.667 19.072 42.667 42.667v512c0 23.595-19.072 42.667-42.667 42.667h-512zM725.333 234.667h-426.667v426.667h426.667v-426.667zM384 576h256v-256h-256v256z" />
<glyph unicode="&#xe93e;" glyph-name="chevron-down" d="M695.168 563.499l-183.168-183.168-183.168 183.168-60.331-60.331 243.499-243.499 243.499 243.499z" />
<glyph unicode="&#xe93f;" glyph-name="chevron-left" d="M567.168 691.499l-243.499-243.499 243.499-243.499 60.331 60.331-183.168 183.168 183.168 183.168z" />
<glyph unicode="&#xe940;" glyph-name="chevron-right" d="M456.832 204.501l243.499 243.499-243.499 243.499-60.331-60.331 183.168-183.168-183.168-183.168z" />
<glyph unicode="&#xe941;" glyph-name="chevrons-down" d="M328.832 478.165l-60.331-60.331 243.499-243.499 243.499 243.499-60.331 60.331-183.168-183.168zM695.168 691.499l-183.168-183.168-183.168 183.168-60.331-60.331 243.499-243.499 243.499 243.499z" />
<glyph unicode="&#xe942;" glyph-name="chevrons-left" d="M542.165 631.168l-60.331 60.331-243.499-243.499 243.499-243.499 60.331 60.331-183.168 183.168zM695.168 691.499l-243.499-243.499 243.499-243.499 60.331 60.331-183.168 183.168 183.168 183.168z" />
<glyph unicode="&#xe943;" glyph-name="chevrons-right" d="M439.296 631.040l184.533-183.040-184.533-183.040 60.075-60.587 245.632 243.627-245.632 243.627zM286.037 204.373l245.632 243.627-245.632 243.627-60.075-60.587 184.533-183.040-184.533-183.040z" />
<glyph unicode="&#xe944;" glyph-name="chevrons-up" d="M512 721.664l-243.499-243.499 60.331-60.331 183.168 183.168 183.168-183.168 60.331 60.331zM268.501 264.832l60.331-60.331 183.168 183.168 183.168-183.168 60.331 60.331-243.499 243.499z" />
<glyph unicode="&#xe945;" glyph-name="chevron-up" d="M512 636.331l-243.499-243.499 60.331-60.331 183.168 183.168 183.168-183.168 60.331 60.331z" />
<glyph unicode="&#xe946;" glyph-name="chip" d="M853.333 746.667c0 23.595-19.072 42.667-42.667 42.667h-85.333v85.333h-85.333v-85.333h-85.333v85.333h-85.333v-85.333h-85.333v85.333h-85.333v-85.333h-85.333c-23.595 0-42.667-19.072-42.667-42.667v-85.333h-85.333v-85.333h85.333v-85.333h-85.333v-85.333h85.333v-85.333h-85.333v-85.333h85.333v-85.333c0-23.595 19.072-42.667 42.667-42.667h85.333v-85.333h85.333v85.333h85.333v-85.333h85.333v85.333h85.333v-85.333h85.333v85.333h85.333c23.595 0 42.667 19.072 42.667 42.667v85.333h85.333v85.333h-85.333v85.333h85.333v85.333h-85.333v85.333h85.333v85.333h-85.333v85.333zM768 192h-512v512h512v-512zM426.667 533.333h170.667v-170.667h-170.667v170.667z" />
<glyph unicode="&#xe947;" glyph-name="chrome" d="M512 874.667c-231.253 0-426.667-195.371-426.667-426.667s195.413-426.667 426.667-426.667c231.296 0 426.667 195.371 426.667 426.667s-195.371 426.667-426.667 426.667zM512 789.333c105.131 0 200.832-50.517 264.021-128h-264.021c-78.123 0-145.877-42.709-183.040-105.557l-57.472 131.797c62.251 62.464 147.755 101.76 240.512 101.76zM640 448c0-41.344-21.077-78.592-52.608-102.144l-0.981 0.811-3.712-4.608c-20.437-13.867-44.8-22.059-70.699-22.059-69.376 0-128 58.624-128 128s58.624 128 128 128 128-58.624 128-128zM170.667 448c0 57.813 15.275 112.896 41.941 161.195l89.643-205.483 1.067 0.469c19.328-92.117 98.475-161.664 194.645-168.064l-89.899-112.384c-136.064 45.141-237.397 175.317-237.397 324.267zM512 106.667c-2.688 0-5.291 0.341-7.979 0.427l139.264 174.037c49.536 39.083 82.048 98.987 82.048 166.869 0 48.213-16.683 92.245-43.733 128h145.707c16.64-39.765 26.027-82.987 26.027-128 0-185.045-156.288-341.333-341.333-341.333z" />
<glyph unicode="&#xe948;" glyph-name="clipboard" d="M810.667 789.333h-128v42.667c0 23.595-19.072 42.667-42.667 42.667h-256c-23.595 0-42.667-19.072-42.667-42.667v-42.667h-128c-23.595 0-42.667-19.072-42.667-42.667v-682.667c0-23.595 19.072-42.667 42.667-42.667h597.333c23.595 0 42.667 19.072 42.667 42.667v682.667c0 23.595-19.072 42.667-42.667 42.667zM426.667 789.333h170.667v-85.333h-170.667v85.333zM768 106.667h-512v597.333h85.333v-42.667c0-23.595 19.072-42.667 42.667-42.667h256c23.595 0 42.667 19.072 42.667 42.667v42.667h85.333v-597.333z" />
<glyph unicode="&#xe949;" glyph-name="cloud" d="M808.277 485.888c-18.645 146.859-144.384 260.779-296.277 260.779-117.589 0-219.733-68.736-266.368-177.067-91.648-27.392-160.299-113.92-160.299-206.933 0-117.632 95.701-213.333 213.333-213.333h469.333c94.123 0 170.667 76.544 170.667 170.667 0 80.213-55.68 147.712-130.389 165.888zM768 234.667h-469.333c-70.571 0-128 57.429-128 128 0 59.904 51.157 117.589 114.048 128.64l24.789 4.352 8.192 23.808c29.995 87.509 104.491 141.867 194.304 141.867 117.632 0 213.333-95.701 213.333-213.333v-42.667h42.667c47.061 0 85.333-38.272 85.333-85.333s-38.272-85.333-85.333-85.333z" />
<glyph unicode="&#xe94a;" glyph-name="cloud-download" d="M469.333 490.667v-170.667h-128l170.667-170.667 170.667 170.667h-128v170.667zM298.667 149.333h85.333l-85.333 85.333c-70.571 0-128 57.429-128 128 0 59.904 51.157 117.589 114.048 128.64l24.789 4.352 8.192 23.808c29.995 87.509 104.491 141.867 194.304 141.867 117.632 0 213.333-95.701 213.333-213.333v-42.667h42.667c47.061 0 85.333-38.229 85.333-85.333 0-47.061-38.272-85.333-85.333-85.333h-42.667l-85.333-85.333h128c94.123 0 170.667 76.544 170.667 170.667 0 80.256-55.68 147.712-130.389 165.888-18.645 146.859-144.384 260.779-296.277 260.779-117.589 0-219.733-68.736-266.368-177.067-91.648-27.392-160.299-113.92-160.299-206.933 0-117.632 95.701-213.333 213.333-213.333z" />
<glyph unicode="&#xe94b;" glyph-name="cloud-drizzle" d="M341.333 448h85.333v-128h-85.333v128zM341.333 277.333h85.333v-128h-85.333v128zM469.333 362.667h85.333v-128h-85.333v128zM469.333 192h85.333v-128h-85.333v128zM597.333 448h85.333v-128h-85.333v128zM597.333 277.333h85.333v-128h-85.333v128zM808.277 571.221c-18.645 146.859-144.384 260.779-296.277 260.779-117.547 0-219.733-68.736-266.368-177.067-91.648-27.392-160.299-113.877-160.299-206.933 0-117.632 95.701-213.333 213.333-213.333v85.333c-70.571 0-128 57.429-128 128 0 59.861 51.157 117.589 114.048 128.64l24.832 4.395 8.149 23.851c29.995 87.467 104.491 141.781 194.304 141.781 117.632 0 213.333-95.701 213.333-213.333v-42.667h42.667c47.061 0 85.333-38.272 85.333-85.333s-38.272-85.333-85.333-85.333h-42.667v-85.333h42.667c94.123 0 170.667 76.544 170.667 170.667 0 80.256-55.68 147.712-130.389 165.888z" />
<glyph unicode="&#xe94c;" glyph-name="cloud-lightning" d="M426.667 448l-42.667-213.333h85.333v-170.667l169.6 256h-84.267l42.667 128zM808.277 571.221c-18.645 146.859-144.384 260.779-296.277 260.779-117.589 0-219.733-68.736-266.368-177.067-91.648-27.392-160.299-113.877-160.299-206.933 0-117.632 95.701-213.333 213.333-213.333v85.333c-70.571 0-128 57.429-128 128 0 59.861 51.157 117.589 114.048 128.64l24.789 4.395 8.192 23.851c29.995 87.467 104.491 141.781 194.304 141.781 117.632 0 213.333-95.701 213.333-213.333v-42.667h42.667c47.061 0 85.333-38.272 85.333-85.333s-38.272-85.333-85.333-85.333h-42.667v-85.333h42.667c94.123 0 170.667 76.544 170.667 170.667 0 80.256-55.68 147.712-130.389 165.888z" />
<glyph unicode="&#xe94d;" glyph-name="cloud-light-rain" d="M341.333 448h85.333v-170.667h-85.333v170.667zM341.333 234.667h85.333v-85.333h-85.333v85.333zM469.333 362.667h85.333v-170.667h-85.333v170.667zM469.333 149.333h85.333v-85.333h-85.333v85.333zM597.333 448h85.333v-170.667h-85.333v170.667zM597.333 234.667h85.333v-85.333h-85.333v85.333zM808.277 571.221c-18.645 146.859-144.384 260.779-296.277 260.779-117.589 0-219.733-68.736-266.368-177.067-91.648-27.392-160.299-113.877-160.299-206.933 0-117.632 95.701-213.333 213.333-213.333v85.333c-70.571 0-128 57.429-128 128 0 59.861 51.157 117.589 114.048 128.64l24.789 4.395 8.192 23.851c29.995 87.467 104.491 141.781 194.304 141.781 117.632 0 213.333-95.701 213.333-213.333v-42.667h42.667c47.061 0 85.333-38.272 85.333-85.333s-38.272-85.333-85.333-85.333h-42.667v-85.333h42.667c94.123 0 170.667 76.544 170.667 170.667 0 80.256-55.68 147.712-130.389 165.888z" />
<glyph unicode="&#xe94e;" glyph-name="cloud-rain" d="M341.333 447.957h85.333v-298.667h-85.333v298.667zM469.333 362.667h85.333v-298.667h-85.333v298.667zM597.333 447.957h85.333v-298.667h-85.333v298.667zM808.277 571.179c-18.645 146.859-144.384 260.779-296.277 260.779-117.589 0-219.733-68.736-266.368-177.067-91.648-27.392-160.299-113.877-160.299-206.933 0-117.632 95.701-213.333 213.333-213.333v85.333c-70.571 0-128 57.429-128 128 0 59.861 51.157 117.589 114.048 128.64l24.789 4.395 8.192 23.851c29.995 87.467 104.491 141.781 194.304 141.781 117.632 0 213.333-95.701 213.333-213.333v-42.667h42.667c47.061 0 85.333-38.272 85.333-85.333s-38.272-85.333-85.333-85.333h-42.667v-85.333h42.667c94.123 0 170.667 76.544 170.667 170.667 0 80.256-55.68 147.712-130.389 165.888z" />
<glyph unicode="&#xe94f;" glyph-name="cloud-snow" d="M808.277 571.221c-18.645 146.859-144.384 260.779-296.277 260.779-117.589 0-219.733-68.736-266.368-177.067-91.648-27.392-160.299-113.877-160.299-206.933 0-117.632 95.701-213.333 213.333-213.333v85.333c-70.571 0-128 57.429-128 128 0 59.861 51.157 117.589 114.048 128.64l24.789 4.395 8.192 23.851c29.995 87.467 104.491 141.781 194.304 141.781 117.632 0 213.333-95.701 213.333-213.333v-42.667h42.667c47.061 0 85.333-38.272 85.333-85.333s-38.272-85.333-85.333-85.333h-42.667v-85.333h42.667c94.123 0 170.667 76.544 170.667 170.667 0 80.256-55.68 147.712-130.389 165.888zM426.923 320.128c0-23.635-19.16-42.795-42.795-42.795s-42.795 19.16-42.795 42.795c0 23.635 19.16 42.795 42.795 42.795s42.795-19.16 42.795-42.795zM554.667 234.539c0-23.635-19.16-42.795-42.795-42.795s-42.795 19.16-42.795 42.795c0 23.635 19.16 42.795 42.795 42.795s42.795-19.16 42.795-42.795zM554.795 106.667c0-23.635-19.16-42.795-42.795-42.795s-42.795 19.16-42.795 42.795c0 23.635 19.16 42.795 42.795 42.795s42.795-19.16 42.795-42.795zM682.539 319.872c0-23.635-19.16-42.795-42.795-42.795s-42.795 19.16-42.795 42.795c0 23.635 19.16 42.795 42.795 42.795s42.795-19.16 42.795-42.795zM682.667 192c0-23.635-19.16-42.795-42.795-42.795s-42.795 19.16-42.795 42.795c0 23.635 19.16 42.795 42.795 42.795s42.795-19.16 42.795-42.795zM426.923 191.872c0-23.635-19.16-42.795-42.795-42.795s-42.795 19.16-42.795 42.795c0 23.635 19.16 42.795 42.795 42.795s42.795-19.16 42.795-42.795z" />
<glyph unicode="&#xe950;" glyph-name="cloud-upload" d="M554.667 149.333v170.667h128l-170.667 170.667-170.667-170.667h128v-170.667zM298.667 149.333h85.333v85.333h-85.333c-70.571 0-128 57.429-128 128 0 59.904 51.157 117.589 114.048 128.64l24.789 4.352 8.192 23.808c29.995 87.509 104.491 141.867 194.304 141.867 117.632 0 213.333-95.701 213.333-213.333v-42.667h42.667c47.061 0 85.333-38.272 85.333-85.333s-38.272-85.333-85.333-85.333h-128v-85.333h128c94.123 0 170.667 76.544 170.667 170.667 0 80.213-55.68 147.712-130.389 165.888-18.645 146.859-144.384 260.779-296.277 260.779-117.589 0-219.733-68.736-266.368-177.067-91.648-27.392-160.299-113.92-160.299-206.933 0-117.632 95.701-213.333 213.333-213.333z" />
<glyph unicode="&#xe951;" glyph-name="code" d="M353.835 691.499l-243.499-243.499 243.499-243.499 60.331 60.331-183.168 183.168 183.168 183.168zM670.165 204.501l243.499 243.499-243.499 243.499-60.331-60.331 183.168-183.168-183.168-183.168z" />
<glyph unicode="&#xe952;" glyph-name="code-curly" d="M810.667 618.667c0 202.069-139.477 255.829-213.248 256l-0.555-85.333c13.141-0.256 128.469-7.381 128.469-170.667 0-85.035 35.456-138.496 80.085-170.667-44.629-32.171-80.085-85.632-80.085-170.667 0-163.285-115.328-170.411-128.469-170.667l0.469-42.667 0.085-42.667c73.771 0.171 213.248 53.931 213.248 256 0 120.448 106.837 127.744 128 128l0.256 85.333c-21.419 0.256-128.256 7.552-128.256 128zM213.333 277.333c0-202.069 139.477-255.829 213.248-256l0.555 85.333c-13.141 0.256-128.469 7.381-128.469 170.667 0 85.035-35.456 138.496-80.085 170.667 44.629 32.171 80.085 85.632 80.085 170.667 0 163.285 115.328 170.411 128.469 170.667l-0.469 42.667-0.085 42.667c-73.771-0.171-213.248-53.931-213.248-256 0-120.448-106.837-127.744-128-128l-0.256-85.333c21.419-0.256 128.256-7.552 128.256-128z" />
<glyph unicode="&#xe953;" glyph-name="codepen" d="M919.68 611.499l-384 256c-14.336 9.6-32.981 9.6-47.317 0l-384-256c-11.904-7.936-19.029-21.248-19.029-35.499v-256c0-14.251 7.125-27.563 18.987-35.499l384-256c7.168-4.779 15.445-7.168 23.68-7.168s16.512 2.389 23.68 7.168l384 256c11.861 7.936 18.987 21.248 18.987 35.499v256c0 14.251-7.125 27.563-18.987 35.499zM853.333 399.701l-72.405 48.299 72.405 48.299v-96.597zM704 499.285l-149.333 99.541v153.429l264.405-176.256-115.072-76.715zM512 371.285l-115.072 76.715 115.072 76.715 115.072-76.715-115.072-76.715zM469.333 752.256v-153.429l-149.333-99.541-115.072 76.715 264.405 176.256zM170.667 496.299l72.405-48.299-72.405-48.299v96.597zM320 396.715l149.333-99.541v-153.429l-264.405 176.256 115.072 76.715zM554.667 143.744v153.429l149.333 99.541 115.072-76.715-264.405-176.256z" />
<glyph unicode="&#xe954;" glyph-name="coffee" d="M170.667 277.333c0-23.595 19.072-42.667 42.667-42.667h512c23.595 0 42.667 19.072 42.667 42.667v128h128c23.595 0 42.667 19.072 42.667 42.667v213.333c0 23.595-19.072 42.667-42.667 42.667h-128v85.333c0 23.595-19.072 42.667-42.667 42.667h-512c-23.595 0-42.667-19.072-42.667-42.667v-512zM853.333 618.667v-128h-85.333v128h85.333zM256 746.667h426.667v-426.667h-426.667v426.667zM170.667 149.333h597.333v-85.333h-597.333v85.333z" />
<glyph unicode="&#xe955;" glyph-name="cog" d="M896 576h-67.413c-0.725 1.792-1.451 3.541-2.176 5.333l47.701 47.744c8.021 8.021 12.501 18.859 12.501 30.165s-4.48 22.187-12.501 30.165l-120.747 120.747c-7.979 7.936-18.816 12.459-30.165 12.459-0.043 0-0.043 0-0.085 0-11.349 0-22.187-4.523-30.165-12.587l-47.36-47.659c-1.877 0.811-3.712 1.579-5.589 2.304v67.328c0 23.552-19.072 42.667-42.667 42.667h-170.667c-23.595 0-42.667-19.115-42.667-42.667v-67.115c-1.92-0.725-3.84-1.536-5.76-2.347l-47.189 47.488c-8.021 8.021-18.859 12.544-30.165 12.587-0.043 0-0.043 0-0.085 0-11.349 0-22.187-4.48-30.165-12.501l-120.747-120.747c-8.021-7.979-12.501-18.859-12.501-30.165s4.48-22.187 12.501-30.165l47.488-47.488c-0.811-1.835-1.536-3.712-2.304-5.547h-67.072c-23.595 0-42.667-19.115-42.667-42.667v-170.667c0-23.552 19.072-42.667 42.667-42.667h67.243c0.725-1.792 1.451-3.584 2.261-5.419l-47.616-47.616c-8.021-8.021-12.501-18.859-12.501-30.165s4.48-22.187 12.501-30.165l120.747-120.747c16.683-16.683 43.648-16.683 60.331 0l47.744 47.701c1.749-0.725 3.499-1.451 5.291-2.176v-67.413c0-23.552 19.072-42.667 42.667-42.667h170.667c23.595 0 42.667 19.115 42.667 42.667v67.499c1.749 0.725 3.499 1.451 5.248 2.176l47.787-47.787c16.683-16.683 43.648-16.683 60.331 0l120.747 120.747c8.021 8.021 12.501 18.859 12.501 30.165s-4.48 22.187-12.501 30.165l-47.701 47.744c0.725 1.792 1.451 3.541 2.176 5.333h67.413c23.595 0 42.667 19.115 42.667 42.667v170.667c0 23.509-19.072 42.624-42.667 42.624zM853.333 405.333h-55.040c-18.859 0-35.541-12.416-40.917-30.507-5.163-17.451-11.691-33.28-20.011-48.427-9.088-16.64-6.144-37.248 7.296-50.645l38.955-38.955-60.416-60.416-38.955 38.955c-13.397 13.397-34.048 16.341-50.688 7.253-14.293-7.808-30.677-14.549-48.683-20.053-17.92-5.504-30.208-22.059-30.208-40.832v-55.040h-85.333v55.040c0 18.859-12.373 35.499-30.464 40.875-17.664 5.248-33.493 11.776-48.469 19.968-16.64 9.088-37.205 6.144-50.688-7.253l-38.912-38.912-60.416 60.416 38.955 38.955c13.397 13.397 16.384 34.005 7.296 50.645-9.003 16.469-15.488 32.043-19.797 47.659-5.12 18.475-21.931 31.275-41.131 31.275h-55.040v85.333h55.040c19.2 0 36.011 12.8 41.131 31.317 4.693 16.981 11.051 32.341 19.371 46.933 9.557 16.725 6.741 37.76-6.869 51.371l-38.955 38.912 60.331 60.331 38.528-38.784c13.227-13.312 35.456-16.299 51.84-6.997 14.635 8.363 29.995 14.72 46.976 19.413 18.475 5.12 31.275 21.931 31.275 41.131v55.040h85.333v-55.040c0-19.115 12.715-35.883 31.104-41.045 15.957-4.48 32.043-11.179 47.829-19.797 16.299-8.917 38.187-5.845 51.157 7.339l38.528 38.784 60.331-60.331-38.955-38.955c-13.397-13.397-16.384-34.005-7.296-50.645 8.277-15.147 14.848-30.976 20.011-48.427 5.376-18.133 22.059-30.549 40.917-30.549h55.040v-85.333zM511.872 618.88c-94.165 0-170.795-76.587-170.795-170.752s76.629-170.795 170.795-170.795 170.795 76.629 170.795 170.795-76.629 170.752-170.795 170.752zM511.872 362.667c-47.104 0-85.461 38.315-85.461 85.461 0 47.104 38.315 85.419 85.461 85.419s85.461-38.315 85.461-85.419c0-47.147-38.315-85.461-85.461-85.461z" />
<glyph unicode="&#xe956;" glyph-name="collapse" d="M426.667 533.333v170.667l-55.168-55.168-170.667 170.667-60.331-60.331 170.667-170.667-55.168-55.168zM200.832 76.501l170.667 170.667 55.168-55.168v170.667h-170.667l55.168-55.168-170.667-170.667zM597.333 192l55.168 55.168 170.667-170.667 60.331 60.331-170.667 170.667 55.168 55.168h-170.667zM823.168 819.499l-170.667-170.667-55.168 55.168v-170.667h170.667l-55.168 55.168 170.667 170.667z" />
<glyph unicode="&#xe957;" glyph-name="columns" d="M170.667 64h682.667c23.595 0 42.667 19.115 42.667 42.667v682.667c0 23.552-19.072 42.667-42.667 42.667h-682.667c-23.595 0-42.667-19.115-42.667-42.667v-682.667c0-23.552 19.072-42.667 42.667-42.667zM213.333 576h128v-426.667h-128v426.667zM597.333 576v-426.667h-170.667v426.667h170.667zM682.667 149.333v426.667h128v-426.667h-128zM810.667 746.667v-85.333h-597.333v85.333h597.333z" />
<glyph unicode="&#xe958;" glyph-name="compass" d="M512 874.667c-235.264 0-426.667-191.403-426.667-426.667s191.403-426.667 426.667-426.667 426.667 191.403 426.667 426.667-191.403 426.667-426.667 426.667zM512 106.667c-188.203 0-341.333 153.131-341.333 341.333s153.131 341.333 341.333 341.333 341.333-153.131 341.333-341.333-153.131-341.333-341.333-341.333zM341.333 277.333l255.616 85.717 85.717 255.616-256-85.333z" />
<glyph unicode="&#xe959;" glyph-name="contact" d="M896 874.667h-679.979c-23.595 0-42.667-19.072-42.667-42.667v-170.667h-88.021v-85.333h88.021v-85.333h-88.021v-85.333h88.021v-85.333h-88.021v-85.333h88.021v-170.667c0-23.595 19.072-42.667 42.667-42.667h679.979c23.595 0 42.667 19.072 42.667 42.667v768c0 23.595-19.072 42.667-42.667 42.667zM853.333 106.667h-594.645v682.667h594.645v-682.667zM554.667 405.333c115.541 0 128-119.339 128-170.667h85.333c0 105.259-36.907 182.997-100.096 223.787 22.187 26.027 36.096 59.392 36.096 96.213 0 82.347-66.987 149.333-149.333 149.333s-149.333-66.987-149.333-149.333c0-36.821 13.909-70.187 36.096-96.213-63.189-40.789-100.096-118.528-100.096-223.787h85.333c0 51.328 12.459 170.667 128 170.667zM490.667 554.667c0 35.285 28.715 64 64 64s64-28.715 64-64-28.715-64-64-64-64 28.715-64 64z" />
<glyph unicode="&#xe95a;" glyph-name="copy" d="M640 618.667h-512c-23.595 0-42.667-19.072-42.667-42.667v-512c0-23.595 19.072-42.667 42.667-42.667h512c23.595 0 42.667 19.072 42.667 42.667v512c0 23.595-19.072 42.667-42.667 42.667zM597.333 106.667h-426.667v426.667h426.667v-426.667zM896 874.667h-512c-23.595 0-42.667-19.072-42.667-42.667v-128h85.333v85.333h426.667v-426.667h-85.333v-85.333h128c23.595 0 42.667 19.072 42.667 42.667v512c0 23.595-19.072 42.667-42.667 42.667z" />
<glyph unicode="&#xe95b;" glyph-name="copyright" d="M512 21.333c231.296 0 426.667 195.371 426.667 426.667s-195.371 426.667-426.667 426.667-426.667-195.371-426.667-426.667 195.371-426.667 426.667-426.667zM512 789.333c185.045 0 341.333-156.288 341.333-341.333s-156.288-341.333-341.333-341.333-341.333 156.288-341.333 341.333 156.288 341.333 341.333 341.333zM512 234.667c38.443 0 110.123 7.168 158.165 55.125l-60.331 60.416c-18.901-18.901-55.509-30.208-97.835-30.208-69.376 0-128 58.624-128 128s58.624 128 128 128c42.368 0 78.976-11.307 97.835-30.165l60.331 60.331c-48 48-119.723 55.168-158.165 55.168-117.632 0-213.333-95.701-213.333-213.333s95.701-213.333 213.333-213.333z" />
<glyph unicode="&#xe95c;" glyph-name="credit-card" d="M896 789.333h-768c-23.595 0-42.667-19.072-42.667-42.667v-597.333c0-23.595 19.072-42.667 42.667-42.667h768c23.595 0 42.667 19.072 42.667 42.667v597.333c0 23.595-19.072 42.667-42.667 42.667zM853.333 704v-85.333h-682.667v85.333h682.667zM170.667 192v256h682.667v-256h-682.667zM256 362.667h256v-85.333h-256v85.333z" />
<glyph unicode="&#xe95d;" glyph-name="crop" d="M341.333 874.667h-85.333v-170.667h-170.667v-85.333h170.667v-384c0-23.552 19.072-42.667 42.667-42.667h384v-170.667h85.333v170.667h170.667v85.333h-597.333v597.333zM768 362.667v298.667c0 23.552-19.072 42.667-42.667 42.667h-298.667v-85.333h256v-256h85.333z" />
<glyph unicode="&#xe95e;" glyph-name="crosshair" d="M512 874.667c-235.264 0-426.667-191.403-426.667-426.667s191.403-426.667 426.667-426.667 426.667 191.403 426.667 426.667-191.403 426.667-426.667 426.667zM554.667 109.611v125.056h-85.333v-125.056c-154.069 19.328-276.395 141.653-295.723 295.723h125.056v85.333h-125.056c19.328 154.069 141.653 276.395 295.723 295.723v-125.056h85.333v125.056c154.069-19.328 276.395-141.611 295.723-295.723h-125.056v-85.333h125.056c-19.328-154.069-141.653-276.395-295.723-295.723z" />
<glyph unicode="&#xe95f;" glyph-name="crown" d="M478.677 816l-137.344-171.691-137.344 171.691c-11.349 14.165-30.421 19.584-47.445 13.611-17.067-6.016-28.544-22.144-28.544-40.277v-682.667c0-23.552 19.072-42.667 42.667-42.667h682.667c23.595 0 42.667 19.115 42.667 42.667v682.667c0 18.133-11.477 34.261-28.544 40.277-17.067 5.888-36.096 0.512-47.445-13.611l-137.344-171.691-137.344 171.691c-16.256 20.224-50.389 20.224-66.645 0zM810.667 149.333h-597.333v85.504l597.333-0.171v-85.333zM715.989 549.333l94.677 118.357v-347.691l-597.333 0.171v347.52l94.677-118.357c16.256-20.267 50.432-20.267 66.688 0l137.301 171.691 137.344-171.691c16.256-20.224 50.389-20.224 66.645 0z" />
<glyph unicode="&#xe960;" glyph-name="cube" d="M107.605 655.659c-0.085-0.085-0.256-0.128-0.427-0.213-1.749-0.981-3.157-2.389-4.693-3.627-1.28-1.024-2.688-1.877-3.84-2.987-1.536-1.536-2.645-3.328-3.925-5.077-0.939-1.237-2.048-2.347-2.816-3.712-1.195-2.048-1.963-4.309-2.773-6.528-0.469-1.28-1.152-2.389-1.493-3.669-0.981-3.584-1.493-7.339-1.493-11.179v-340.949c0-15.275 8.192-29.44 21.504-37.035l383.189-218.965c2.432-1.365 4.992-2.261 7.595-3.115 0.896-0.299 1.749-0.853 2.688-1.067 3.584-0.896 7.253-1.408 10.923-1.408s7.339 0.469 10.88 1.408c3.157 0.853 6.229 2.219 9.173 3.755 0.341 0.213 0.768 0.256 1.067 0.469h0.043c0.085 0.043 0.171 0.085 0.256 0.128s0.128 0.128 0.213 0.171l382.72 218.283c13.355 7.595 21.547 21.717 21.547 37.035v341.291c0 3.84-0.555 7.595-1.493 11.179-0.341 1.28-1.024 2.432-1.493 3.669-0.853 2.261-1.579 4.48-2.773 6.528-0.768 1.365-1.877 2.475-2.773 3.712-1.28 1.749-2.432 3.541-3.968 5.077-1.109 1.109-2.56 1.963-3.84 2.987-1.536 1.195-2.901 2.645-4.651 3.627-0.171 0.085-0.341 0.128-0.469 0.213-0.171 0.085-0.256 0.213-0.427 0.299l-383.189 213.333c-12.928 7.168-28.587 7.168-41.515 0l-383.189-213.333c-0.299-0.085-0.384-0.213-0.555-0.299zM171.477 546.091l297.856-165.845v-247.979l-297.856 170.197v243.627zM554.667 132.224v248.021l297.856 165.845v-243.968l-297.856-169.899zM512 783.147l295.509-164.48-295.509-164.48-295.509 164.48 295.509 164.48z" />
<glyph unicode="&#xe961;" glyph-name="cut" d="M347.819 344.149c-21.077 11.435-44.843 18.517-70.485 18.517-82.347 0-149.333-66.987-149.333-149.333s66.987-149.333 149.333-149.333 149.333 66.987 149.333 149.333c0 25.643-7.083 49.408-18.517 70.485l103.851 103.851 281.003-281.003h120.661l-505.515 505.515c11.435 21.077 18.517 44.843 18.517 70.485 0 82.347-66.987 149.333-149.333 149.333s-149.333-66.987-149.333-149.333 66.987-149.333 149.333-149.333c25.643 0 49.408 7.083 70.485 18.517l103.851-103.851-103.851-103.851zM277.333 149.333c-35.285 0-64 28.715-64 64s28.715 64 64 64 64-28.715 64-64-28.715-64-64-64zM213.333 682.667c0 35.285 28.715 64 64 64s64-28.715 64-64-28.715-64-64-64-64 28.715-64 64zM567.168 563.499l60.331-60.331 286.165 286.165h-120.661z" />
<glyph unicode="&#xe962;" glyph-name="data" d="M170.667 704v-512c0-92.501 156.288-170.667 341.333-170.667s341.333 78.165 341.333 170.667v512c0 92.501-156.288 170.667-341.333 170.667s-341.333-78.165-341.333-170.667zM512 106.667c-157.483 0-253.056 64.299-256 85.333v59.435c63.104-36.139 155.179-59.435 256-59.435s192.896 23.296 256 59.435v-59.179c-2.944-21.291-98.517-85.589-256-85.589zM512 277.333c-157.483 0-253.056 64.299-256 85.333v59.435c63.104-36.139 155.179-59.435 256-59.435s192.896 23.296 256 59.435v-59.179c-2.944-21.291-98.517-85.589-256-85.589zM512 448c-157.483 0-253.056 64.299-256 85.333v59.435c63.104-36.139 155.179-59.435 256-59.435s192.896 23.296 256 59.435v-59.179c-2.944-21.291-98.517-85.589-256-85.589zM768 704.256c-2.944-21.291-98.517-85.589-256-85.589s-253.056 64.299-256 85.077c2.944 21.291 98.517 85.589 256 85.589s253.056-64.299 256-85.077z" />
<glyph unicode="&#xe963;" glyph-name="desktop" d="M896 789.333h-768c-23.595 0-42.667-19.072-42.667-42.667v-465.536c0-23.595 19.072-42.667 42.667-42.667h341.333v-89.131h-85.333v-85.333h256v85.333h-85.333v89.131h341.333c23.595 0 42.667 19.072 42.667 42.667v465.536c0 23.595-19.072 42.667-42.667 42.667zM853.333 704v-341.333h-682.667v341.333h682.667z" />
<glyph unicode="&#xe964;" glyph-name="detail" d="M256 661.333h512v-85.333h-512v85.333zM256 490.667h383.573v-85.333h-383.573v85.333zM256 320h256v-85.333h-256v85.333zM896 832h-768c-23.595 0-42.667-19.072-42.667-42.667v-682.667c0-23.595 19.072-42.667 42.667-42.667h768c23.595 0 42.667 19.072 42.667 42.667v682.667c0 23.595-19.072 42.667-42.667 42.667zM853.333 149.333h-682.667v597.333h682.667v-597.333z" />
<glyph unicode="&#xe965;" glyph-name="diamond" d="M712.832 776.832c-7.979 8.021-18.816 12.501-30.165 12.501h-341.333c-11.349 0-22.187-4.48-30.165-12.501l-213.333-213.333c-16.683-16.683-16.683-43.648 0-60.331l384-384c8.32-8.32 19.243-12.501 30.165-12.501s21.845 4.181 30.165 12.501l384 384c16.683 16.683 16.683 43.648 0 60.331l-213.333 213.333zM512 209.664l-323.669 323.669 170.667 170.667h306.005l170.667-170.667-323.669-323.669z" />
<glyph unicode="&#xe966;" glyph-name="directions" d="M795.349 523.477c-7.68 6.357-17.365 9.856-27.349 9.856h-213.333v341.333h-85.333v-42.667h-213.333c-9.984 0-19.627-3.499-27.307-9.856l-128-106.667c-9.728-8.149-15.36-20.139-15.36-32.811s5.632-24.661 15.36-32.811l128-106.667c7.68-6.357 17.323-9.856 27.307-9.856h213.333v-512h85.333v213.333h213.333c9.984 0 19.669 3.499 27.349 9.856l128 106.667c9.685 8.149 15.317 20.139 15.317 32.811s-5.632 24.661-15.317 32.811l-128 106.667zM271.445 618.667l-76.8 64 76.8 64h197.888v-128h-197.888zM752.555 320h-197.888v128h197.888l76.8-64-76.8-64z" />
<glyph unicode="&#xe967;" glyph-name="dislike" d="M896 832h-640c-17.792 0-33.707-11.051-39.979-27.691l-128-341.333c-1.792-4.779-2.688-9.856-2.688-14.976v-128c0-23.552 19.072-42.667 42.667-42.667h278.315l-61.952-154.795c-8.235-20.608 0.725-44.075 20.523-54.016l85.333-42.667c6.101-3.029 12.629-4.523 19.115-4.523 11.051 0 21.973 4.309 30.165 12.459l243.499 243.285h153.003c23.595 0 42.667 19.115 42.667 42.667v469.589c0 23.552-19.072 42.667-42.667 42.667zM460.928 115.925l-22.699 11.349 70.741 176.896c5.248 13.141 3.627 28.032-4.309 39.765-7.936 11.691-21.163 18.731-35.328 18.731h-298.667v77.611l114.901 306.389h397.099v-409.216l-221.739-221.525zM853.333 362.453h-85.333v384.213h85.333v-384.213z" />
<glyph unicode="&#xe968;" glyph-name="dollar" d="M554.624 21.845v86.869c156.117 13.952 213.333 104.533 213.333 189.952 0 121.472-120.363 182.656-213.333 190.933v212.608c91.477-7.424 151.040-36.139 151.723-36.437l38.059 76.416c-3.456 1.707-77.184 37.632-189.739 45.483v87.211h-85.333v-87.637c-156.117-13.952-213.333-104.533-213.333-189.952 0-121.472 120.363-182.656 213.333-190.933v-212.651c-91.477 7.467-151.040 36.139-151.595 36.437l-38.187-76.331c3.456-1.707 77.184-37.632 189.739-45.44v-86.528h85.333zM682.624 298.667c0-58.24-46.208-95.019-128-104.192v209.28c58.368-7.424 128-44.075 128-105.088zM341.291 597.333c0 59.264 45.227 95.403 128 104.32v-209.493c-53.504 6.997-128 39.211-128 105.173z" />
<glyph unicode="&#xe969;" glyph-name="dollar-circle" d="M512 874.667c-235.264 0-426.667-191.403-426.667-426.667s191.403-426.667 426.667-426.667 426.667 191.403 426.667 426.667c0 235.264-191.403 426.667-426.667 426.667zM512 106.667c-188.203 0-341.333 153.131-341.333 341.333s153.131 341.333 341.333 341.333 341.333-153.131 341.333-341.333-153.131-341.333-341.333-341.333zM554.667 490.667h-85.333c-23.552 0-42.667 19.157-42.667 42.411 0 0.427 1.195 42.923 85.333 42.923h127.36v85.333h-84.693v42.667h-85.333v-46.080c-99.328-15.701-127.787-85.333-128-124.587 0-70.571 57.429-128 128-128h85.333c23.552 0 42.667-19.115 42.709-41.088-0.555-7.381-7.211-44.245-85.376-44.245h-128v-85.333h85.333v-42.667h85.333v46.080c99.029 15.701 127.616 85.248 128 124.587 0 70.571-57.429 128-128 128z" />
<glyph unicode="&#xe96a;" glyph-name="dots-horizontal" d="M426.667 533.333h170.667v-170.667h-170.667v170.667zM682.667 533.333h170.667v-170.667h-170.667v170.667zM170.667 533.333h170.667v-170.667h-170.667v170.667z" />
<glyph unicode="&#xe96b;" glyph-name="dots-horizontal-rounded" d="M512 533.333c-46.933 0-85.333-38.4-85.333-85.333s38.4-85.333 85.333-85.333 85.333 38.4 85.333 85.333-38.4 85.333-85.333 85.333zM768 533.333c-46.933 0-85.333-38.4-85.333-85.333s38.4-85.333 85.333-85.333 85.333 38.4 85.333 85.333-38.4 85.333-85.333 85.333zM256 533.333c-46.933 0-85.333-38.4-85.333-85.333s38.4-85.333 85.333-85.333 85.333 38.4 85.333 85.333-38.4 85.333-85.333 85.333z" />
<glyph unicode="&#xe96c;" glyph-name="dots-vertical" d="M426.667 533.333h170.667v-170.667h-170.667v170.667zM426.667 789.333h170.667v-170.667h-170.667v170.667zM426.667 277.333h170.667v-170.667h-170.667v170.667z" />
<glyph unicode="&#xe96d;" glyph-name="dots-vertical-rounded" d="M512 533.333c-46.933 0-85.333-38.4-85.333-85.333s38.4-85.333 85.333-85.333 85.333 38.4 85.333 85.333-38.4 85.333-85.333 85.333zM512 789.333c-46.933 0-85.333-38.4-85.333-85.333s38.4-85.333 85.333-85.333 85.333 38.4 85.333 85.333-38.4 85.333-85.333 85.333zM512 277.333c-46.933 0-85.333-38.4-85.333-85.333s38.4-85.333 85.333-85.333 85.333 38.4 85.333 85.333-38.4 85.333-85.333 85.333z" />
<glyph unicode="&#xe96e;" glyph-name="down-arrow-circle" d="M512 874.667c-235.264 0-426.667-191.403-426.667-426.667s191.403-426.667 426.667-426.667c235.264 0 426.667 191.403 426.667 426.667s-191.403 426.667-426.667 426.667zM512 106.667c-188.203 0-341.333 153.131-341.333 341.333s153.131 341.333 341.333 341.333 341.333-153.131 341.333-341.333-153.131-341.333-341.333-341.333zM554.667 618.667h-85.333v-128h-128l170.667-213.333 170.667 213.333h-128z" />
<glyph unicode="&#xe96f;" glyph-name="down-arrow-outline" d="M810.667 704h-597.333c-15.573 0-29.909-8.491-37.419-22.144-7.467-13.653-6.955-30.293 1.408-43.477l298.667-469.333c7.851-12.245 21.419-19.712 36.011-19.712s28.16 7.467 36.011 19.755l298.667 469.333c8.363 13.141 8.875 29.781 1.408 43.477-7.509 13.611-21.845 22.101-37.419 22.101zM512 271.488l-220.971 347.179h441.899l-220.928-347.179z" />
<glyph unicode="&#xe970;" glyph-name="download" d="M469.333 789.333v-341.333h-128l170.667-170.667 170.667 170.667h-128v341.333zM853.333 192h-682.667v341.333h-85.333v-426.667h853.333v426.667h-85.333z" />
<glyph unicode="&#xe971;" glyph-name="download-alt" d="M170.667 106.667h682.667v85.333h-288l236.8 315.733c9.728 12.928 11.264 30.208 4.053 44.672-7.253 14.464-22.016 23.595-38.187 23.595h-85.333v170.667c0 23.595-19.072 42.667-42.667 42.667h-256c-23.595 0-42.667-19.072-42.667-42.667v-170.667h-85.333c-16.171 0-30.933-9.131-38.187-23.595-7.168-14.464-5.632-31.744 4.053-44.672l236.8-315.733h-288v-85.333zM384 490.667c23.595 0 42.667 19.072 42.667 42.667v170.667h170.667v-170.667c0-23.595 19.072-42.667 42.667-42.667h42.667l-170.667-227.541-170.667 227.541h42.667z" />
<glyph unicode="&#xe972;" glyph-name="downvote" d="M640 874.667h-256c-23.595 0-42.667-19.072-42.667-42.667v-298.667h-170.667c-16.427 0-31.317-9.429-38.443-24.149-7.083-14.805-5.12-32.341 5.12-45.184l341.333-426.667c8.107-10.112 20.352-16 33.323-16s25.216 5.888 33.323 16l341.333 426.667c10.24 12.843 12.203 30.379 5.12 45.184-7.125 14.72-22.016 24.149-38.443 24.149h-170.667v298.667c0 23.595-19.072 42.667-42.667 42.667zM764.544 448l-252.544-315.691-252.544 315.691h124.544c23.595 0 42.667 19.072 42.667 42.667v298.667h170.667v-298.667c0-23.595 19.072-42.667 42.667-42.667h124.544z" />
<glyph unicode="&#xe973;" glyph-name="dribbble" d="M512 874.667c-231.296 0-426.667-195.371-426.667-426.667s195.371-426.667 426.667-426.667 426.667 195.371 426.667 426.667-195.371 426.667-426.667 426.667zM749.013 690.816c58.795-57.472 97.323-135.296 103.168-220.587-48.939 13.568-98.56 20.437-148.181 20.437-32.427 0-64.085-3.285-94.976-9.131-9.728 21.163-19.499 41.6-29.355 61.355 63.744 38.784 121.003 88.533 169.344 147.925zM681.216 742.485c-40.576-49.451-88.235-91.179-141.227-124.032-39.979 72.789-76.288 129.664-98.731 163.029 22.912 5.077 46.592 7.851 70.741 7.851 61.141 0 118.955-17.323 169.216-46.848zM358.571 751.232c17.451-25.344 58.837-87.808 105.387-172.459-67.925-29.013-141.056-45.44-215.936-45.44-20.693 0-42.24 1.92-64.384 4.693 26.197 92.075 90.923 169.6 174.933 213.205zM170.667 448c0 1.92 0.256 3.84 0.299 5.76 26.368-3.413 52.096-5.76 77.056-5.76 88.917 0 175.488 20.011 255.659 55.253 7.253-14.592 14.507-29.653 21.675-45.013-107.989-40.875-201.771-119.509-272.427-229.419-50.987 59.819-82.261 136.533-82.261 219.179zM316.715 170.368c45.824 75.136 123.392 166.656 242.645 209.92 32.384-78.976 59.861-163.968 75.563-249.515-38.443-15.317-79.829-24.107-122.923-24.107-71.979 0-139.52 23.893-195.285 63.701zM713.557 175.104c-16.469 77.909-41.6 154.197-70.187 225.707 19.413 2.645 39.424 4.523 60.629 4.523 47.701 0 95.531-7.979 142.635-22.827-17.067-83.755-66.048-157.312-133.077-207.403z" />
<glyph unicode="&#xe974;" glyph-name="drink" d="M883.584 851.541c-7.339 14.208-21.973 23.125-37.931 23.125h-667.435c-15.957 0-30.592-8.917-37.931-23.125s-6.101-31.275 3.157-44.288l325.888-457.984v-242.603h-128v-85.333h341.333v85.333h-128v242.603l325.76 457.984c9.301 13.056 10.496 30.123 3.157 44.288zM382.379 618.667h259.2l-129.579-182.187-129.621 182.187zM702.251 704h-380.629l-60.715 85.333h502.059l-60.715-85.333z" />
<glyph unicode="&#xe975;" glyph-name="droplet" d="M512 21.333c188.203 0 341.333 153.131 341.333 341.12 1.365 274.987-303.616 495.104-316.587 504.277-14.805 10.581-34.688 10.581-49.451 0-13.013-9.173-318.037-229.291-316.629-504.064 0-188.203 153.131-341.333 341.333-341.333zM512.043 778.069c68.736-55.637 256.896-225.323 255.957-415.403 0-141.184-114.816-256-256-256s-256 114.816-256 256.213c-0.939 189.397 187.307 359.467 256.043 415.189z" />
<glyph unicode="&#xe976;" glyph-name="duplicate" d="M469.333 533.333h-85.333v-128h-128v-85.333h128v-128h85.333v128h128v85.333h-128zM128 21.333h597.333c23.595 0 42.667 19.072 42.667 42.667v597.333c0 23.552-19.072 42.667-42.667 42.667h-597.333c-23.595 0-42.667-19.115-42.667-42.667v-597.333c0-23.595 19.072-42.667 42.667-42.667zM170.667 618.667h512v-512h-512v512zM896 874.667h-554.667v-85.333h512v-512h85.333v554.667c0 23.552-19.072 42.667-42.667 42.667z" />
<glyph unicode="&#xe977;" glyph-name="edit" d="M809.557 873.557c-16.683 16.683-43.648 16.683-60.331 0l-384-384c-6.528-6.528-10.752-15.019-12.075-24.107l-21.333-149.333c-1.877-13.312 2.603-26.709 12.075-36.224 8.021-8.064 18.901-12.501 30.165-12.501 2.005 0 4.011 0.128 6.059 0.427l149.333 21.333c9.131 1.28 17.579 5.547 24.107 12.075l384 384c16.683 16.683 16.683 43.648 0 60.331l-128 128zM503.253 371.627l-78.933-11.264 11.264 78.933 343.808 343.765 67.669-67.669-343.808-343.765zM213.333 106.667h597.333c23.595 0 42.667 19.115 42.667 42.667v298.667h-85.333v-256h-512v512h256v85.333h-298.667c-23.595 0-42.667-19.115-42.667-42.667v-597.333c0-23.552 19.072-42.667 42.667-42.667z" />
<glyph unicode="&#xe978;" glyph-name="envelope" d="M896 789.333h-768c-23.552 0-42.667-19.072-42.667-42.667v-597.333c0-23.595 19.115-42.667 42.667-42.667h768c23.595 0 42.667 19.072 42.667 42.667v597.333c0 23.595-19.072 42.667-42.667 42.667zM831.317 704l-319.317-284.203-319.317 284.203h638.635zM170.667 192v417.323l312.96-278.528c8.107-7.211 18.219-10.795 28.373-10.795s20.267 3.584 28.373 10.795l312.96 278.528v-417.323h-682.667z" />
<glyph unicode="&#xe979;" glyph-name="eraser" d="M268.501 119.168c7.979-8.021 18.816-12.501 30.165-12.501h512v85.333h-195.669l311.168 311.168c15.744 15.787 16.768 41.003 2.219 57.941l-256 298.667c-7.723 9.003-18.859 14.421-30.763 14.848-11.947 0.64-23.424-4.053-31.787-12.459l-512-512c-16.683-16.683-16.683-43.648 0-60.331l170.667-170.667zM637.568 769.237l200.277-233.685-91.179-91.179-217.003 216.96 107.904 107.904zM469.333 601.003l217.003-216.96-192.043-192.043h-177.963l-128 128 281.003 281.003z" />
<glyph unicode="&#xe97a;" glyph-name="error" d="M469.333 533.333h85.333v-256h-85.333v256zM469.333 234.667h85.333v-85.333h-85.333v85.333zM550.187 851.072c-14.507 28.928-61.824 28.928-76.331 0l-384-768c-6.613-13.227-5.931-28.928 1.877-41.515s21.461-20.224 36.267-20.224h768c14.805 0 28.501 7.68 36.309 20.267s8.491 28.288 1.877 41.515l-384 767.957zM197.035 106.667l314.965 629.931 314.965-629.931h-629.931z" />
<glyph unicode="&#xe97b;" glyph-name="error-circle" d="M509.995 874.667c-234.155 0-424.661-191.403-424.661-426.667s191.403-426.667 426.667-426.667 426.667 191.403 426.667 426.667-192.299 426.667-428.672 426.667zM512 106.667c-188.203 0-341.333 153.131-341.333 341.333s152.192 341.333 339.328 341.333c189.355 0 343.339-153.131 343.339-341.333s-153.131-341.333-341.333-341.333zM469.333 618.667h85.333v-256h-85.333v256zM469.333 320h85.333v-85.333h-85.333v85.333z" />
<glyph unicode="&#xe97c;" glyph-name="exclamation" d="M469.333 746.667h85.333v-426.24h-85.333v426.24zM469.333 234.795h85.333v-85.461h-85.333v85.461z" />
<glyph unicode="&#xe97d;" glyph-name="exit-fullscreen" d="M426.667 832h-85.333v-213.333h-213.333v-85.333h298.667zM341.333 64h85.333v298.667h-298.667v-85.333h213.333zM896 362.667h-298.667v-298.667h85.333v213.333h213.333zM896 618.667h-213.333v213.333h-85.333v-298.667h298.667z" />
<glyph unicode="&#xe97e;" glyph-name="expand" d="M670.165 545.835l170.667 170.667 55.168-55.168v170.667h-170.667l55.168-55.168-170.667-170.667zM780.501 119.168l-55.168-55.168h170.667v170.667l-55.168-55.168-170.667 170.667-60.331-60.331zM353.835 350.165l-170.667-170.667-55.168 55.168v-170.667h170.667l-55.168 55.168 170.667 170.667zM243.499 776.832l55.168 55.168h-170.667v-170.667l55.168 55.168 170.667-170.667 60.331 60.331z" />
<glyph unicode="&#xe97f;" glyph-name="export" d="M469.333 277.333h85.333v384h128l-170.667 170.667-170.667-170.667h128zM170.667 64h682.667c23.595 0 42.667 19.115 42.667 42.667v426.667c0 23.552-19.072 42.667-42.667 42.667h-213.333v-85.333h170.667v-341.333h-597.333v341.333h170.667v85.333h-213.333c-23.595 0-42.667-19.115-42.667-42.667v-426.667c0-23.552 19.072-42.667 42.667-42.667z" />
<glyph unicode="&#xe980;" glyph-name="eyedropper" d="M798.165 862.165c-16.683 16.683-43.648 16.683-60.331 0l-140.629-140.629-55.381 55.296-60.331-60.331 55.381-55.296-353.707-353.707c-5.461-5.461-9.344-12.331-11.221-19.84l-42.667-170.667c-3.669-14.549 0.64-29.909 11.221-40.491 8.064-8.064 18.987-12.501 30.165-12.501 3.456 0 6.912 0.427 10.325 1.28l170.667 42.667c7.509 1.877 14.379 5.76 19.84 11.221l353.792 353.792 55.211-55.125 60.331 60.331-55.211 55.125 140.544 140.544c16.683 16.683 16.683 43.648 0 60.331l-128 128zM332.501 200.832l-67.669 67.669 332.416 332.373 67.669-67.584-332.416-332.459zM725.248 593.621l-67.669 67.584 110.421 110.464 67.669-67.669-110.421-110.379z" />
<glyph unicode="&#xe981;" glyph-name="facebook" d="M384 21.333h213.333c23.595 0 42.667 19.115 42.667 42.667v341.845h85.333c23.595 0 42.667 19.115 42.667 42.667v170.155c23.595 0 42.667 19.115 42.667 42.667v170.667c0 23.552-19.072 42.667-42.667 42.667h-213.333c-73.728 0-213.035-44.501-213.333-212.821h-42.667c-23.595 0-42.667-19.115-42.667-42.667v-170.667c0-23.552 19.072-42.667 42.667-42.667h42.667v-341.845c0-23.552 19.072-42.667 42.667-42.667zM341.333 576.512h42.667c23.595 0 42.667 19.115 42.667 42.667v42.155c0 120.448 106.837 127.744 128 128h170.667v-85.333h-128c-23.595 0-42.667-19.115-42.667-42.667v-42.155c0-23.552 19.072-42.667 42.667-42.667h85.333v-85.333h-85.333c-23.595 0-42.667-19.115-42.667-42.667v-341.845h-128v341.845c0 23.552-19.072 42.667-42.667 42.667h-42.667v85.333z" />
<glyph unicode="&#xe982;" glyph-name="fast-forward" d="M810.667 448l-298.667 213.333v-426.667zM213.333 661.333v-426.667l298.667 213.333z" />
<glyph unicode="&#xe983;" glyph-name="fast-forward-circle" d="M512 874.667c-235.264 0-426.667-191.403-426.667-426.667s191.403-426.667 426.667-426.667 426.667 191.403 426.667 426.667-191.403 426.667-426.667 426.667zM512 106.667c-188.203 0-341.333 153.131-341.333 341.333s153.131 341.333 341.333 341.333 341.333-153.131 341.333-341.333-153.131-341.333-341.333-341.333zM554.667 320l170.667 128-170.667 128zM341.333 320l170.667 128-170.667 128z" />
<glyph unicode="&#xe984;" glyph-name="female" d="M789.333 597.333c0 152.917-124.416 277.333-277.333 277.333s-277.333-124.416-277.333-277.333c0-138.368 101.973-253.099 234.667-273.707v-88.96h-128v-85.333h128v-127.488h85.333v127.488h128v85.333h-128v88.96c132.651 20.608 234.667 135.339 234.667 273.707zM320 597.333c0 105.856 86.144 192 192 192s192-86.144 192-192c0-105.813-86.016-191.872-191.787-192h-0.427c-105.771 0.128-191.787 86.187-191.787 192z" />
<glyph unicode="&#xe985;" glyph-name="file" d="M170.667 832v-768c0-23.552 19.072-42.667 42.667-42.667h597.333c23.595 0 42.667 19.115 42.667 42.667v512c0 0.896-0.469 1.749-0.555 2.645-0.213 3.797-0.939 7.467-2.176 11.051-0.469 1.365-0.853 2.688-1.408 3.968-2.091 4.523-4.693 8.875-8.363 12.501l-256 256c-3.669 3.627-7.979 6.272-12.459 8.32-1.323 0.64-2.688 0.981-4.139 1.451-3.499 1.195-7.083 1.92-10.795 2.133-0.939 0.085-1.835 0.597-2.773 0.597h-341.333c-23.595 0-42.667-19.115-42.667-42.667zM707.669 618.667h-110.336v110.336l110.336-110.336zM256 789.333h256v-213.333c0-23.552 19.072-42.667 42.667-42.667h213.333v-426.667h-512v682.667zM341.333 448h341.333v-85.333h-341.333v85.333zM341.333 618.667h85.333v-85.333h-85.333v85.333zM341.333 277.333h341.333v-85.333h-341.333v85.333z" />
<glyph unicode="&#xe986;" glyph-name="files" d="M853.333 618.667h-0.384c-0.043 11.093-3.968 22.016-12.117 30.165l-213.333 213.333c-8.149 8.149-19.072 12.075-30.165 12.075v0.427h-256c-23.595 0-42.667-19.115-42.667-42.667v-597.333c0-23.552 19.072-42.667 42.667-42.667h469.333c23.595 0 42.667 19.115 42.667 42.667v384zM640 729.003l67.669-67.669h-67.669v67.669zM384 277.333v512h170.667v-170.667c0-23.552 19.072-42.667 42.667-42.667h170.667v-298.667h-384zM170.667 21.333h512v85.333h-469.333v512h-85.333v-554.667c0-23.552 19.072-42.667 42.667-42.667z" />
<glyph unicode="&#xe987;" glyph-name="film" d="M896 832h-768c-23.595 0-42.667-19.072-42.667-42.667v-682.667c0-23.595 19.072-42.667 42.667-42.667h768c23.595 0 42.667 19.072 42.667 42.667v682.667c0 23.595-19.072 42.667-42.667 42.667zM853.333 661.333h-85.333v85.333h85.333v-85.333zM682.667 490.667h-341.333v256h341.333v-256zM256 490.667h-85.333v85.333h85.333v-85.333zM256 405.333v-85.333h-85.333v85.333h85.333zM341.333 405.333h341.333v-256h-341.333v256zM768 405.333h85.333v-85.333h-85.333v85.333zM768 490.667v85.333h85.333v-85.333h-85.333zM256 746.667v-85.333h-85.333v85.333h85.333zM170.667 234.667h85.333v-85.333h-85.333v85.333zM768 149.333v85.333h85.333v-85.333h-85.333z" />
<glyph unicode="&#xe988;" glyph-name="filter" d="M682.667 874.667h85.333v-298.667h-85.333v298.667zM256 874.667h85.333v-128h-85.333v128zM469.333 874.667h85.333v-469.333h-85.333v469.333zM213.333 576h42.667v-554.667h85.333v554.667h42.667v85.333h-170.667zM426.667 234.667h42.667v-213.333h85.333v213.333h42.667v85.333h-170.667zM640 405.333h42.667v-384h85.333v384h42.667v85.333h-170.667z" />
<glyph unicode="&#xe989;" glyph-name="first-aid" d="M896 704h-170.667v128c0 23.552-19.072 42.667-42.667 42.667h-341.333c-23.595 0-42.667-19.115-42.667-42.667v-128h-170.667c-23.595 0-42.667-19.115-42.667-42.667v-597.333c0-23.552 19.072-42.667 42.667-42.667h768c23.595 0 42.667 19.115 42.667 42.667v597.333c0 23.552-19.072 42.667-42.667 42.667zM384 789.333h256v-85.333h-256v85.333zM853.333 106.667h-682.667v512h682.667v-512zM554.667 533.333h-85.333v-128h-128v-85.333h128v-128h85.333v128h128v85.333h-128z" />
<glyph unicode="&#xe98a;" glyph-name="first-page" d="M695.168 204.501l60.331 60.331-183.168 183.168 183.168 183.168-60.331 60.331-243.499-243.499zM298.667 704h85.333v-512h-85.333v512z" />
<glyph unicode="&#xe98b;" glyph-name="flag" d="M213.333 874.667v-768h-85.333v-85.333h256v85.333h-85.333v213.333h469.333c16.171 0 30.933 9.131 38.187 23.595 7.211 14.464 5.675 31.744-4.053 44.672l-108.8 145.067 108.8 145.067c9.728 12.928 11.264 30.208 4.053 44.672-7.253 14.464-22.016 23.595-38.187 23.595h-469.333v128h-85.333zM682.667 661.333l-76.8-102.4c-11.392-15.147-11.392-36.053 0-51.2l76.8-102.4h-384v256h384z" />
<glyph unicode="&#xe98c;" glyph-name="flask" d="M682.24 541.952l0.341 247.381h42.752v85.333h-426.667v-85.333h42.752l0.341-247.381-168.491-463.36c-4.779-13.099-2.816-27.648 5.12-39.040 7.979-11.435 21.035-18.219 34.944-18.219h597.333c13.909 0 26.965 6.784 34.944 18.219 7.979 11.392 9.899 25.941 5.12 39.040l-168.491 463.36zM597.291 789.333l-0.384-255.957c0-6.656 1.621-13.184 4.565-18.987l24.149-66.389h-227.243l23.808 65.451c3.2 6.101 4.907 12.928 4.907 19.925l-0.384 255.957h170.581zM274.261 106.667l93.099 256h289.323l93.099-256h-475.52z" />
<glyph unicode="&#xe98d;" glyph-name="folder" d="M896 743.979h-373.931l-161.664 80.853c-5.888 2.944-12.459 4.48-19.072 4.48h-213.333c-23.552 0-42.667-19.115-42.667-42.667v-679.979c0-23.595 19.115-42.667 42.667-42.667h768c23.595 0 42.667 19.072 42.667 42.667v594.645c0 23.595-19.072 42.667-42.667 42.667zM853.333 149.333h-682.667v594.645h160.597l161.664-80.853c5.888-2.901 12.459-4.48 19.072-4.48h341.333v-509.312z" />
<glyph unicode="&#xe98e;" glyph-name="folder-minus" d="M341.333 450.645h341.333v-85.333h-341.333v85.333zM896 746.667h-373.931l-161.664 80.853c-5.888 2.944-12.459 4.48-19.072 4.48h-213.333c-23.595 0-42.667-19.115-42.667-42.667v-680.021c0-23.595 19.072-42.667 42.667-42.667h768c23.595 0 42.667 19.072 42.667 42.667v594.688c0 23.552-19.072 42.667-42.667 42.667zM853.333 151.979h-682.667v594.688h160.597l161.664-80.853c5.888-2.944 12.459-4.48 19.072-4.48h341.333v-509.355z" />
<glyph unicode="&#xe98f;" glyph-name="folder-open" d="M853.333 704h-330.155l-141.952 79.829c-6.4 3.627-13.611 5.504-20.949 5.504h-189.611c-23.595 0-42.667-19.072-42.667-42.667v-256c-12.373 0-24.107-5.376-32.256-14.72-8.064-9.344-11.733-21.76-9.984-34.005l42.667-298.667c2.987-20.992 20.992-36.608 42.24-36.608h682.667c21.248 0 39.253 15.616 42.24 36.608l42.667 298.667c1.749 12.245-1.92 24.661-9.984 34.005-8.149 9.344-19.883 14.72-32.256 14.72v170.667c0 23.595-19.072 42.667-42.667 42.667zM816.341 192h-608.683l-30.464 213.333h669.568l-30.421-213.333zM213.333 490.667v213.333h135.808l141.952-79.829c6.357-3.627 13.568-5.504 20.907-5.504h298.667v-128h-597.333z" />
<glyph unicode="&#xe990;" glyph-name="folder-plus" d="M469.333 576v-128h-128v-85.333h128v-128h85.333v128h128v85.333h-128v128zM896 743.979h-373.931l-161.664 80.853c-5.888 2.944-12.459 4.48-19.072 4.48h-213.333c-23.595 0-42.667-19.115-42.667-42.667v-679.979c0-23.595 19.072-42.667 42.667-42.667h768c23.595 0 42.667 19.072 42.667 42.667v594.645c0 23.595-19.072 42.667-42.667 42.667zM853.333 149.333h-682.667v594.645h160.597l161.664-80.853c5.888-2.901 12.459-4.48 19.072-4.48h341.333v-509.312z" />
<glyph unicode="&#xe991;" glyph-name="font" d="M551.979 761.643c-6.272 16.64-22.187 27.691-39.979 27.691s-33.707-11.051-39.979-27.691l-245.589-654.976h91.179l96 256h196.821l96-256h91.179l-245.632 654.976zM445.568 448l66.432 177.152 66.432-177.152h-132.864z" />
<glyph unicode="&#xe992;" glyph-name="fullscreen" d="M213.333 746.667h213.333v85.333h-298.667v-298.667h85.333zM426.667 149.333h-213.333v213.333h-85.333v-298.667h298.667zM896 362.667h-85.333v-213.333h-213.333v-85.333h298.667zM896 832h-298.667v-85.333h213.333v-213.333h85.333z" />
<glyph unicode="&#xe993;" glyph-name="gift" d="M896 618.667h-100.352c9.344 19.456 15.019 41.003 15.019 64 0 82.347-66.987 149.333-149.333 149.333-72.064 0-119.595-61.184-149.333-122.965-29.739 61.781-77.227 122.965-149.333 122.965-82.347 0-149.333-66.987-149.333-149.333 0-22.997 5.675-44.544 15.019-64h-100.352c-23.552 0-42.667-19.115-42.667-42.667v-170.667c0-23.552 19.115-42.667 42.667-42.667h42.667v-256c0-23.595 19.115-42.667 42.667-42.667h597.333c23.595 0 42.667 19.072 42.667 42.667v256.043h42.667c23.595 0 42.667 19.072 42.667 42.667v170.624c0 23.552-19.072 42.667-42.667 42.667zM661.333 746.667c35.285 0 64-28.715 64-64s-28.715-64-64-64v0h-93.611c19.243 58.368 53.376 128 93.611 128zM298.667 682.667c0 35.285 28.715 64 64 64 37.888 0 73.131-65.109 93.781-128h-93.781c-35.285 0-64 28.715-64 64zM170.667 533.333h298.667v-85.333h-298.667v85.333zM256 149.333v213.333h213.333v-213.333h-213.333zM768 149.333h-213.333v213.333h213.333v-213.333zM853.333 448h-298.667v85.333h298.667v-85.333z" />
<glyph unicode="&#xe994;" glyph-name="git-branch" d="M704 789.333c-82.347 0-149.333-66.987-149.333-149.333 0-58.496 34.133-108.757 83.243-133.205-4.821-63.36-25.941-112.384-65.024-144.171-69.461-56.533-177.237-54.016-231.552-48.341v268.672c61.44 18.517 106.667 74.965 106.667 142.379 0 82.347-66.987 149.333-149.333 149.333s-149.333-66.987-149.333-149.333c0-67.413 45.227-123.861 106.667-142.379v-269.909c-61.44-18.517-106.667-74.965-106.667-142.379 0-82.347 66.987-149.333 149.333-149.333s149.333 66.987 149.333 149.333c0 20.352-4.181 39.723-11.563 57.387 62.336 4.992 133.376 22.229 189.952 68.139 56.789 46.080 89.259 112.085 96.981 196.437 73.131 9.6 129.963 71.723 129.963 147.371 0 82.347-66.987 149.333-149.333 149.333zM234.667 725.333c0 35.285 28.715 64 64 64s64-28.715 64-64-28.715-64-64-64-64 28.715-64 64zM298.667 106.667c-35.285 0-64 28.715-64 64 0 34.432 27.349 62.336 61.397 63.744 5.12-0.939 13.099-2.261 23.723-3.627 24.875-8.789 42.88-32.299 42.88-60.117 0-35.285-28.715-64-64-64zM704 576c-35.285 0-64 28.715-64 64s28.715 64 64 64 64-28.715 64-64-28.715-64-64-64z" />
<glyph unicode="&#xe995;" glyph-name="git-commit" d="M512 704c-126.592 0-231.723-92.459-252.117-213.333h-174.549v-85.333h174.592c20.437-120.832 125.525-213.248 252.117-213.248s231.68 92.416 252.117 213.248h174.507v85.333h-174.507c-20.395 120.875-125.525 213.333-252.16 213.333zM512 277.419c-94.080 0-170.624 76.544-170.624 170.624s76.544 170.624 170.624 170.624c94.123 0 170.667-76.544 170.667-170.624s-76.544-170.624-170.667-170.624z" />
<glyph unicode="&#xe996;" glyph-name="git-compare" d="M277.76 874.667c-82.347 0-149.333-66.987-149.333-149.333 0-67.413 45.227-123.861 106.667-142.379v-305.493c-0.043-7.637 1.152-75.989 50.091-125.056 30.208-30.379 70.656-45.739 120.149-45.739v-85.333l149.333 128-149.333 128v-85.333c-77.781 0-84.651 65.451-84.907 85.333v305.621c61.44 18.517 106.667 74.965 106.667 142.379 0 82.347-67.029 149.333-149.333 149.333zM277.76 661.333c-35.285 0-64 28.715-64 64s28.715 64 64 64 64-28.715 64-64-28.715-64-64-64zM618.667 789.333v85.333l-149.333-128 149.333-128v85.333c78.037 0 85.376-65.664 85.76-85.333v-305.621c-61.44-18.517-106.667-74.965-106.667-142.379 0-82.347 66.987-149.333 149.333-149.333s149.333 66.987 149.333 149.333c0 67.413-45.227 123.861-106.667 142.379v305.749c-0.213 68.523-45.952 170.539-171.093 170.539zM811.093 170.667c0-35.285-28.715-64-64-64s-64 28.715-64 64 28.715 64 64 64 64-28.715 64-64z" />
<glyph unicode="&#xe997;" glyph-name="github" d="M341.333 192v-38.571c-19.541 4.181-41.003 11.904-55.168 26.069-48.085 48.085-97.835 97.835-158.165 97.835v-85.333c25.003 0 65.365-40.363 97.835-72.832 34.603-34.603 81.237-47.445 115.499-52.309v-45.525h85.333v167.424c4.267 24.747 20.224 49.621 27.947 56.363 12.8 11.093 17.792 28.715 12.8 44.843-4.992 16.171-19.115 27.819-35.925 29.739-119.381 13.611-218.155 39.083-218.155 213.632 0 53.12 5.632 70.741 31.573 99.285 11.008 12.117 14.080 29.568 7.979 44.8-4.821 11.904-18.773 65.451-6.485 117.547 20.651 1.493 59.904-4.565 113.707-40.96 10.368-6.997 23.339-9.131 35.328-5.803 35.925 9.984 197.12 9.984 233.216 0 12.117-3.371 25.003-1.195 35.285 5.803 54.016 36.565 92.971 41.6 113.664 41.131 12.331-52.224-1.579-105.771-6.4-117.675-6.229-15.232-3.115-32.768 8.021-44.928 25.856-28.331 31.445-45.952 31.445-99.2 0-175.019-98.731-200.235-218.069-213.589-16.853-1.92-31.019-13.568-36.011-29.781-5.035-16.213 0.043-33.835 12.885-44.928 19.797-17.067 27.861-32.469 27.861-53.035v-174.251h85.333v174.251c0 20.48-3.925 38.229-9.771 53.291 99.072 20.309 223.104 78.123 223.104 288.043 0 56.363-6.272 95.531-37.76 137.515 10.155 40.405 18.261 110.549-7.936 176.853-4.139 10.539-12.331 18.987-22.741 23.509-8.576 3.755-84.011 32.683-196.395-36.693-58.923 8.747-179.584 8.747-238.421 0-112.64 69.461-187.861 40.405-196.437 36.693-10.325-4.565-18.475-13.013-22.656-23.509-26.197-66.219-18.048-136.448-7.851-176.896-31.531-42.155-37.803-81.237-37.803-137.472 0-212.096 127.189-268.885 226.859-288.683-6.229-14.805-10.923-30.72-13.141-46.848-0.256-1.877-0.384-3.84-0.384-5.803z" />
<glyph unicode="&#xe998;" glyph-name="git-merge" d="M789.333 576c-77.867 0-141.312-60.117-148.011-136.277-60.459-1.109-137.771 8.277-189.995 50.688-28.459 23.083-46.933 55.765-57.387 95.659 56.405 21.376 96.725 75.52 96.725 139.264 0 82.347-66.987 149.333-149.333 149.333s-149.333-66.987-149.333-149.333c0-67.413 45.227-123.861 106.667-142.379v-269.909c-61.44-18.517-106.667-74.965-106.667-142.379 0-82.347 66.987-149.333 149.333-149.333s149.333 66.987 149.333 149.333c0 67.413-45.227 123.861-106.667 142.379v123.563c4.437-4.181 8.747-8.533 13.568-12.459 70.187-56.96 162.731-70.059 233.088-70.059 10.069 0 19.499 0.341 28.544 0.811 25.472-45.995 73.941-77.568 130.133-77.568 82.347 0 149.333 66.987 149.333 149.333s-66.987 149.333-149.333 149.333zM277.333 725.333c0 35.285 28.715 64 64 64s64-28.715 64-64-28.715-64-64-64-64 28.715-64 64zM405.333 170.667c0-35.285-28.715-64-64-64s-64 28.715-64 64 28.715 64 64 64 64-28.715 64-64zM789.333 362.667c-35.285 0-64 28.715-64 64s28.715 64 64 64 64-28.715 64-64-28.715-64-64-64z" />
<glyph unicode="&#xe999;" glyph-name="git-pull-request" d="M128 170.667c0-82.347 66.987-149.333 149.333-149.333s149.333 66.987 149.333 149.333c0 67.413-45.227 123.861-106.667 142.379v269.909c61.44 18.517 106.667 74.965 106.667 142.379 0 82.347-66.987 149.333-149.333 149.333s-149.333-66.987-149.333-149.333c0-67.413 45.227-123.861 106.667-142.379v-269.909c-61.44-18.517-106.667-74.965-106.667-142.379zM341.333 170.667c0-35.285-28.715-64-64-64s-64 28.715-64 64 28.715 64 64 64 64-28.715 64-64zM213.333 725.333c0 35.285 28.715 64 64 64s64-28.715 64-64-28.715-64-64-64-64 28.715-64 64zM896 170.667c0 67.413-45.227 123.861-106.667 142.379v305.621c0 68.565-45.44 170.667-170.667 170.667v85.333l-149.333-128 149.333-128v85.333c77.909 0 84.992-65.536 85.333-85.333v-305.621c-61.44-18.517-106.667-74.965-106.667-142.379 0-82.347 66.987-149.333 149.333-149.333s149.333 66.987 149.333 149.333zM746.667 106.667c-35.285 0-64 28.715-64 64s28.715 64 64 64 64-28.715 64-64-28.715-64-64-64z" />
<glyph unicode="&#xe99a;" glyph-name="git-repo-forked" d="M448 725.333c0 82.347-66.987 149.333-149.333 149.333s-149.333-66.987-149.333-149.333c0-66.304 43.691-121.941 103.637-141.397 0.469-60.501 24.789-141.227 115.925-175.787 100.437-38.187 100.437-68.267 100.437-88.149v-6.955c-61.44-18.517-106.667-74.965-106.667-142.379 0-82.347 66.987-149.333 149.333-149.333s149.333 66.987 149.333 149.333c0 67.413-45.227 123.861-106.667 142.379v6.955c0 19.883 0 49.963 100.437 88.107 91.136 34.603 115.456 115.285 115.925 175.787 59.947 19.499 103.637 75.136 103.637 141.44 0 82.347-66.987 149.333-149.333 149.333s-149.333-66.987-149.333-149.333c0-68.523 46.677-125.824 109.696-143.317-0.341-29.611-9.685-74.709-60.843-94.123-50.859-19.285-87.595-40.661-112.896-65.536-25.301 24.875-61.995 46.251-112.896 65.536-50.987 19.371-60.373 64.213-60.672 94.165 62.976 17.536 109.611 74.795 109.611 143.275zM661.333 725.333c0 35.285 28.715 64 64 64s64-28.715 64-64-28.715-64-64-64-64 28.715-64 64zM576 170.667c0-35.285-28.715-64-64-64s-64 28.715-64 64 28.715 64 64 64 64-28.715 64-64zM298.667 661.333c-35.285 0-64 28.715-64 64s28.715 64 64 64 64-28.715 64-64-28.715-64-64-64z" />
<glyph unicode="&#xe99b;" glyph-name="globe" d="M512 874.667c-235.264 0-426.667-191.403-426.667-426.667s191.403-426.667 426.667-426.667 426.667 191.403 426.667 426.667-191.403 426.667-426.667 426.667zM850.389 490.667h-117.931c-4.949 92.373-31.147 183.467-76.459 266.368 104.021-48.683 179.499-148.096 194.389-266.368zM534.613 788.181c44.16-58.197 103.552-161.28 112.085-297.515h-261.419c5.931 110.763 42.411 214.528 104.576 297.557 7.339 0.427 14.677 1.109 22.144 1.109 7.637 0 15.104-0.683 22.613-1.152zM370.688 758.315c-41.984-80.683-66.219-172.16-70.741-267.648h-126.336c15.019 119.296 91.648 219.435 197.077 267.648zM173.611 405.333h126.891c5.803-101.504 28.373-191.061 66.389-265.813-103.467 48.896-178.475 147.968-193.28 265.813zM488.533 107.819c-59.776 72.448-95.061 173.952-102.784 297.515h260.821c-8.875-118.315-47.659-221.696-111.061-297.472-7.765-0.512-15.531-1.195-23.509-1.195-7.936 0-15.659 0.683-23.467 1.152zM659.669 140.757c40.747 76.544 65.621 166.443 72.149 264.576h118.528c-14.635-116.864-88.576-215.339-190.677-264.576z" />
<glyph unicode="&#xe99c;" glyph-name="globe-alt" d="M625.365 817.365c133.077-133.12 133.077-349.653 0-482.731-133.077-133.035-349.653-133.12-482.731 0l-60.331-60.331c83.2-83.157 192.427-124.757 301.696-124.757 28.587 0 57.173 2.987 85.333 8.704v-51.584h-85.333v-85.333h256v85.333h-85.333v78.72c47.531 20.693 92.203 50.091 131.029 88.917 166.315 166.315 166.315 437.035 0 603.435l-60.331-60.373zM384 320c141.184 0 256 114.816 256 256s-114.816 256-256 256-256-114.816-256-256 114.816-256 256-256zM384 746.667c94.123 0 170.667-76.544 170.667-170.667s-76.544-170.667-170.667-170.667-170.667 76.544-170.667 170.667 76.544 170.667 170.667 170.667z" />
<glyph unicode="&#xe99d;" glyph-name="google" d="M853.333 490.667h-341.333v-85.333h295.68c-18.389-130.773-120.661-256-295.68-256-164.693 0-298.709 134.016-298.709 298.667 0 164.693 134.016 298.667 298.709 298.667 79.701 0 154.027-30.208 209.195-85.035l60.16 60.544c-71.253 70.827-166.955 109.824-269.355 109.824-211.755 0-384.043-172.288-384.043-384 0-211.755 172.288-384 384.043-384 240.384 0 384 195.243 384 384 0 23.552-19.072 42.667-42.667 42.667z" />
<glyph unicode="&#xe99e;" glyph-name="grid" d="M426.667 533.333h170.667v-170.667h-170.667v170.667zM682.667 533.333h170.667v-170.667h-170.667v170.667zM682.667 789.333h170.667v-170.667h-170.667v170.667zM426.667 789.333h170.667v-170.667h-170.667v170.667zM170.667 789.333h170.667v-170.667h-170.667v170.667zM170.667 533.333h170.667v-170.667h-170.667v170.667zM426.667 277.333h170.667v-170.667h-170.667v170.667zM682.667 277.333h170.667v-170.667h-170.667v170.667zM170.667 277.333h170.667v-170.667h-170.667v170.667z" />
<glyph unicode="&#xe99f;" glyph-name="group" d="M404.651 341.333c129.365 0 234.667-105.301 234.667-234.667h85.333c0 127.573-75.221 237.611-183.467 288.981 39.467 36.736 64.597 88.704 64.597 146.773 0 110.933-90.197 201.173-201.131 201.173s-201.088-90.24-201.088-201.131c0-58.069 25.131-110.037 64.597-146.773-108.245-51.371-183.467-161.408-183.467-288.981h85.333c-0.043 129.323 105.259 234.624 234.624 234.624zM288.896 542.464c0 63.872 51.968 115.84 115.797 115.84s115.797-51.968 115.797-115.84c0-63.829-51.968-115.797-115.797-115.797s-115.797 51.968-115.797 115.797zM673.365 397.013l22.784-23.424c69.589-62.379 114.517-167.125 114.517-266.923h85.333c0 122.155-52.437 246.101-135.296 323.413 21.077 34.261 32.427 76.629 31.829 121.387-0.939 69.547-30.379 136.491-80.725 183.68l-58.325-62.251c33.493-31.403 53.077-76.075 53.717-122.581 0.512-37.888-11.563-71.936-33.195-93.312-16.64-16.469-16.939-43.221-0.64-59.989z" />
<glyph unicode="&#xe9a0;" glyph-name="hash" d="M128 362.667v-85.333h159.189l-30.464-162.347 83.84-15.744 33.451 178.091h211.883l-30.464-162.347 83.84-15.744 33.408 178.091h180.651v85.333h-164.651l32.043 170.667h175.275v85.333h-159.275l30.549 162.773-83.84 15.744-33.536-178.517h-211.883l30.549 162.773-83.797 15.787-33.536-178.56h-180.565v-85.333h164.565l-32.043-170.667h-175.189zM422.059 533.333h211.883l-32.043-170.667h-211.883l32.043 170.667z" />
<glyph unicode="&#xe9a1;" glyph-name="hdd" d="M725.333 320h85.333v-85.333h-85.333v85.333zM597.333 320h85.333v-85.333h-85.333v85.333zM937.387 415.659l-85.333 341.333c-4.779 18.987-21.803 32.341-41.387 32.341h-554.667c-17.792 0-33.707-11.051-39.979-27.648l-128-341.333 0.299-0.128c-1.749-4.693-2.987-9.6-2.987-14.891v-256c0-23.595 19.072-42.667 42.667-42.667h768c23.595 0 42.667 19.072 42.667 42.667v256c0 3.584-1.195 6.784-2.048 10.155l0.768 0.171zM285.568 704h491.733l64.043-256h-651.776l96 256zM853.333 192h-682.667v170.667h682.667v-170.667z" />
<glyph unicode="&#xe9a2;" glyph-name="heading" d="M256 789.333v-682.667h85.333v298.667h341.333v-298.667h85.333v682.667h-85.333v-298.667h-341.333v298.667z" />
<glyph unicode="&#xe9a3;" glyph-name="headphone" d="M896 448h-42.667v85.333c0 188.203-153.131 341.333-341.333 341.333s-341.333-153.131-341.333-341.333v-85.333h-42.667c-23.595 0-42.667-19.072-42.667-42.667v-256c0-23.595 19.072-42.667 42.667-42.667h85.333c23.595 0 42.667 19.072 42.667 42.667v384c0 141.184 114.816 256 256 256s256-114.816 256-256v-384c0-23.595 19.072-42.667 42.667-42.667h85.333c23.595 0 42.667 19.072 42.667 42.667v256c0 23.595-19.072 42.667-42.667 42.667zM298.667 448h85.333v-341.333h-85.333v341.333zM640 448h85.333v-341.333h-85.333v341.333z" />
<glyph unicode="&#xe9a4;" glyph-name="heart" d="M512 62.677c13.739 0 25.984 6.955 33.792 17.451l316.373 316.373c100.437 100.437 100.437 258.091-0.085 359.083-48.512 48.256-112.256 74.837-179.584 74.837-63.275 0-123.392-23.552-170.496-66.475-47.104 42.923-107.179 66.475-170.496 66.475-67.328 0-131.072-26.581-179.755-75.008-100.395-100.821-100.352-258.517 0.085-358.912l312.832-312.832c7.253-12.757 21.248-20.992 37.333-20.992zM222.080 695.083c32.427 32.256 74.837 50.005 119.424 50.005s86.827-17.749 118.997-49.92l21.333-21.333c16.683-16.683 43.648-16.683 60.331 0l21.333 21.333c64.512 64.384 173.824 64.213 238.251 0.085 66.688-67.029 66.731-171.733 0.085-238.421l-289.835-289.835-289.835 289.835c-66.645 66.688-66.603 171.392-0.085 238.251z" />
<glyph unicode="&#xe9a5;" glyph-name="hexagon" d="M282.709 85.973c7.509-13.568 21.803-21.973 37.291-21.973h384c15.488 0 29.781 8.405 37.291 21.973l189.611 341.333c7.168 12.885 7.168 28.544 0 41.472l-189.611 341.333c-7.509 13.483-21.803 21.888-37.291 21.888h-384c-15.488 0-29.781-8.405-37.291-21.931l-189.611-341.333c-7.168-12.885-7.168-28.544 0-41.472l189.611-341.291zM345.131 746.667h333.739l165.973-298.667-165.973-298.667h-333.739l-165.973 298.667 165.973 298.667z" />
</font>
</defs>
</svg>
