<?xml version="1.0" standalone="no"?>
<!DOCTYPE svg PUBLIC "-//W3C//DTD SVG 1.1//EN" "http://www.w3.org/Graphics/SVG/1.1/DTD/svg11.dtd" >
<svg xmlns="http://www.w3.org/2000/svg">
<metadata>Generated by IcoMoon</metadata>
<defs>
<font id="boxicons" horiz-adv-x="1024">
<font-face units-per-em="1024" ascent="960" descent="-64" />
<missing-glyph horiz-adv-x="1024" />
<glyph unicode="&#x20;" horiz-adv-x="512" d="" />
<glyph unicode="&#xe900;" glyph-name="adjust" d="M512 874.667c-231.296 0-426.667-195.413-426.667-426.667s195.371-426.667 426.667-426.667 426.667 195.413 426.667 426.667-195.371 426.667-426.667 426.667zM512 106.667c-185.045 0-341.333 156.331-341.333 341.333s156.288 341.333 341.333 341.333 341.333-156.331 341.333-341.333-156.288-341.333-341.333-341.333zM512 704v-512c140.032 0 256 116.011 256 256 0 140.117-115.968 256-256 256z" />
<glyph unicode="&#xe901;" glyph-name="alarm-off" d="M926.165 94.165l-768 768-60.331-60.331 33.749-33.749-33.792-33.92 60.416-60.245 33.707 33.835 41.771-41.771c-64.896-69.12-105.685-160.939-105.685-260.651 0-208.171 175.829-384 384-384 99.712 0 191.531 40.789 260.608 105.728l93.227-93.227 60.331 60.331zM512 106.667c-161.877 0-298.667 136.789-298.667 298.667 0 76.544 30.976 147.157 80.341 200.661l175.659-175.659v-67.669h67.669l175.659-175.659c-53.504-49.365-124.117-80.341-200.661-80.341zM865.877 673.792l-128.427 128 60.203 60.459 128.427-128zM877.056 288.939c11.93 34.724 18.857 74.736 18.944 116.354v0.041c0 208.171-175.829 384-384 384-40.363 0-79.445-6.784-116.395-18.944l70.443-70.443c13.74 2.455 29.627 3.924 45.833 4.053l0.119 0.001c161.877 0 298.667-136.789 298.667-298.667 0-15.616-1.621-30.891-4.096-45.909l70.485-70.485z" />
<glyph unicode="&#xe902;" glyph-name="album" d="M597.333 448.299c0-47.293-38.339-85.632-85.632-85.632s-85.632 38.339-85.632 85.632c0 47.293 38.339 85.632 85.632 85.632s85.632-38.339 85.632-85.632zM512 874.667c-235.264 0-426.667-191.403-426.667-426.667s191.403-426.667 426.667-426.667 426.667 191.403 426.667 426.667-191.403 426.667-426.667 426.667zM512 106.667c-188.203 0-341.333 153.131-341.333 341.333s153.131 341.333 341.333 341.333 341.333-153.131 341.333-341.333-153.131-341.333-341.333-341.333zM512 704c-141.184 0-256-114.816-256-256h85.333c0 94.123 76.544 170.667 170.667 170.667v85.333z" />
<glyph unicode="&#xe903;" glyph-name="align-left" d="M128 149.333h768v-85.333h-768zM128 320h512v-85.333h-512zM128 490.667h768v-85.333h-768zM128 832h768v-85.333h-768zM128 661.333h512v-85.333h-512z" />
<glyph unicode="&#xe904;" glyph-name="align-middle" d="M128 149.333h768v-85.333h-768zM256 320h512v-85.333h-512zM128 490.667h768v-85.333h-768zM128 832h768v-85.333h-768zM256 661.333h512v-85.333h-512z" />
<glyph unicode="&#xe905;" glyph-name="align-right" d="M128 832h768v-85.333h-768zM128 149.333h768v-85.333h-768zM341.333 320h554.667v-85.333h-554.667zM128 490.667h768v-85.333h-768zM341.333 661.333h554.667v-85.333h-554.667z" />
<glyph unicode="&#xe906;" glyph-name="anchor" d="M810.667 405.333h-85.333v-85.333h38.955c-18.56-105.387-104.235-190.763-209.621-209.323v294.656h85.333v85.333h-85.333v70.997c65.835 19.584 115.797 82.048 115.797 154.496 0 87.424-71.083 158.507-158.464 158.507s-158.464-71.083-158.464-158.507c0-72.448 49.963-134.912 115.797-154.496v-70.997h-85.333v-85.333h85.333v-294.656c-105.387 18.56-191.104 103.936-209.621 209.323h38.955v85.333h-85.333c-23.564 0-42.667-19.103-42.667-42.667v0c0-170.581 132.907-316.416 298.667-338.219v-3.115h85.333v3.115c165.76 21.803 298.667 167.637 298.667 338.219 0 23.564-19.103 42.667-42.667 42.667v0zM438.869 716.16c0 40.32 32.811 73.173 73.131 73.173s73.131-32.853 73.131-73.173c0-40.576-34.176-76.16-73.131-76.16s-73.131 35.584-73.131 76.16z" />
<glyph unicode="&#xe907;" glyph-name="aperture" d="M512 874.667c-231.296 0-426.667-195.371-426.667-426.667s195.371-426.667 426.667-426.667 426.667 195.371 426.667 426.667-195.371 426.667-426.667 426.667zM602.155 320h-176.085l-73.515 132.011 82.731 123.989h159.403l79.829-130.645-72.363-125.355zM170.667 448c0 40.661 7.936 79.787 21.675 116.352l136.021-244.352h-131.669c-16.37 37.774-25.933 81.758-26.027 127.964v0.036zM694.741 576h132.523c16.403-37.769 25.982-81.755 26.069-127.967v-0.033c0-36.011-6.101-70.827-16.939-103.765l-141.653 231.765zM776.021 661.333h-283.861l81.28 121.899c80.469-15.317 151.979-59.861 202.581-121.899zM473.301 786.816l-83.669-125.483h-5.632v-8.405l-78.080-117.12-64.853 116.395c55.467 72.661 138.624 123.52 232.235 134.613zM247.979 234.667h304.939l-72.917-126.336c-92.416 9.088-175.317 56.789-232.021 126.336zM581.973 114.347l143.232 248.107 65.877-107.776c-49.237-70.059-123.776-121.771-209.109-140.331z" />
<glyph unicode="&#xe908;" glyph-name="archive" d="M256 448h512v-85.333h-512zM936.448 589.44l-85.333 256.043c-5.777 17.095-21.671 29.184-40.388 29.184-0.021 0-0.042 0-0.063 0h-597.33c-0.009 0-0.019 0-0.029 0-18.725 0-34.627-12.087-40.33-28.884l-0.088-0.3-85.333-256 0.512-0.171c-1.593-3.932-2.582-8.486-2.729-13.252l-0.001-0.060v-426.667c0-23.564 19.103-42.667 42.667-42.667v0h768c23.564 0 42.667 19.103 42.667 42.667v0 426.667c-0.165 4.826-1.137 9.378-2.784 13.592l0.096-0.28 0.469 0.128zM244.096 789.333h535.851l56.875-170.667h-649.643l56.917 170.667zM853.333 192h-682.667v341.333h682.667v-341.333z" />
<glyph unicode="&#xe909;" glyph-name="archive-in" d="M554.667 106.667v170.667h128l-170.667 170.667-170.667-170.667h128v-170.667zM936.448 589.525l-85.333 255.957c-5.777 17.095-21.671 29.184-40.388 29.184-0.021 0-0.042 0-0.063 0h-597.33c-0.009 0-0.019 0-0.029 0-18.725 0-34.627-12.087-40.33-28.884l-0.088-0.3-85.333-256 0.512-0.171c-1.593-3.932-2.582-8.486-2.729-13.252l-0.001-0.060v-426.667c0-23.564 19.103-42.667 42.667-42.667v0h256v85.333h-213.333v341.333h682.667v-341.333h-213.333v-85.333h256c23.564 0 42.667 19.103 42.667 42.667v0 426.667c-0.155 4.84-1.128 9.407-2.784 13.632l0.096-0.278 0.469 0.171zM244.096 789.333h535.851l56.917-170.667h-649.685l56.917 170.667z" />
<glyph unicode="&#xe90a;" glyph-name="archive-out" d="M469.333 448v-170.667h-128l170.667-170.667 170.667 170.667h-128v170.667zM936.448 589.525l-85.333 255.957c-5.777 17.095-21.671 29.184-40.388 29.184-0.021 0-0.042 0-0.063 0h-597.33c-0.009 0-0.019 0-0.029 0-18.725 0-34.627-12.087-40.33-28.884l-0.088-0.3-85.333-256 0.512-0.171c-1.593-3.932-2.582-8.486-2.729-13.252l-0.001-0.060v-426.667c0-23.564 19.103-42.667 42.667-42.667v0h213.333v85.333h-170.667v341.333h682.667v-341.333h-170.667v-85.333h213.333c23.564 0 42.667 19.103 42.667 42.667v0 426.667c-0.155 4.84-1.128 9.407-2.784 13.632l0.096-0.278 0.469 0.171zM244.096 789.333h535.851l56.917-170.667h-649.685l56.917 170.667z" />
<glyph unicode="&#xe90b;" glyph-name="arrow-back" d="M563.499 264.832l-140.501 140.501h345.003v85.333h-345.003l140.501 140.501-60.331 60.331-243.499-243.499 243.499-243.499z" />
<glyph unicode="&#xe90c;" glyph-name="asterisk" d="M469.333 704v-182.101l-157.696 91.051-42.667-73.899 157.696-91.051-157.653-91.051 42.667-73.899 157.653 91.051v-182.101h85.333v182.101l157.653-91.051 42.667 73.899-157.653 91.051 157.696 91.051-42.667 73.899-157.696-91.051v182.101z" />
<glyph unicode="&#xe90d;" glyph-name="at" d="M512 874.667c-235.264 0-426.667-191.403-426.667-426.667s191.403-426.667 426.667-426.667c62.549 0 126.336 15.829 189.525 47.104l-37.76 76.501c-51.371-25.387-102.443-38.272-151.765-38.272-188.203 0-341.333 153.131-341.333 341.333s153.131 341.333 341.333 341.333 341.333-153.131 341.333-341.333v-42.667c0-29.525-13.355-85.333-64-85.333-59.563 0-63.744 77.611-64 85.333v213.333h-85.333v-1.067c-35.051 27.134-79.591 43.557-127.959 43.733h-0.041c-117.632 0-213.333-95.701-213.333-213.333s95.701-213.333 213.333-213.333c61.867 0 117.248 26.923 156.245 69.163 22.357-37.973 60.075-69.163 121.088-69.163 96.981 0 149.333 87.936 149.333 170.667v42.667c0 235.264-191.403 426.667-426.667 426.667zM512 320c-70.571 0-128 57.429-128 128s57.429 128 128 128 128-57.429 128-128-57.429-128-128-128z" />
<glyph unicode="&#xe90e;" glyph-name="award" d="M213.333 576.043c0-81.152 32.64-154.752 85.333-208.64v-303.403c0-0.047 0-0.103 0-0.158 0-23.517 19.064-42.581 42.581-42.581 6.987 0 13.58 1.683 19.398 4.665l-0.24-0.112 151.595 75.819 151.595-75.776c5.56-2.873 12.136-4.558 19.106-4.558 8.285 0 16.015 2.381 22.541 6.495l-0.175-0.103c12.587 7.808 20.267 21.504 20.267 36.309v303.36c52.761 53.671 85.333 127.334 85.333 208.605 0 0.027 0 0.055 0 0.082v-0.004c0 164.651-133.973 298.624-298.667 298.624s-298.667-133.973-298.667-298.624zM531.072 187.52c-5.562 2.844-12.133 4.511-19.093 4.511s-13.531-1.667-19.335-4.622l0.242 0.112-108.885-54.485v173.525c38.869-18.517 82.176-29.227 128-29.227s89.131 10.667 128 29.227v-173.483l-108.928 54.443zM512 789.333c117.589 0 213.333-95.659 213.333-213.291-0.121-117.781-95.556-213.23-213.32-213.376h-0.014c-117.632 0-213.333 95.701-213.333 213.376 0.146 117.754 95.576 213.169 213.322 213.291h0.012z" />
<glyph unicode="&#xe90f;" glyph-name="bar-chart" d="M341.333 746.667h85.333v-682.667h-85.333zM512 661.333h85.333v-597.333h-85.333zM682.667 832h85.333v-768h-85.333zM170.667 448h85.333v-384h-85.333z" />
<glyph unicode="&#xe910;" glyph-name="bar-chart-alt" d="M554.667 704h85.333v-469.333h-85.333zM725.333 832h85.333v-597.333h-85.333zM384 576h85.333v-341.333h-85.333zM213.333 448h85.333v-213.333h-85.333zM170.667 149.333h682.667v-85.333h-682.667z" />
<glyph unicode="&#xe911;" glyph-name="bar-chart-square" d="M128 789.333v-682.667c0-23.564 19.103-42.667 42.667-42.667v0h682.667c23.564 0 42.667 19.103 42.667 42.667v0 682.667c0 23.564-19.103 42.667-42.667 42.667v0h-682.667c-23.564 0-42.667-19.103-42.667-42.667v0zM213.333 746.667h597.333v-597.333h-597.333v597.333zM469.333 661.333h85.333v-426.667h-85.333zM640 533.333h85.333v-298.667h-85.333zM298.667 448h85.333v-213.333h-85.333z" />
<glyph unicode="&#xe912;" glyph-name="barcode" d="M896 789.333h-768c-23.564 0-42.667-19.103-42.667-42.667v0-597.333c0-23.564 19.103-42.667 42.667-42.667v0h768c23.564 0 42.667 19.103 42.667 42.667v0 597.333c0 23.564-19.103 42.667-42.667 42.667v0zM853.333 192h-682.667v512h682.667v-512zM256 618.667h85.333v-341.333h-85.333zM384 618.667h42.667v-341.333h-42.667zM725.333 618.667h42.667v-341.333h-42.667zM554.667 618.667h128v-341.333h-128zM469.333 618.667h42.667v-341.333h-42.667z" />
<glyph unicode="&#xe913;" glyph-name="basketball" d="M512 874.667c-235.264 0-426.667-191.403-426.667-426.667s191.403-426.667 426.667-426.667 426.667 191.403 426.667 426.667-191.403 426.667-426.667 426.667zM554.667 490.667v295.723c73.637-9.575 138.501-41.409 189.052-88.427l-0.209 0.192c-55.211-53.973-91.221-128-100.736-207.445h-88.107zM469.333 490.667h-88.064c-9.557 79.445-45.568 153.515-100.779 207.445 50.33 46.853 115.198 78.704 187.127 88.094l1.715 0.183v-295.723zM294.955 490.667h-121.344c6.859 53.55 25.274 101.733 52.674 143.493l-0.791-1.285c36.651-37.675 60.928-87.936 69.461-142.208zM294.272 405.333c-10.306-53.774-36.048-100.34-72.378-136.208l-0.027-0.027c-24.555 38.966-41.65 85.075-48.075 134.533l-0.181 1.702h120.661zM381.099 405.333h88.235v-295.723c-76.077 9.848-142.908 43.509-194.183 93.145l0.092-0.089c57.557 54.4 95.488 125.995 105.856 202.667zM554.667 405.333h88.235c10.325-76.672 48.299-148.267 105.813-202.667-51.183-49.547-118.014-83.208-192.379-92.874l-1.711-0.182v295.723zM729.728 405.333h120.661c-6.606-51.16-23.701-97.269-49.082-137.642l0.826 1.408c-37.888 37.589-63.147 85.333-72.405 136.235zM729.045 490.667c8.533 54.272 32.853 104.533 69.461 142.208 26.609-40.475 45.023-88.658 51.705-140.516l0.178-1.692h-121.344z" />
<glyph unicode="&#xe914;" glyph-name="battery" d="M853.333 661.333c0 23.564-19.103 42.667-42.667 42.667v0h-682.667c-23.564 0-42.667-19.103-42.667-42.667v0-426.667c0-23.564 19.103-42.667 42.667-42.667v0h682.667c23.564 0 42.667 19.103 42.667 42.667v0 128h85.333v170.667h-85.333v128zM768 277.333h-597.333v341.333h597.333v-341.333z" />
<glyph unicode="&#xe915;" glyph-name="battery-charging" d="M291.541 448l177.792-47.36-44.459-165.973 222.251 213.333-177.792 47.36 44.416 165.973zM128 192h213.333l22.869 85.333h-193.536v341.333h201.515l88.875 85.333h-333.056c-23.564 0-42.667-19.103-42.667-42.667v0-426.667c0-23.564 19.103-42.667 42.667-42.667v0zM853.333 661.333c0 23.564-19.103 42.667-42.667 42.667v0h-213.333l-22.827-85.333h193.493v-341.333h-201.515l-88.917-85.333h333.099c23.564 0 42.667 19.103 42.667 42.667v0 128h85.333v170.667h-85.333v128z" />
<glyph unicode="&#xe916;" glyph-name="battery-full" d="M853.333 661.333c0 23.564-19.103 42.667-42.667 42.667v0h-682.667c-23.564 0-42.667-19.103-42.667-42.667v0-426.667c0-23.564 19.103-42.667 42.667-42.667v0h682.667c23.564 0 42.667 19.103 42.667 42.667v0 128h85.333v170.667h-85.333v128zM768 277.333h-597.333v341.333h597.333v-341.333zM256 533.333h426.667v-170.667h-426.667z" />
<glyph unicode="&#xe917;" glyph-name="battery-low" d="M853.333 661.333c0 23.564-19.103 42.667-42.667 42.667v0h-682.667c-23.564 0-42.667-19.103-42.667-42.667v0-426.667c0-23.564 19.103-42.667 42.667-42.667v0h682.667c23.564 0 42.667 19.103 42.667 42.667v0 128h85.333v170.667h-85.333v128zM768 277.333h-597.333v341.333h597.333v-341.333zM341.333 533.333h-85.333v-170.667h170.667z" />
<glyph unicode="&#xe918;" glyph-name="behance" d="M436.992 457.131c27.648 32.896 32.341 73.643 32.341 97.536 0 118.144-114.389 149.333-174.891 149.333h-166.443c-23.564 0-42.667-19.103-42.667-42.667v0-426.667c0-23.564 19.103-42.667 42.667-42.667v0h213.333c60.032 0 149.333 39.765 149.333 149.333 0 52.267-18.005 90.923-53.675 115.797zM170.667 618.667h123.776c3.669 0 89.557-0.725 89.557-64 0-32.384-6.613-64-85.547-64h-127.787v128zM341.077 277.333h-170.411v128h127.787c106.88 0 106.88-36.992 106.88-64 0-56.491-44.843-63.573-64.256-64zM746.667 618.667c-105.99-0.121-191.879-86.010-192-191.989v-42.678c0-105.856 86.144-192 190.848-192h0.043l3.115-0.043c17.92 0 92.288 3.157 143.573 53.12 20.693 20.181 34.176 45.781 41.003 74.923h-90.112c-2.893-5.161-6.264-9.605-10.158-13.529l0.004 0.004c-24.448-24.064-67.883-29.141-85.077-29.141-50.347-1.323-95.787 36.352-105.771 85.333h211.2v-0.256l47.275 0.512c21.495 2.403 38.055 20.473 38.059 42.41v0 21.333c0 105.856-86.144 192-192 192zM642.133 448c9.899 48.64 53.035 85.333 104.533 85.333s94.635-36.693 104.533-85.333h-209.067zM597.333 746.667h256v-85.333h-256z" />
<glyph unicode="&#xe919;" glyph-name="bell" d="M558.677 871.040l-43.221 3.499c-1.028 0.081-2.226 0.128-3.435 0.128s-2.407-0.046-3.592-0.138l0.157 0.010-45.355-3.712c-166.784-23.979-292.565-169.088-292.565-337.493v-163.755l-40.448-121.429c-1.386-4.023-2.186-8.66-2.186-13.483 0-23.553 19.084-42.648 42.633-42.667h192.002c0-82.347 66.987-149.333 149.333-149.333s149.333 66.987 149.333 149.333h192c0.257-0.006 0.559-0.009 0.863-0.009 23.564 0 42.667 19.103 42.667 42.667 0 7.772-2.078 15.058-5.708 21.334l0.11-0.205-37.931 113.792v163.755c0 168.107-125.525 313.173-294.656 337.707zM512 128c-35.883 0-64 28.117-64 64h128c0-35.883-28.117-64-64-64zM229.888 277.333l23.936 71.851c1.361 4.023 2.156 8.656 2.176 13.473v170.677c0 126.251 94.336 235.051 216.747 252.715l39.296 3.157 37.035-2.901c124.8-18.176 218.923-126.933 218.923-252.971v-170.667c0-4.565 0.768-9.131 2.219-13.483l23.893-71.851h-564.224z" />
<glyph unicode="&#xe91a;" glyph-name="bell-minus" d="M341.333 576h341.333v-85.333h-341.333zM853.333 369.579v163.755c0 168.107-125.525 313.173-294.656 337.707l-43.221 3.499c-1.028 0.081-2.226 0.128-3.435 0.128s-2.407-0.046-3.592-0.138l0.157 0.010-45.355-3.712c-166.784-23.979-292.565-169.088-292.565-337.493v-163.755l-40.448-121.429c-1.386-4.023-2.186-8.66-2.186-13.483 0-23.553 19.084-42.648 42.633-42.667h192.002c0-82.347 66.987-149.333 149.333-149.333s149.333 66.987 149.333 149.333h192.853c0.001 0 0.003 0 0.005 0 23.564 0 42.667 19.103 42.667 42.667 0 7.768-2.076 15.052-5.704 21.326l0.11-0.206-37.931 113.792zM512 128c-35.883 0-64 28.117-64 64h128c0-35.883-28.117-64-64-64zM229.888 277.333l23.936 71.851c1.361 4.023 2.156 8.656 2.176 13.473v170.677c0 126.251 94.336 235.051 216.747 252.715l39.296 3.157 37.035-2.901c124.8-18.176 218.923-126.933 218.923-252.971v-170.667c0-4.565 0.768-9.131 2.219-13.483l23.893-71.851h-564.224z" />
<glyph unicode="&#xe91b;" glyph-name="bell-off" d="M97.835 801.835l112.171-112.171c-24.545-45.272-39.077-99.075-39.338-156.25v-163.836l-40.448-121.429c-1.386-4.023-2.186-8.66-2.186-13.483 0-23.553 19.084-42.648 42.633-42.667h192.002c0-82.347 66.987-149.333 149.333-149.333s149.333 66.987 149.333 149.333h46.336l158.165-158.165 60.331 60.331-768 768-60.331-60.331zM512 128c-35.883 0-64 28.117-64 64h128c0-35.883-28.117-64-64-64zM229.888 277.333l23.936 71.851c1.361 4.023 2.156 8.656 2.176 13.473v170.677c0 32.341 7.040 63.104 18.56 91.776l347.776-347.776h-392.448zM558.677 871.040l-43.221 3.499c-1.028 0.081-2.226 0.128-3.435 0.128s-2.407-0.046-3.592-0.138l0.157 0.010-45.355-3.712c-46.548-6.929-88.368-22.433-125.488-44.918l1.499 0.843 63.104-63.104c20.383 10.357 44.037 18.177 68.958 22.213l1.399 0.187 39.296 3.157 37.035-2.901c124.843-18.176 218.965-126.933 218.965-252.971v-135.339l113.792-113.792-28.459 85.376v163.755c0 168.107-125.525 313.173-294.656 337.707z" />
<glyph unicode="&#xe91c;" glyph-name="bell-plus" d="M554.709 704h-85.333v-128h-128.043v-85.333h128.043v-128h85.333v128h127.957v85.333h-127.957zM853.333 369.579v163.755c0 168.107-125.525 313.173-294.656 337.707l-43.221 3.499c-1.028 0.081-2.226 0.128-3.435 0.128s-2.407-0.046-3.592-0.138l0.157 0.010-45.355-3.712c-166.784-23.979-292.565-169.088-292.565-337.493v-163.755l-40.448-121.429c-1.386-4.023-2.186-8.66-2.186-13.483 0-23.553 19.084-42.648 42.633-42.667h192.002c0-82.347 66.987-149.333 149.333-149.333s149.333 66.987 149.333 149.333h192.853c0.001 0 0.003 0 0.005 0 23.564 0 42.667 19.103 42.667 42.667 0 7.768-2.076 15.052-5.704 21.326l0.11-0.206-37.931 113.792zM512 128c-35.883 0-64 28.117-64 64h128c0-35.883-28.117-64-64-64zM229.888 277.333l23.936 71.851c1.361 4.023 2.156 8.656 2.176 13.473v170.677c0 126.251 94.336 235.051 216.747 252.715l39.296 3.157 37.035-2.901c124.8-18.176 218.923-126.933 218.923-252.971v-170.667c0-4.565 0.768-9.131 2.219-13.483l23.893-71.851h-564.224z" />
<glyph unicode="&#xe91d;" glyph-name="bitcoin" d="M640 21.333v87.253c86.229 9.429 170.667 74.88 170.667 190.080 0 80.597-41.515 136.789-95.829 166.741 32.823 34.197 53.065 80.688 53.163 131.906v0.019c0 83.328-53.675 153.728-128 180.224v97.109h-85.333v-85.333h-85.333v85.333h-85.333v-85.333h-128v-85.333h85.333v-512h-85.333v-85.333h128v-85.333h85.333v85.333h85.333v-85.333h85.333zM426.667 704h149.333c58.837 0 106.667-47.829 106.667-106.667s-47.829-106.667-106.667-106.667h-149.333v213.333zM426.667 405.333h192c36.864 0 106.667-22.272 106.667-106.667s-69.803-106.667-106.667-106.667h-192v213.333z" />
<glyph unicode="&#xe91e;" glyph-name="block" d="M512 874.667c-235.264 0-426.667-191.403-426.667-426.667s191.403-426.667 426.667-426.667 426.667 191.403 426.667 426.667-191.403 426.667-426.667 426.667zM170.667 448c0 78.763 27.051 151.125 72.021 208.939l478.251-478.251c-56.967-44.903-129.777-72.021-208.92-72.021-0.006 0-0.013 0-0.019 0h0.001c-188.203 0-341.333 153.131-341.333 341.333zM781.312 239.061l-478.251 478.251c56.975 44.901 129.79 72.019 208.938 72.021v0c188.203 0 341.333-153.131 341.333-341.333-0.024-79.146-27.137-151.956-72.572-209.664l0.551 0.726z" />
<glyph unicode="&#xe91f;" glyph-name="bluetooth" d="M239.829 201.216l186.837 147.925v-285.141c0.048-23.551 19.151-42.624 42.709-42.624 9.633 0 18.521 3.189 25.666 8.569l-0.109-0.079 256 192c10.413 7.867 17.072 20.224 17.072 34.137 0 13.515-6.284 25.563-16.090 33.38l-0.086 0.066-200.277 158.549 200.277 158.549c9.877 7.892 16.149 19.936 16.149 33.446 0 13.907-6.647 26.262-16.938 34.061l-0.107 0.077-256 192c-7.036 5.302-15.924 8.491-25.557 8.491-23.558 0-42.661-19.073-42.709-42.62v-285.146l-186.837 147.925-52.992-66.901 227.243-179.883-227.243-179.883 52.992-66.901zM512 746.667l143.445-107.563-143.445-113.579v221.141zM512 370.475l143.445-113.579-143.445-107.563v221.141z" />
<glyph unicode="&#xe920;" glyph-name="body" d="M597.333 789.333c0-47.128-38.205-85.333-85.333-85.333s-85.333 38.205-85.333 85.333c0 47.128 38.205 85.333 85.333 85.333s85.333-38.205 85.333-85.333zM853.333 661.333h-682.667v-85.333h213.333v-554.667h85.333v298.667h85.333v-298.667h85.333v554.667h213.333z" />
<glyph unicode="&#xe921;" glyph-name="bold" d="M533.333 789.333h-213.333c-35.346 0-64-28.654-64-64v0-554.667c0-35.346 28.654-64 64-64v0h213.333c138.155 0 234.667 87.723 234.667 213.333 0 66.773-33.237 122.112-81.152 159.659 23.991 32.543 38.42 73.417 38.485 117.659v0.016c0 93.099-67.285 192-192 192zM384 661.333h149.333c50.517 0 64-40.235 64-64s-13.483-64-64-64h-149.333v128zM533.333 234.667h-149.333v170.667h149.333c50.347 0 106.667-36.48 106.667-85.333 0-53.419-39.893-85.333-106.667-85.333z" />
<glyph unicode="&#xe922;" glyph-name="bolt" d="M414.293 23.168c3.709-1.169 7.974-1.843 12.397-1.843 14.735 0 27.723 7.476 35.378 18.843l0.096 0.152 341.333 512c4.494 6.653 7.174 14.854 7.174 23.68 0 23.564-19.103 42.667-42.667 42.667-0.002 0-0.005 0-0.007 0h-205.61l34.389 206.293c0.374 2.118 0.588 4.557 0.588 7.046 0 10.542-3.838 20.187-10.194 27.614l0.048-0.058c-7.861 9.264-19.513 15.104-32.529 15.104-0.009 0-0.018 0-0.027 0h-255.999c0 0 0 0-0.001 0-22.061 0-40.212-16.744-42.437-38.217l-0.015-0.183-42.667-426.667c-0.136-1.279-0.214-2.764-0.214-4.267 0-23.564 19.103-42.667 42.667-42.667 0 0 0 0 0.001 0h128v-298.667c0.001-19.15 12.617-35.353 29.991-40.751l0.302-0.081zM303.147 448l34.133 341.333h166.997l-34.389-206.293c-0.374-2.118-0.588-4.557-0.588-7.046 0-10.542 3.838-20.187 10.194-27.614l-0.048 0.058c8.107-9.6 20.011-15.104 32.555-15.104h176.299l-218.965-328.405v200.405c0 23.564-19.103 42.667-42.667 42.667v0h-123.52z" />
<glyph unicode="&#xe923;" glyph-name="book" d="M763.051 851.157c-7.175 14.054-21.545 23.509-38.124 23.509-0.007 0-0.014 0-0.021 0h-426.239c-51.456 0-128-34.091-128-128v-597.333c0-93.909 76.544-128 128-128h512c23.564 0 42.667 19.103 42.667 42.667v0 597.333c-0.124 6.953-1.926 13.459-5.016 19.165l0.109-0.221 0.384 0.171-85.76 170.709zM299.179 789.333h399.445l42.88-85.333h-442.325c-19.712 0.512-43.179 8.32-43.179 42.667s23.467 42.155 43.179 42.667zM768 106.667h-468.821c-19.712 0.512-43.179 8.32-43.179 42.667v469.333h512v-512zM384 533.333h298.667v-85.333h-298.667z" />
<glyph unicode="&#xe924;" glyph-name="book-bookmark" d="M853.333 661.333c0 6.656-1.835 12.8-4.523 18.432l0.256 0.128-82.261 170.667c-7.040 14.38-21.567 24.107-38.365 24.107-0.012 0-0.025 0-0.037 0h-429.737c-51.456 0-128-34.091-128-128v-597.333c0-93.909 76.544-128 128-128h512c23.564 0 42.667 19.103 42.667 42.667v0 597.333zM298.667 789.333h402.944l41.131-85.333h-443.563c-19.712 0.512-43.179 8.277-43.179 42.667s23.467 42.155 42.667 42.667zM768 106.667h-468.821c-19.712 0.512-43.179 8.277-43.179 42.667v469.333h256v-256l85.333 42.667 85.333-42.667v256h85.333v-512z" />
<glyph unicode="&#xe925;" glyph-name="bookmark" d="M213.333 874.667c-23.564 0-42.667-19.103-42.667-42.667v0-768c0.008-23.558 19.107-42.653 42.667-42.653 7.786 0 15.084 2.085 21.367 5.728l-0.205-0.11 277.504 158.592 277.504-158.592c6.079-3.555 13.384-5.654 21.18-5.654 7.886 0 15.269 2.148 21.599 5.89l-0.197-0.108c12.795 7.526 21.248 21.226 21.248 36.901 0 0.002 0 0.004 0 0.006v0 768c0 23.564-19.103 42.667-42.667 42.667v0h-597.333zM768 137.557l-234.837 134.187c-6.074 3.5-13.359 5.565-21.125 5.565-7.797 0-15.108-2.081-21.407-5.718l0.207 0.11-234.837-134.144v651.776h512v-651.776z" />
<glyph unicode="&#xe926;" glyph-name="bookmark-minus" d="M341.333 576h341.333v-85.333h-341.333zM810.667 21.333c0.025 0 0.055 0 0.085 0 23.517 0 42.581 19.064 42.581 42.581 0 0.030 0 0.060 0 0.090v-0.005 768c0 23.564-19.103 42.667-42.667 42.667v0h-597.333c-23.564 0-42.667-19.103-42.667-42.667v0-768c0.050-23.55 19.152-42.622 42.709-42.622 7.768 0 15.051 2.074 21.326 5.697l-0.206-0.11 277.504 158.549 277.504-158.549c6.070-3.541 13.361-5.632 21.141-5.632 0.007 0 0.015 0 0.022 0h-0.001zM768 137.515l-234.837 134.187c-6.078 3.537-13.376 5.625-21.163 5.625s-15.085-2.088-21.367-5.734l0.204 0.109-234.837-134.187v651.819h512v-651.819z" />
<glyph unicode="&#xe927;" glyph-name="bookmark-plus" d="M469.333 362.667h85.333v128h128v85.333h-128v128h-85.333v-128h-128v-85.333h128zM853.333 832c0 23.564-19.103 42.667-42.667 42.667v0h-597.333c-23.564 0-42.667-19.103-42.667-42.667v0-768c0.008-23.558 19.107-42.653 42.667-42.653 7.786 0 15.084 2.085 21.367 5.728l-0.205-0.11 277.504 158.549 277.504-158.549c6.079-3.555 13.384-5.654 21.18-5.654 7.886 0 15.269 2.148 21.599 5.89l-0.197-0.108c12.795 7.526 21.248 21.226 21.248 36.901 0 0.002 0 0.004 0 0.006v0 768zM768 137.515l-234.837 134.187c-6.075 3.549-13.374 5.644-21.163 5.644s-15.088-2.095-21.365-5.753l0.202 0.109-234.837-134.187v651.819h512v-651.819z" />
<glyph unicode="&#xe928;" glyph-name="bookmarks" d="M256 704c-23.564 0-42.667-19.103-42.667-42.667v0-597.333c0.005-23.561 19.105-42.659 42.667-42.659 8.116 0 15.703 2.266 22.162 6.2l-0.188-0.107 191.36 114.816 191.36-114.816c6.277-3.813 13.866-6.070 21.982-6.070 7.727 0 14.977 2.046 21.236 5.626l-0.21-0.111c13.010 7.474 21.632 21.29 21.632 37.12v0 597.333c0 23.564-19.103 42.667-42.667 42.667v0h-426.667zM640 139.392l-148.693 89.216c-6.267 3.797-13.84 6.044-21.938 6.044-8.127 0-15.725-2.263-22.199-6.194l0.19 0.107-148.693-89.173v479.275h341.333v-479.275zM896 277.333v554.667c0 23.564-19.103 42.667-42.667 42.667v0h-426.667v-85.333h384v-512h85.333z" />
<glyph unicode="&#xe929;" glyph-name="book-open" d="M920.96 823.936c-6.92 5.044-15.592 8.071-24.971 8.071-4.819 0-9.451-0.799-13.772-2.272l0.3 0.089-370.517-123.52-370.517 123.52c-4.023 1.386-8.66 2.186-13.483 2.186-23.564 0-42.667-19.103-42.667-42.667 0-0.004 0-0.007 0-0.011v0.001-512c0-0.002 0-0.004 0-0.005 0-17.292 10.287-32.182 25.076-38.883l0.268-0.109 384-170.667c5.098-2.304 11.054-3.647 17.323-3.647s12.224 1.343 17.594 3.756l-0.272-0.109 384 170.667c15.057 6.81 25.344 21.699 25.344 38.992 0 0.002 0 0.004 0 0.006v0 512c0 14.19-6.928 26.761-17.584 34.518l-0.122 0.085zM853.333 305.067l-298.667-132.736v446.336h-85.333v-446.336l-298.667 132.736v425.088l327.851-109.312c4.023-1.386 8.66-2.186 13.483-2.186s9.459 0.8 13.783 2.275l-0.3-0.089 327.851 109.312v-425.088z" />
<glyph unicode="&#xe92a;" glyph-name="briefcase" d="M896 704h-213.333v128c0 23.564-19.103 42.667-42.667 42.667v0h-256c-23.564 0-42.667-19.103-42.667-42.667v0-128h-213.333c-0.013 0-0.028 0-0.043 0-23.541 0-42.624-19.083-42.624-42.624 0-0.015 0-0.030 0-0.045v0.002-512c0-23.564 19.103-42.667 42.667-42.667v0h768c23.564 0 42.667 19.103 42.667 42.667v0 512c0 23.564-19.103 42.667-42.667 42.667v0zM426.667 789.333h170.667v-85.333h-170.667v85.333zM341.333 618.667h512v-85.333h-682.667v85.333h170.667zM170.667 192v256h256v-85.333h170.667v85.333h256v-256h-682.667z" />
<glyph unicode="&#xe92b;" glyph-name="briefcase-alt" d="M128 106.667h768c23.564 0 42.667 19.103 42.667 42.667v0 512c0 23.564-19.103 42.667-42.667 42.667v0h-213.333v128c0 23.564-19.103 42.667-42.667 42.667v0h-256c-23.564 0-42.667-19.103-42.667-42.667v0-128h-213.333c-0.013 0-0.028 0-0.043 0-23.541 0-42.624-19.083-42.624-42.624 0-0.015 0-0.030 0-0.045v0.002-512c0-23.564 19.103-42.667 42.667-42.667v0zM640 618.667h42.667v-426.667h-341.333v426.667h298.667zM853.333 192h-85.333v426.667h85.333v-426.667zM426.667 789.333h170.667v-85.333h-170.667v85.333zM170.667 618.667h85.333v-426.667h-85.333v426.667z" />
<glyph unicode="&#xe92c;" glyph-name="broadcast" d="M840.832 225.835c149.333 149.333 149.333 401.664 0 550.997l-60.331-60.331c116.608-116.608 116.608-313.728 0-430.336l60.331-60.331zM712.832 353.835c40.277 40.235 62.507 92.672 62.507 147.499s-22.229 107.264-62.507 147.499l-60.331-60.331c24.149-24.149 37.504-55.125 37.504-87.168s-13.355-63.019-37.504-87.168l60.331-60.331zM264.832 716.501l-60.331 60.331c-149.333-149.333-149.333-401.664 0-550.997l60.331 60.331c-116.608 116.608-116.608 313.728 0 430.336zM311.168 648.832c-40.277-40.235-62.507-92.672-62.507-147.499s22.229-107.264 62.507-147.499l60.331 60.331c-24.149 24.149-37.504 55.125-37.504 87.168s13.355 63.019 37.504 87.168l-60.331 60.331zM554.667 64v374.485c25.638 14.902 42.614 42.22 42.667 73.507v0.008c0 47.128-38.205 85.333-85.333 85.333s-85.333-38.205-85.333-85.333v0c0.034-31.299 17.016-58.625 42.261-73.297l0.405-0.217v-374.485h85.333z" />
<glyph unicode="&#xe92d;" glyph-name="bug" d="M844.8 426.667c0 21.845-1.835 43.093-4.523 64h95.829v85.333h-114.987c-16.779 51.503-41.224 96.148-72.418 135.16l0.653-0.845 91.52 91.52-60.331 60.331-92.331-92.288c-51.157 39.125-111.445 62.123-176.213 62.123s-125.056-22.997-176.213-62.123l-92.288 92.288-60.331-60.331 91.52-91.52c-30.541-38.167-54.986-82.811-70.914-131.318l-0.852-2.996h-117.589v-85.333h98.432c-2.731-20.907-4.565-42.155-4.565-64 0-21.973 1.835-43.435 4.608-64.469h-98.475v-85.333h117.717c9.728-29.568 22.187-57.429 37.035-83.115l-99.584-99.584 60.331-60.331 90.368 90.368c58.837-63.744 136.064-102.869 220.8-102.869s161.963 39.125 220.8 102.869l90.368-90.368 60.331 60.331-99.584 99.584c14.891 25.685 27.349 53.547 37.035 83.115h117.717v85.333h-98.517c2.816 21.035 4.651 42.496 4.651 64.469zM512 746.667c94.763 0 177.109-69.291 218.709-170.667h-437.419c41.6 101.376 123.947 170.667 218.709 170.667zM554.667 111.787v293.547h-85.333v-293.547c-116.181 26.24-204.8 157.312-204.8 314.88 0 21.931 1.707 43.307 4.992 64h484.907c3.285-20.693 4.992-42.069 4.992-64 0.043-157.611-88.576-288.64-204.757-314.88z" />
<glyph unicode="&#xe92e;" glyph-name="building" d="M213.333 21.333h597.333c23.564 0 42.667 19.103 42.667 42.667v0 768c0 23.564-19.103 42.667-42.667 42.667v0h-597.333c-23.564 0-42.667-19.103-42.667-42.667v0-768c0-23.564 19.103-42.667 42.667-42.667v0zM256 789.333h512v-682.667h-170.667v85.333h-170.667v-85.333h-170.667v682.667zM341.333 704h128v-85.333h-128zM554.667 704h128v-85.333h-128zM341.333 533.333h128v-85.333h-128zM554.667 532.011h128v-84.011h-128zM341.333 362.667h128v-85.333h-128zM554.667 362.667h128v-85.333h-128z" />
<glyph unicode="&#xe92f;" glyph-name="bulb" d="M384 106.667h256v-85.333h-256zM721.323 374.955c43.947 51.456 89.344 104.661 89.344 201.045 0 164.651-134.016 298.667-298.667 298.667s-298.667-134.016-298.667-298.667c0-97.493 45.525-150.528 89.643-201.813 15.275-17.835 31.104-36.309 46.251-57.557 8.619-12.416 25.173-74.112 35.456-132.096l6.229-35.2h242.133l6.272 35.157c10.368 58.027 27.008 119.893 35.584 132.309 15.061 21.461 31.019 40.107 46.421 58.155zM605.099 365.867c-18.517-26.325-33.963-88.533-42.923-131.2h-100.309c-8.917 42.752-24.405 105.088-43.136 131.413-17.48 23.922-34.211 44.66-51.836 64.588l0.806-0.929c-41.557 48.384-69.035 80.384-69.035 146.261 0 117.632 95.701 213.333 213.333 213.333s213.333-95.701 213.333-213.333c0-64.896-27.435-97.024-68.907-145.621-15.915-18.688-33.963-39.808-51.328-64.512z" />
<glyph unicode="&#xe930;" glyph-name="bullseye" d="M512 192c141.184 0 256 114.816 256 256s-114.816 256-256 256-256-114.816-256-256 114.816-256 256-256zM512 618.667c94.123 0 170.667-76.544 170.667-170.667s-76.544-170.667-170.667-170.667-170.667 76.544-170.667 170.667 76.544 170.667 170.667 170.667zM512 21.333c231.296 0 426.667 195.371 426.667 426.667s-195.371 426.667-426.667 426.667-426.667-195.371-426.667-426.667 195.371-426.667 426.667-426.667zM512 789.333c185.045 0 341.333-156.288 341.333-341.333s-156.288-341.333-341.333-341.333-341.333 156.288-341.333 341.333 156.288 341.333 341.333 341.333zM512 362.667c46.123 0 85.333 39.211 85.333 85.333s-39.211 85.333-85.333 85.333-85.333-39.211-85.333-85.333 39.211-85.333 85.333-85.333z" />
<glyph unicode="&#xe931;" glyph-name="buoy" d="M512 874.667c-235.264 0-426.667-191.403-426.667-426.667s191.403-426.667 426.667-426.667 426.667 191.403 426.667 426.667-191.403 426.667-426.667 426.667zM828.203 576h-145.536v-1.323c-12.637 16.852-27.138 31.353-43.435 43.591l-0.554 0.398h1.323v145.536c85.784-35.597 152.605-102.418 187.365-185.933l0.838-2.27zM512 320c-70.571 0-128 57.429-128 128s57.429 128 128 128 128-57.429 128-128-57.429-128-128-128zM554.667 786.389v-129.365c-12.827 2.747-27.563 4.321-42.667 4.321s-29.84-1.573-44.054-4.565l1.387 0.244v129.365c13.995 1.749 28.16 2.944 42.667 2.944s28.672-1.195 42.667-2.944zM384 764.203v-145.536h1.323c-16.852-12.637-31.353-27.138-43.591-43.435l-0.398-0.554v1.323h-145.536c34.688 85.333 102.827 153.515 188.203 188.203zM173.611 490.667h129.365c-2.73-12.795-4.293-27.496-4.293-42.562 0-15.141 1.579-29.913 4.581-44.161l-0.245 1.39h-129.408c-1.749 13.995-2.944 28.203-2.944 42.667s1.195 28.672 2.944 42.667zM195.797 320h145.536v1.323c12.117-16.256 26.496-30.635 42.667-42.88v-146.645c-85.784 35.597-152.605 102.418-187.365 185.933l-0.838 2.27zM469.333 109.611v129.365c12.827-2.747 27.563-4.321 42.667-4.321s29.84 1.573 44.054 4.565l-1.387-0.244v-129.365c-13.995-1.749-28.16-2.944-42.667-2.944s-28.672 1.195-42.667 2.944zM640 131.797v146.645c16.293 12.382 30.35 26.507 42.271 42.332l0.395 0.548v-1.323h145.536c-35.597-85.784-102.418-152.605-185.933-187.365l-2.27-0.838zM850.389 405.333h-129.365c2.73 12.795 4.293 27.496 4.293 42.562 0 15.141-1.579 29.913-4.581 44.161l0.245-1.39h129.365c1.792-13.995 2.987-28.203 2.987-42.667s-1.195-28.672-2.944-42.667z" />
<glyph unicode="&#xe932;" glyph-name="calculator" d="M170.624 64h682.709c23.564 0 42.667 19.103 42.667 42.667v0 682.667c0 23.564-19.103 42.667-42.667 42.667v0h-682.667c-23.564 0-42.667-19.103-42.667-42.667v0l-0.043-682.667c0.048-23.545 19.122-42.618 42.662-42.667h0.005zM213.333 746.667h597.333v-597.333h-597.376l0.043 597.333zM298.624 490.667h85.333v-85.333h-85.333zM469.291 490.667h85.333v-85.333h-85.333zM298.624 320h85.333v-85.333h-85.333zM469.291 320h85.333v-85.333h-85.333zM639.957 490.667h85.333v-256h-85.333zM298.624 661.333h426.667v-85.333h-426.667z" />
<glyph unicode="&#xe933;" glyph-name="calendar" d="M128 21.333h768c23.564 0 42.667 19.103 42.667 42.667v0 682.667c0 23.564-19.103 42.667-42.667 42.667v0h-170.667v85.333h-85.333v-85.333h-256v85.333h-85.333v-85.333h-170.667c-23.564 0-42.667-19.103-42.667-42.667v0-682.667c0-23.564 19.103-42.667 42.667-42.667v0zM170.667 106.667v426.667h682.667v-426.667h-682.667zM298.667 704v-42.667h85.333v42.667h256v-42.667h85.333v42.667h128v-85.333h-682.667v85.333h128zM298.667 448h85.333v-85.333h-85.333zM298.667 277.333h85.333v-85.333h-85.333zM469.333 448h85.333v-85.333h-85.333zM469.333 277.333h85.333v-85.333h-85.333zM640 448h85.333v-85.333h-85.333zM640 277.333h85.333v-85.333h-85.333z" />
<glyph unicode="&#xe934;" glyph-name="calendar-add" d="M810.667 362.667h-85.333v-128h-128v-85.333h128v-128h85.333v128h128v85.333h-128zM896 789.333h-170.667v85.333h-85.333v-85.333h-256v85.333h-85.333v-85.333h-170.667c-23.564 0-42.667-19.103-42.667-42.667v0-682.667c0-23.564 19.103-42.667 42.667-42.667v0h426.667v85.333h-384v426.667h682.667v-127.957h85.333v341.291c0 23.564-19.103 42.667-42.667 42.667v0zM170.667 618.667v85.333h128v-42.667h85.333v42.667h256v-42.667h85.333v42.667h128v-85.333h-682.667zM298.667 448h85.333v-85.333h-85.333zM298.667 277.333h85.333v-85.333h-85.333zM469.333 448h85.333v-85.333h-85.333z" />
<glyph unicode="&#xe935;" glyph-name="calendar-alt" d="M896 789.333h-170.667v85.333h-85.333v-85.333h-256v85.333h-85.333v-85.333h-170.667c-23.564 0-42.667-19.103-42.667-42.667v0-682.667c0-23.564 19.103-42.667 42.667-42.667v0h768c23.564 0 42.667 19.103 42.667 42.667v0 682.667c0 23.564-19.103 42.667-42.667 42.667v0zM298.667 704v-42.667h85.333v42.667h256v-42.667h85.333v42.667h128v-85.333h-682.667v85.333h128zM170.667 106.667v426.667h682.667v-426.667h-682.667z" />
<glyph unicode="&#xe936;" glyph-name="calendar-check" d="M170.667 533.333h682.667v-170.24h85.333v383.573c0 23.564-19.103 42.667-42.667 42.667v0h-170.667v85.333h-85.333v-85.333h-256v85.333h-85.333v-85.333h-170.667c-23.564 0-42.667-19.103-42.667-42.667v0-682.667c0-23.564 19.103-42.667 42.667-42.667v0h426.667v85.333h-384v426.667zM298.667 704v-42.667h85.333v42.667h256v-42.667h85.333v42.667h128v-85.333h-682.667v85.333h128zM298.667 448h85.333v-85.333h-85.333zM298.667 277.333h85.333v-85.333h-85.333zM469.333 448h85.333v-85.333h-85.333zM725.333 124.331l-55.168 55.168-60.331-60.331 115.499-115.499 243.499 243.499-60.331 60.331z" />
<glyph unicode="&#xe937;" glyph-name="calendar-minus" d="M597.333 234.667h341.333v-85.333h-341.333zM896 789.333h-170.667v85.333h-85.333v-85.333h-256v85.333h-85.333v-85.333h-170.667c-23.564 0-42.667-19.103-42.667-42.667v0-682.667c0-23.564 19.103-42.667 42.667-42.667v0h426.667v85.333h-384v426.667h682.667v-213.035h85.333v426.368c0 23.564-19.103 42.667-42.667 42.667v0zM170.667 618.667v85.333h128v-42.667h85.333v42.667h256v-42.667h85.333v42.667h128v-85.333h-682.667zM298.667 448h85.333v-85.333h-85.333zM298.667 277.333h85.333v-85.333h-85.333zM469.333 448h85.333v-85.333h-85.333z" />
<glyph unicode="&#xe938;" glyph-name="calendar-remove" d="M865.835 350.165l-97.835-97.835-97.835 97.835-60.331-60.331 97.835-97.835-97.835-97.835 60.331-60.331 97.835 97.835 97.835-97.835 60.331 60.331-97.835 97.835 97.835 97.835zM896 789.333h-170.667v85.333h-85.333v-85.333h-256v85.333h-85.333v-85.333h-170.667c-23.564 0-42.667-19.103-42.667-42.667v0-682.667c0-23.564 19.103-42.667 42.667-42.667v0h426.667v85.333h-384v426.667h682.667v-127.531h85.333v340.864c0 23.564-19.103 42.667-42.667 42.667v0zM170.667 618.667v85.333h128v-42.667h85.333v42.667h256v-42.667h85.333v42.667h128v-85.333h-682.667zM298.667 448h85.333v-85.333h-85.333zM298.667 277.333h85.333v-85.333h-85.333zM469.333 448h85.333v-85.333h-85.333z" />
<glyph unicode="&#xe939;" glyph-name="camera" d="M512 618.667c-92.501 0-170.667-78.165-170.667-170.667s78.165-170.667 170.667-170.667 170.667 78.165 170.667 170.667-78.165 170.667-170.667 170.667zM512 362.667c-45.44 0-85.333 39.893-85.333 85.333s39.893 85.333 85.333 85.333 85.333-39.893 85.333-85.333-39.893-85.333-85.333-85.333zM128 106.667h768c23.564 0 42.667 19.103 42.667 42.667v0 554.667c0 23.564-19.103 42.667-42.667 42.667v0h-153.003l-115.499 115.499c-7.696 7.723-18.342 12.501-30.104 12.501-0.022 0-0.043 0-0.065 0h-170.664c-0.018 0-0.040 0-0.062 0-11.762 0-22.408-4.779-30.102-12.5l-115.5-115.5h-153.003c-23.564 0-42.667-19.103-42.667-42.667v0-554.667c0-23.564 19.103-42.667 42.667-42.667v0zM170.667 661.333h128c11.349 0 22.187 4.48 30.165 12.501l115.499 115.499h135.339l115.499-115.499c7.696-7.723 18.342-12.501 30.104-12.501 0.022 0 0.043 0 0.065 0h127.997v-469.333h-682.667v469.333z" />
<glyph unicode="&#xe93a;" glyph-name="camera-alt" d="M896 789.333h-85.333v42.667h-128v-42.667h-298.667v85.333h-170.667v-85.333h-85.333c-23.564 0-42.667-19.103-42.667-42.667v0-597.333c0-23.564 19.103-42.667 42.667-42.667v0h768c23.564 0 42.667 19.103 42.667 42.667v0 597.333c0 23.564-19.103 42.667-42.667 42.667v0zM170.667 704h682.667v-170.667h-195.115c-30.080 50.389-84.693 85.333-146.219 85.333s-116.139-34.944-146.219-85.333h-195.115v170.667zM512 533.333c45.44 0 85.333-39.893 85.333-85.333s-39.893-85.333-85.333-85.333-85.333 39.893-85.333 85.333 39.893 85.333 85.333 85.333zM170.667 192v256h170.667c0-92.501 78.165-170.667 170.667-170.667s170.667 78.165 170.667 170.667h170.667v-256h-682.667zM810.667 576v85.333h-85.333l0.427-85.333z" />
<glyph unicode="&#xe93b;" glyph-name="camera-off" d="M896 746.667h-153.003l-115.499 115.499c-7.696 7.723-18.342 12.501-30.104 12.501-0.022 0-0.043 0-0.065 0h-170.664c-0.013 0-0.028 0-0.044 0-11.768 0-22.419-4.778-30.12-12.5l-46.337-46.337 60.331-60.331 33.835 33.835h135.339l115.499-115.499c7.696-7.723 18.342-12.501 30.104-12.501 0.022 0 0.043 0 0.065 0h127.997v-348.672l85.333-85.333v476.672c0 23.564-19.103 42.667-42.667 42.667v0zM128 106.667h665.003l72.832-72.832 60.331 60.331-768 768-60.331-60.331 55.168-55.168h-25.003c-23.564 0-42.667-19.103-42.667-42.667v0-554.667c0-23.564 19.103-42.667 42.667-42.667v0zM430.208 469.419l102.656-102.656c-28.501-6.528-60.544 0.213-81.195 20.864-15.038 15.245-24.326 36.196-24.326 59.316 0 0.357 0.002 0.713 0.007 1.069l-0.001-0.054c0 7.467 1.152 14.549 2.859 21.461zM365.568 534.101c-14.739-24.641-23.482-54.343-23.552-86.082v-0.020c0-46.037 17.536-88.875 49.323-120.661 30.579-30.481 72.772-49.328 119.366-49.328 0.456 0 0.911 0.002 1.365 0.005h-0.070c31.773 0.071 61.489 8.813 86.926 23.984l-0.782-0.432 109.525-109.568h-537.003v469.333h67.669l127.232-127.232z" />
<glyph unicode="&#xe93c;" glyph-name="capsule" d="M512.597 144.981l304.384 304.341c38.523 38.643 62.341 91.964 62.341 150.848 0 58.905-23.836 112.243-62.389 150.895l0.005-0.005c-38.398 38.561-91.532 62.422-150.239 62.422-0.222 0-0.443 0-0.664-0.001h0.034c-56.96 0-110.507-22.187-150.784-62.464l-304.384-304.341c-38.528-38.657-62.349-91.992-62.349-150.891 0-58.878 23.804-112.195 62.313-150.855l-0.007 0.007c38.412-38.561 91.557-62.422 150.275-62.422 0.224 0 0.448 0 0.672 0.001h-0.035c0.157 0 0.342-0.001 0.527-0.001 58.734 0 111.89 23.878 150.291 62.457l0.008 0.008zM575.573 690.688c23.024 23.141 54.894 37.462 90.109 37.462 0.121 0 0.242 0 0.363-0.001h-0.019c34.219 0 66.389-13.312 90.539-37.461 23.14-23.185 37.449-55.191 37.449-90.539 0-35.327-14.292-67.315-37.409-90.499l-123.432-123.389-180.992 181.077 123.392 123.349zM271.189 205.269c-23.119 23.195-37.414 55.197-37.414 90.539s14.294 67.344 37.417 90.542l-0.003-0.004 120.661 120.661 180.992-181.077-120.576-120.619c-48.384-48.384-132.779-48.256-181.077-0.043z" />
<glyph unicode="&#xe93d;" glyph-name="captions" d="M938.624 149.333v597.333c0 23.564-19.103 42.667-42.667 42.667v0h-767.915c-23.564 0-42.667-19.103-42.667-42.667v0-597.333c0-23.564 19.103-42.667 42.667-42.667v0h767.915c23.564 0 42.667 19.103 42.667 42.667v0zM853.291 192h-682.581v512h682.581v-512zM298.667 277.333h170.667v85.333h-128v170.667h128v85.333h-170.667c-23.564 0-42.667-19.103-42.667-42.667v0-256c0-23.564 19.103-42.667 42.667-42.667v0zM597.333 277.333h170.667v85.333h-128v170.667h128v85.333h-170.667c-23.564 0-42.667-19.103-42.667-42.667v0-256c0-23.564 19.103-42.667 42.667-42.667v0z" />
<glyph unicode="&#xe93e;" glyph-name="carousel" d="M896 746.667h-128v42.667c0 23.564-19.103 42.667-42.667 42.667v0h-426.667c-23.564 0-42.667-19.103-42.667-42.667v0-42.667h-128c-23.564 0-42.667-19.103-42.667-42.667v0-512c0-23.564 19.103-42.667 42.667-42.667v0h128v-42.667c0-23.564 19.103-42.667 42.667-42.667v0h426.667c23.564 0 42.667 19.103 42.667 42.667v0 42.667h128c23.564 0 42.667 19.103 42.667 42.667v0 512c0 23.564-19.103 42.667-42.667 42.667v0zM170.667 234.667v426.667h85.333v-426.667h-85.333zM682.667 149.333h-341.333v597.333h341.333v-597.333zM853.333 234.667h-85.333v426.667h85.333v-426.667z" />
<glyph unicode="&#xe93f;" glyph-name="cart" d="M344.661 260.907c6.606-15.541 21.742-26.24 39.378-26.24 0.001 0 0.002 0 0.004 0h383.957c17.792 0 33.707 11.051 39.979 27.648l128 341.333c1.693 4.425 2.674 9.543 2.674 14.891 0 23.585-19.079 42.714-42.645 42.794h-625.8l-60.16 144.427c-6.606 15.541-21.742 26.24-39.378 26.24-0.001 0-0.002 0-0.004 0h-85.333v-85.333h56.875l202.453-485.76zM834.432 576l-96-256h-325.973l-106.667 256h528.64zM512 85.333c0-35.346-28.654-64-64-64s-64 28.654-64 64c0 35.346 28.654 64 64 64s64-28.654 64-64zM765.355 85.333c0-35.346-28.654-64-64-64s-64 28.654-64 64c0 35.346 28.654 64 64 64s64-28.654 64-64z" />
<glyph unicode="&#xe940;" glyph-name="cast" d="M85.333 533.333v-85.333c211.712 0 384-172.288 384-384.043h85.333c0 258.816-210.56 469.376-469.333 469.376zM298.667 63.957h85.333c0 164.693-133.973 298.709-298.667 298.709v-85.333c117.632 0 213.333-95.701 213.333-213.376zM213.333 128c0-35.346-28.654-64-64-64s-64 28.654-64 64c0 35.346 28.654 64 64 64s64-28.654 64-64zM896 789.333h-768c-23.564 0-42.667-19.103-42.667-42.667v0-128h85.333v85.333h682.667v-554.667h-213.333v-85.333h256c23.564 0 42.667 19.103 42.667 42.667v0 640c0 23.564-19.103 42.667-42.667 42.667v0z" />
<glyph unicode="&#xe941;" glyph-name="chalkboard" d="M170.667 234.667c0-23.564 19.103-42.667 42.667-42.667v0h153.003l-97.835-97.835 60.331-60.331 158.165 158.165h50.005l158.165-158.165 60.331 60.331-97.835 97.835h153.003c23.564 0 42.667 19.103 42.667 42.667v0 469.333h85.333v85.333h-384v85.333h-85.333v-85.333h-384v-85.333h85.333v-469.333zM768 704v-426.667h-512v426.667h512z" />
<glyph unicode="&#xe942;" glyph-name="chart" d="M896 106.667v682.667c0 23.564-19.103 42.667-42.667 42.667v0h-682.667c-23.564 0-42.667-19.103-42.667-42.667v0-682.667c0-23.564 19.103-42.667 42.667-42.667v0h682.667c23.564 0 42.667 19.103 42.667 42.667v0zM810.667 149.333h-597.333v597.333h597.333v-597.333zM442.923 434.816l135.339-67.669c5.561-2.843 12.131-4.509 19.089-4.509 15.46 0 29 8.223 36.484 20.533l0.107 0.189 128 213.333-73.173 43.904-107.648-179.456-135.339 67.669c-5.554 2.826-12.112 4.482-19.057 4.482-15.463 0-29.009-8.209-36.516-20.508l-0.107-0.188-128-213.333 73.173-43.904 107.648 179.456z" />
<glyph unicode="&#xe943;" glyph-name="check" d="M414.165 204.501l426.667 426.667-60.331 60.331-396.501-396.501-183.168 183.168-60.331-60.331 213.333-213.333c7.706-7.749 18.376-12.545 30.165-12.545s22.459 4.796 30.163 12.544l0.002 0.002z" />
<glyph unicode="&#xe944;" glyph-name="checkbox" d="M256 746.667c-23.564 0-42.667-19.103-42.667-42.667v0-512c0-23.564 19.103-42.667 42.667-42.667v0h512c23.564 0 42.667 19.103 42.667 42.667v0 512c0 23.564-19.103 42.667-42.667 42.667v0h-512zM725.333 234.667h-426.667v426.667h426.667v-426.667z" />
<glyph unicode="&#xe945;" glyph-name="checkbox-checked" d="M256 149.333h512c23.564 0 42.667 19.103 42.667 42.667v0 409.003l115.499 115.499-60.331 60.331-353.835-353.835-97.835 97.835-60.331-60.331 158.165-158.165 213.333 213.333v-281.003h-426.667v426.667h306.005l85.333 85.333h-434.005c-23.564 0-42.667-19.103-42.667-42.667v0-512c0-23.564 19.103-42.667 42.667-42.667v0z" />
<glyph unicode="&#xe946;" glyph-name="checkbox-square" d="M256 746.667c-23.564 0-42.667-19.103-42.667-42.667v0-512c0-23.564 19.103-42.667 42.667-42.667v0h512c23.564 0 42.667 19.103 42.667 42.667v0 512c0 23.564-19.103 42.667-42.667 42.667v0h-512zM725.333 234.667h-426.667v426.667h426.667v-426.667zM384 576h256v-256h-256z" />
<glyph unicode="&#xe947;" glyph-name="chevron-down" d="M695.168 563.499l-183.168-183.168-183.168 183.168-60.331-60.331 243.499-243.499 243.499 243.499z" />
<glyph unicode="&#xe948;" glyph-name="chevron-left" d="M567.168 691.499l-243.499-243.499 243.499-243.499 60.331 60.331-183.168 183.168 183.168 183.168z" />
<glyph unicode="&#xe949;" glyph-name="chevron-right" d="M456.832 204.501l243.499 243.499-243.499 243.499-60.331-60.331 183.168-183.168-183.168-183.168z" />
<glyph unicode="&#xe94a;" glyph-name="chevrons-down" d="M328.832 478.165l-60.331-60.331 243.499-243.499 243.499 243.499-60.331 60.331-183.168-183.168zM695.168 691.499l-183.168-183.168-183.168 183.168-60.331-60.331 243.499-243.499 243.499 243.499z" />
<glyph unicode="&#xe94b;" glyph-name="chevrons-left" d="M542.165 264.832l-183.168 183.168 183.168 183.168-60.331 60.331-243.499-243.499 243.499-243.499zM695.168 691.499l-243.499-243.499 243.499-243.499 60.331 60.331-183.168 183.168 183.168 183.168z" />
<glyph unicode="&#xe94c;" glyph-name="chevrons-right" d="M439.296 631.040l184.533-183.040-184.533-183.040 60.075-60.587 245.632 243.627-245.632 243.627zM286.037 204.373l245.632 243.627-245.632 243.627-60.075-60.587 184.533-183.040-184.533-183.040z" />
<glyph unicode="&#xe94d;" glyph-name="chevrons-up" d="M512 721.664l-243.499-243.499 60.331-60.331 183.168 183.168 183.168-183.168 60.331 60.331zM268.501 264.832l60.331-60.331 183.168 183.168 183.168-183.168 60.331 60.331-243.499 243.499z" />
<glyph unicode="&#xe94e;" glyph-name="chevron-up" d="M512 636.331l-243.499-243.499 60.331-60.331 183.168 183.168 183.168-183.168 60.331 60.331z" />
<glyph unicode="&#xe94f;" glyph-name="chip" d="M853.333 746.667c0 23.564-19.103 42.667-42.667 42.667v0h-85.333v85.333h-85.333v-85.333h-85.333v85.333h-85.333v-85.333h-85.333v85.333h-85.333v-85.333h-85.333c-23.564 0-42.667-19.103-42.667-42.667v0-85.333h-85.333v-85.333h85.333v-85.333h-85.333v-85.333h85.333v-85.333h-85.333v-85.333h85.333v-85.333c0-23.564 19.103-42.667 42.667-42.667v0h85.333v-85.333h85.333v85.333h85.333v-85.333h85.333v85.333h85.333v-85.333h85.333v85.333h85.333c23.564 0 42.667 19.103 42.667 42.667v0 85.333h85.333v85.333h-85.333v85.333h85.333v85.333h-85.333v85.333h85.333v85.333h-85.333v85.333zM768 192h-512v512h512v-512zM426.667 533.333h170.667v-170.667h-170.667z" />
<glyph unicode="&#xe950;" glyph-name="chrome" d="M512 874.667c-231.253 0-426.667-195.371-426.667-426.667s195.413-426.667 426.667-426.667c231.296 0 426.667 195.371 426.667 426.667s-195.371 426.667-426.667 426.667zM512 789.333c105.131 0 200.832-50.517 264.021-128h-264.021c-78.123 0-145.877-42.709-183.040-105.557l-57.472 131.797c62.251 62.464 147.755 101.76 240.512 101.76zM640 448c0-41.344-21.077-78.592-52.608-102.144l-0.981 0.811-3.712-4.608c-19.777-13.724-44.266-21.96-70.674-22.059h-0.025c-69.376 0-128 58.624-128 128s58.624 128 128 128 128-58.624 128-128zM170.667 448c0 57.813 15.275 112.896 41.941 161.195l89.643-205.483 1.067 0.469c20.301-92.453 98.551-161.662 194-168.030l0.645-0.034-89.899-112.384c-136.064 45.141-237.397 175.317-237.397 324.267zM512 106.667c-2.688 0-5.291 0.341-7.979 0.427l139.264 174.037c49.536 39.083 82.048 98.987 82.048 166.869 0 48.213-16.683 92.245-43.733 128h145.707c16.64-39.765 26.027-82.987 26.027-128 0-185.045-156.288-341.333-341.333-341.333z" />
<glyph unicode="&#xe951;" glyph-name="clipboard" d="M810.667 789.333h-128v42.667c0 23.564-19.103 42.667-42.667 42.667v0h-256c-23.564 0-42.667-19.103-42.667-42.667v0-42.667h-128c-23.564 0-42.667-19.103-42.667-42.667v0-682.667c0-23.564 19.103-42.667 42.667-42.667v0h597.333c23.564 0 42.667 19.103 42.667 42.667v0 682.667c0 23.564-19.103 42.667-42.667 42.667v0zM426.667 789.333h170.667v-85.333h-170.667v85.333zM768 106.667h-512v597.333h85.333v-42.667c0-23.564 19.103-42.667 42.667-42.667v0h256c23.564 0 42.667 19.103 42.667 42.667v0 42.667h85.333v-597.333z" />
<glyph unicode="&#xe952;" glyph-name="closet" d="M554.667 509.824v28.928c74.154 19.692 127.922 86.18 128 165.239v0.009c0 94.123-76.544 170.667-170.667 170.667s-170.667-76.544-170.667-170.667h85.333c0 47.061 38.272 85.333 85.333 85.333s85.333-38.272 85.333-85.333-38.272-85.333-85.333-85.333c-23.564 0-42.667-19.103-42.667-42.667v0-66.176l-369.707-328.619c-8.752-7.854-14.232-19.202-14.232-31.829 0-23.551 19.062-42.65 42.599-42.709h768.006c23.545 0.056 42.61 19.156 42.61 42.709 0 12.65-5.5 24.016-14.239 31.836l-0.041 0.036-369.664 328.576zM240.213 192l271.787 241.579 271.787-241.579h-543.573z" />
<glyph unicode="&#xe953;" glyph-name="cloud" d="M808.277 485.888c-18.645 146.859-144.384 260.779-296.277 260.779-117.589 0-219.733-68.736-266.368-177.067-91.648-27.392-160.299-113.92-160.299-206.933 0-117.632 95.701-213.333 213.333-213.333h469.333c94.123 0 170.667 76.544 170.667 170.667-0.141 79.922-55.060 146.978-129.209 165.636l-1.181 0.252zM768 234.667h-469.333c-70.571 0-128 57.429-128 128 0 59.904 51.157 117.589 114.048 128.64l24.789 4.352 8.192 23.808c29.995 87.509 104.491 141.867 194.304 141.867 117.632 0 213.333-95.701 213.333-213.333v-42.667h42.667c47.061 0 85.333-38.272 85.333-85.333s-38.272-85.333-85.333-85.333z" />
<glyph unicode="&#xe954;" glyph-name="cloud-download" d="M298.667 149.333h42.667v85.333h-42.667c-70.571 0-128 57.429-128 128 0 59.904 51.157 117.632 114.048 128.683l24.789 4.352 8.192 23.808c29.995 87.509 104.491 141.824 194.304 141.824 117.632 0 213.333-95.701 213.333-213.333v-42.667h42.667c47.061 0 85.333-38.272 85.333-85.333s-38.272-85.333-85.333-85.333h-85.333v-85.333h85.333c94.123 0 170.667 76.544 170.667 170.667-0.109 79.933-55.043 147.006-129.21 165.637l-1.18 0.251c-18.645 146.859-144.384 260.779-296.277 260.779-117.589 0-219.733-68.693-266.368-177.024-91.648-27.435-160.299-113.963-160.299-206.976 0-117.632 95.701-213.333 213.333-213.333zM469.333 490.667v-170.667h-128l170.667-170.667 170.667 170.667h-128v170.667z" />
<glyph unicode="&#xe955;" glyph-name="cloud-drizzle" d="M341.333 405.333h85.333v-128h-85.333zM341.333 234.667h85.333v-128h-85.333zM469.333 320h85.333v-128h-85.333zM469.333 149.333h85.333v-128h-85.333zM597.333 405.333h85.333v-128h-85.333zM597.333 234.667h85.333v-128h-85.333zM808.277 528.555c-18.645 146.859-144.384 260.779-296.277 260.779-117.547 0-219.733-68.736-266.368-177.067-91.648-27.392-160.299-113.877-160.299-206.933 0-117.632 95.701-213.333 213.333-213.333v85.333c-70.571 0-128 57.429-128 128 0 59.861 51.157 117.589 114.048 128.64l24.832 4.395 8.149 23.851c29.995 87.467 104.491 141.781 194.304 141.781 117.632 0 213.333-95.701 213.333-213.333v-42.667h42.667c47.061 0 85.333-38.272 85.333-85.333s-38.272-85.333-85.333-85.333h-42.667v-85.333h42.667c94.123 0 170.667 76.544 170.667 170.667-0.109 79.933-55.043 147.006-129.21 165.637l-1.18 0.251z" />
<glyph unicode="&#xe956;" glyph-name="cloud-lightning" d="M426.667 405.333l-42.667-213.333h85.333v-170.667l169.6 256h-84.267l42.667 128zM808.277 528.555c-18.645 146.859-144.384 260.779-296.277 260.779-117.589 0-219.733-68.736-266.368-177.067-91.648-27.392-160.299-113.877-160.299-206.933 0-117.632 95.701-213.333 213.333-213.333v85.333c-70.571 0-128 57.429-128 128 0 59.861 51.157 117.589 114.048 128.64l24.789 4.395 8.192 23.851c29.995 87.467 104.491 141.781 194.304 141.781 117.632 0 213.333-95.701 213.333-213.333v-42.667h42.667c47.061 0 85.333-38.272 85.333-85.333s-38.272-85.333-85.333-85.333h-42.667v-85.333h42.667c94.123 0 170.667 76.544 170.667 170.667-0.109 79.933-55.043 147.006-129.21 165.637l-1.18 0.251z" />
<glyph unicode="&#xe957;" glyph-name="cloud-light-rain" d="M341.333 405.333h85.333v-170.667h-85.333zM341.333 192h85.333v-85.333h-85.333zM469.333 320h85.333v-170.667h-85.333zM469.333 106.667h85.333v-85.333h-85.333zM597.333 405.333h85.333v-170.667h-85.333zM597.333 192h85.333v-85.333h-85.333zM808.277 528.555c-18.645 146.859-144.384 260.779-296.277 260.779-117.589 0-219.733-68.736-266.368-177.067-91.648-27.392-160.299-113.877-160.299-206.933 0-117.632 95.701-213.333 213.333-213.333v85.333c-70.571 0-128 57.429-128 128 0 59.861 51.157 117.589 114.048 128.64l24.789 4.395 8.192 23.851c29.995 87.467 104.491 141.781 194.304 141.781 117.632 0 213.333-95.701 213.333-213.333v-42.667h42.667c47.061 0 85.333-38.272 85.333-85.333s-38.272-85.333-85.333-85.333h-42.667v-85.333h42.667c94.123 0 170.667 76.544 170.667 170.667-0.109 79.933-55.043 147.006-129.21 165.637l-1.18 0.251z" />
<glyph unicode="&#xe958;" glyph-name="cloud-rain" d="M341.333 405.333h85.333v-298.667h-85.333zM469.333 320h85.333v-298.667h-85.333zM597.333 405.333h85.333v-298.667h-85.333zM808.277 528.512c-18.645 146.859-144.384 260.779-296.277 260.779-117.589 0-219.733-68.736-266.368-177.067-91.648-27.392-160.299-113.877-160.299-206.933 0-117.632 95.701-213.333 213.333-213.333v85.333c-70.571 0-128 57.429-128 128 0 59.861 51.157 117.589 114.048 128.64l24.789 4.395 8.192 23.851c29.995 87.467 104.491 141.781 194.304 141.781 117.632 0 213.333-95.701 213.333-213.333v-42.667h42.667c47.061 0 85.333-38.272 85.333-85.333s-38.272-85.333-85.333-85.333h-42.667v-85.333h42.667c94.123 0 170.667 76.544 170.667 170.667-0.109 79.933-55.043 147.006-129.21 165.637l-1.18 0.251z" />
<glyph unicode="&#xe959;" glyph-name="cloud-snow" d="M808.277 528.555c-18.645 146.859-144.384 260.779-296.277 260.779-117.589 0-219.733-68.736-266.368-177.067-91.648-27.392-160.299-113.877-160.299-206.933 0-117.632 95.701-213.333 213.333-213.333v85.333c-70.571 0-128 57.429-128 128 0 59.861 51.157 117.589 114.048 128.64l24.789 4.395 8.192 23.851c29.995 87.467 104.491 141.781 194.304 141.781 117.632 0 213.333-95.701 213.333-213.333v-42.667h42.667c47.061 0 85.333-38.272 85.333-85.333s-38.272-85.333-85.333-85.333h-42.667v-85.333h42.667c94.123 0 170.667 76.544 170.667 170.667-0.109 79.933-55.043 147.006-129.21 165.637l-1.18 0.251zM682.667 277.333c0-23.564-19.103-42.667-42.667-42.667s-42.667 19.103-42.667 42.667c0 23.564 19.103 42.667 42.667 42.667s42.667-19.103 42.667-42.667zM682.667 149.333c0-23.564-19.103-42.667-42.667-42.667s-42.667 19.103-42.667 42.667c0 23.564 19.103 42.667 42.667 42.667s42.667-19.103 42.667-42.667zM554.667 192c0-23.564-19.103-42.667-42.667-42.667s-42.667 19.103-42.667 42.667c0 23.564 19.103 42.667 42.667 42.667s42.667-19.103 42.667-42.667zM554.667 64c0-23.564-19.103-42.667-42.667-42.667s-42.667 19.103-42.667 42.667c0 23.564 19.103 42.667 42.667 42.667s42.667-19.103 42.667-42.667zM426.667 149.333c0-23.564-19.103-42.667-42.667-42.667s-42.667 19.103-42.667 42.667c0 23.564 19.103 42.667 42.667 42.667s42.667-19.103 42.667-42.667zM426.667 277.333c0-23.564-19.103-42.667-42.667-42.667s-42.667 19.103-42.667 42.667c0 23.564 19.103 42.667 42.667 42.667s42.667-19.103 42.667-42.667z" />
<glyph unicode="&#xe95a;" glyph-name="cloud-upload" d="M554.667 149.333v170.667h128l-170.667 170.667-170.667-170.667h128v-170.667zM298.667 149.333h85.333v85.333h-85.333c-70.571 0-128 57.429-128 128 0 59.904 51.157 117.589 114.048 128.64l24.789 4.352 8.192 23.808c29.995 87.509 104.491 141.867 194.304 141.867 117.632 0 213.333-95.701 213.333-213.333v-42.667h42.667c47.061 0 85.333-38.272 85.333-85.333s-38.272-85.333-85.333-85.333h-128v-85.333h128c94.123 0 170.667 76.544 170.667 170.667-0.141 79.922-55.060 146.978-129.209 165.636l-1.181 0.252c-18.645 146.859-144.384 260.779-296.277 260.779-117.589 0-219.733-68.736-266.368-177.067-91.648-27.392-160.299-113.92-160.299-206.933 0-117.632 95.701-213.333 213.333-213.333z" />
<glyph unicode="&#xe95b;" glyph-name="code" d="M353.835 691.499l-243.499-243.499 243.499-243.499 60.331 60.331-183.168 183.168 183.168 183.168zM670.165 204.501l243.499 243.499-243.499 243.499-60.331-60.331 183.168-183.168-183.168-183.168z" />
<glyph unicode="&#xe95c;" glyph-name="code-curly" d="M810.667 618.667c0 202.069-139.477 255.829-213.248 256l-0.555-85.333c13.141-0.256 128.469-7.381 128.469-170.667 0-85.035 35.456-138.496 80.085-170.667-44.629-32.171-80.085-85.632-80.085-170.667 0-163.285-115.328-170.411-128.469-170.667l0.469-42.667 0.085-42.667c73.771 0.171 213.248 53.931 213.248 256 0 120.448 106.837 127.744 128 128l0.256 85.333c-21.419 0.256-128.256 7.552-128.256 128zM213.333 277.333c0-202.069 139.477-255.829 213.248-256l0.555 85.333c-13.141 0.256-128.469 7.381-128.469 170.667 0 85.035-35.456 138.496-80.085 170.667 44.629 32.171 80.085 85.632 80.085 170.667 0 163.285 115.328 170.411 128.469 170.667l-0.469 42.667-0.085 42.667c-73.771-0.171-213.248-53.931-213.248-256 0-120.448-106.837-127.744-128-128l-0.256-85.333c21.419-0.256 128.256-7.552 128.256-128z" />
<glyph unicode="&#xe95d;" glyph-name="codepen" d="M919.68 611.499l-384 256c-6.641 4.512-14.835 7.203-23.659 7.203s-17.018-2.692-23.807-7.299l0.149 0.095-384-256c-11.533-7.754-19.021-20.751-19.029-35.497v-256.001c0-14.251 7.125-27.563 18.987-35.499l384-256c6.653-4.494 14.854-7.174 23.68-7.174s17.027 2.68 23.832 7.271l-0.152-0.096 384 256c11.861 7.936 18.987 21.248 18.987 35.499v256c0 14.251-7.125 27.563-18.987 35.499zM853.333 399.701l-72.405 48.299 72.405 48.299v-96.597zM704 499.285l-149.333 99.541v153.429l264.405-176.256-115.072-76.715zM512 371.285l-115.072 76.715 115.072 76.715 115.072-76.715-115.072-76.715zM469.333 752.256v-153.429l-149.333-99.541-115.072 76.715 264.405 176.256zM170.667 496.299l72.405-48.299-72.405-48.299v96.597zM320 396.715l149.333-99.541v-153.429l-264.405 176.256 115.072 76.715zM554.667 143.744v153.429l149.333 99.541 115.072-76.715-264.405-176.256z" />
<glyph unicode="&#xe95e;" glyph-name="coffee" d="M128 277.333c0-23.564 19.103-42.667 42.667-42.667v0h554.667c23.564 0 42.667 19.103 42.667 42.667v0 85.333h128c23.564 0 42.667 19.103 42.667 42.667v0 298.667c0 23.564-19.103 42.667-42.667 42.667v0h-128v42.667c0 23.564-19.103 42.667-42.667 42.667v0h-554.667c-23.564 0-42.667-19.103-42.667-42.667v0-512zM853.333 661.333v-213.333h-85.333v213.333h85.333zM213.333 746.667h469.333v-426.667h-469.333v426.667zM128 149.333h640v-85.333h-640z" />
<glyph unicode="&#xe95f;" glyph-name="cog" d="M512 277.333c94.123 0 170.667 76.544 170.667 170.667s-76.544 170.667-170.667 170.667-170.667-76.544-170.667-170.667 76.544-170.667 170.667-170.667zM512 533.333c46.251 0 85.333-39.083 85.333-85.333s-39.083-85.333-85.333-85.333-85.333 39.083-85.333 85.333 39.083 85.333 85.333 85.333zM95.744 340.821c-2.901-10.923-1.365-22.571 4.267-32.384l85.333-147.627c11.776-20.352 37.931-27.349 58.283-15.616l59.563 34.389c24.747-19.499 52.096-35.499 80.853-47.445v-68.139c0-23.564 19.103-42.667 42.667-42.667v0h170.667c23.564 0 42.667 19.103 42.667 42.667v0 68.181c30.882 13.021 57.525 28.94 81.571 47.994l-0.718-0.549 59.563-34.389c6.111-3.565 13.453-5.669 21.286-5.669 15.711 0 29.445 8.466 36.887 21.086l0.109 0.2 85.333 147.627c5.632 9.771 7.168 21.419 4.267 32.384s-10.069 20.267-19.883 25.899l-58.496 33.792c2.17 14.17 3.409 30.517 3.409 47.154 0 16.844-1.27 33.391-3.721 49.551l0.226-1.814 58.496 33.792c12.827 7.539 21.301 21.271 21.301 36.981 0 7.84-2.111 15.188-5.794 21.505l0.109-0.203-85.333 147.627c-7.527 12.835-21.256 21.316-36.965 21.316-7.847 0-15.201-2.116-21.52-5.81l0.202 0.109-59.563-34.389c-23.31 18.534-49.942 34.456-78.565 46.599l-2.246 0.846v68.181c0 23.564-19.103 42.667-42.667 42.667v0h-170.667c-23.564 0-42.667-19.103-42.667-42.667v0-68.181c-30.882-13.021-57.525-28.94-81.571-47.994l0.718 0.549-59.52 34.389c-6.12 3.594-13.478 5.716-21.333 5.716-15.709 0-29.435-8.489-36.841-21.131l-0.109-0.201-85.333-147.627c-5.632-9.771-7.168-21.419-4.267-32.384s10.069-20.224 19.883-25.899l58.496-33.792c-2.197-14.258-3.452-30.705-3.452-47.445s1.255-33.188 3.676-49.253l-0.224 1.808-58.496-33.792c-9.69-5.67-16.839-14.793-19.813-25.642l-0.070-0.299zM263.253 389.205c-4.779 19.328-7.253 39.125-7.253 58.795s2.475 39.467 7.253 58.795c0.811 3.107 1.276 6.675 1.276 10.351 0 15.701-8.489 29.419-21.128 36.814l-0.202 0.109-47.957 27.733 42.624 73.771 48.853-28.203c6.116-3.599 13.473-5.726 21.327-5.726 11.391 0 21.737 4.473 29.378 11.758l-0.017-0.016c27.952 26.672 62.029 47.181 99.89 59.19l1.827 0.5c17.629 5.476 30.208 21.641 30.208 40.744 0 0.016 0 0.032 0 0.048v-0.002 55.467h85.333v-55.467c0-0.007 0-0.016 0-0.025 0-19.119 12.575-35.301 29.906-40.726l0.302-0.082c39.688-12.51 73.766-33.019 101.819-59.787l-0.101 0.096c7.634-7.257 17.983-11.721 29.374-11.721 7.847 0 15.199 2.118 21.516 5.814l-0.202-0.109 48.853 28.203 42.624-73.771-47.957-27.691c-12.84-7.505-21.329-21.223-21.329-36.923 0-3.676 0.465-7.244 1.34-10.647l-0.064 0.296c4.779-19.328 7.253-39.125 7.253-58.795s-2.475-39.467-7.253-58.795c-0.811-3.107-1.276-6.675-1.276-10.351 0-15.701 8.489-29.419 21.128-36.814l0.202-0.109 47.957-27.733-42.624-73.771-48.853 28.203c-6.116 3.599-13.473 5.726-21.327 5.726-11.391 0-21.737-4.473-29.378-11.758l0.017 0.016c-27.952-26.672-62.029-47.181-99.89-59.19l-1.827-0.5c-17.629-5.476-30.208-21.641-30.208-40.744 0-0.016 0-0.032 0-0.048v0.002-55.467h-85.333v55.467c0 0.007 0 0.016 0 0.025 0 19.119-12.575 35.301-29.906 40.726l-0.302 0.082c-39.688 12.51-73.766 33.019-101.819 59.787l0.101-0.096c-7.634 7.257-17.983 11.721-29.374 11.721-7.847 0-15.199-2.118-21.516-5.814l0.202 0.109-48.853-28.203-42.624 73.771 47.957 27.733c12.841 7.483 21.333 21.188 21.333 36.876 0 3.678-0.467 7.247-1.344 10.651l0.065-0.295z" />
<glyph unicode="&#xe960;" glyph-name="collapse" d="M200.832 76.501l135.339 135.339 90.496-90.496v241.323h-241.323l90.496-90.496-135.339-135.339zM823.168 819.499l-135.339-135.339-90.496 90.496v-241.323h241.323l-90.496 90.496 135.339 135.339zM597.333 362.667v-241.323l90.496 90.496 135.339-135.339 60.331 60.331-135.339 135.339 90.496 90.496zM426.667 774.656l-90.496-90.496-135.339 135.339-60.331-60.331 135.339-135.339-90.496-90.496h241.323z" />
<glyph unicode="&#xe961;" glyph-name="collection" d="M853.333 533.333h-682.667c-23.564 0-42.667-19.103-42.667-42.667v0-426.667c0-23.564 19.103-42.667 42.667-42.667v0h682.667c23.564 0 42.667 19.103 42.667 42.667v0 426.667c0 23.564-19.103 42.667-42.667 42.667v0zM810.667 106.667h-597.333v341.333h597.333v-341.333zM213.333 704h597.333v-85.333h-597.333zM298.667 874.667h426.667v-85.333h-426.667z" />
<glyph unicode="&#xe962;" glyph-name="columns" d="M896 789.333h-768c-23.564 0-42.667-19.103-42.667-42.667v0-597.333c0-23.564 19.103-42.667 42.667-42.667v0h768c23.564 0 42.667 19.103 42.667 42.667v0 597.333c0 23.564-19.103 42.667-42.667 42.667v0zM170.667 192v512h170.667v-512h-170.667zM426.667 192v512h170.667v-512h-170.667zM853.333 192h-170.667v512h170.667v-512z" />
<glyph unicode="&#xe963;" glyph-name="command" d="M768 533.333c94.123 0 170.667 76.544 170.667 170.667s-76.544 170.667-170.667 170.667-170.667-76.544-170.667-170.667v-85.333h-170.667v86.187h-0.085c-0.556 93.831-76.69 169.694-170.57 169.813h-0.011c-94.123 0-170.667-76.544-170.667-170.667s76.544-170.667 170.667-170.667h85.333v-170.667h-85.333c-94.123 0-170.667-76.544-170.667-170.667s76.544-170.667 170.667-170.667c93.892 0.119 170.025 75.983 170.581 169.76v0.053h0.085v86.187h170.667v-86.997h0.171c0.988-93.462 76.913-168.863 170.482-169.003h0.014c94.123 0 170.667 76.544 170.667 170.667s-76.544 170.667-170.667 170.667h-85.333v170.667h85.333zM682.667 704c0 47.872 37.504 85.333 85.333 85.333s85.333-37.461 85.333-85.333-37.504-85.333-85.333-85.333h-85.333v85.333zM256 618.667c-47.829 0-85.333 37.461-85.333 85.333s37.504 85.333 85.333 85.333 85.333-37.461 85.333-85.333v-85.333h-85.333zM341.333 192c0-47.872-37.504-85.333-85.333-85.333s-85.333 37.461-85.333 85.333 37.504 85.333 85.333 85.333h85.333v-85.333zM768 277.333c47.829 0 85.333-37.461 85.333-85.333s-37.504-85.333-85.333-85.333-85.333 37.461-85.333 85.333v85.333h85.333zM597.333 362.667h-170.667v170.667h170.667v-170.667z" />
<glyph unicode="&#xe964;" glyph-name="compass" d="M512 874.667c-235.264 0-426.667-191.403-426.667-426.667s191.403-426.667 426.667-426.667 426.667 191.403 426.667 426.667-191.403 426.667-426.667 426.667zM512 106.667c-188.203 0-341.333 153.131-341.333 341.333s153.131 341.333 341.333 341.333 341.333-153.131 341.333-341.333-153.131-341.333-341.333-341.333zM341.333 277.333l255.616 85.717 85.717 255.616-256-85.333z" />
<glyph unicode="&#xe965;" glyph-name="contact" d="M896 874.667h-679.979c-23.564 0-42.667-19.103-42.667-42.667v0-170.667h-88.021v-85.333h88.021v-85.333h-88.021v-85.333h88.021v-85.333h-88.021v-85.333h88.021v-170.667c0-23.564 19.103-42.667 42.667-42.667v0h679.979c23.564 0 42.667 19.103 42.667 42.667v0 768c0 23.564-19.103 42.667-42.667 42.667v0zM853.333 106.667h-594.645v682.667h594.645v-682.667zM554.667 405.333c115.541 0 128-119.339 128-170.667h85.333c0 105.259-36.907 182.997-100.096 223.787 22.187 26.027 36.096 59.392 36.096 96.213 0 82.347-66.987 149.333-149.333 149.333s-149.333-66.987-149.333-149.333c0-36.821 13.909-70.187 36.096-96.213-63.189-40.789-100.096-118.528-100.096-223.787h85.333c0 51.328 12.459 170.667 128 170.667zM490.667 554.667c0 35.285 28.715 64 64 64s64-28.715 64-64-28.715-64-64-64-64 28.715-64 64z" />
<glyph unicode="&#xe966;" glyph-name="copy" d="M640 618.667h-512c-23.564 0-42.667-19.103-42.667-42.667v0-512c0-23.564 19.103-42.667 42.667-42.667v0h512c23.564 0 42.667 19.103 42.667 42.667v0 512c0 23.564-19.103 42.667-42.667 42.667v0zM597.333 106.667h-426.667v426.667h426.667v-426.667zM896 874.667h-512c-23.564 0-42.667-19.103-42.667-42.667v0-128h85.333v85.333h426.667v-426.667h-85.333v-85.333h128c23.564 0 42.667 19.103 42.667 42.667v0 512c0 23.564-19.103 42.667-42.667 42.667v0z" />
<glyph unicode="&#xe967;" glyph-name="copyright" d="M512 21.333c231.296 0 426.667 195.371 426.667 426.667s-195.371 426.667-426.667 426.667-426.667-195.371-426.667-426.667 195.371-426.667 426.667-426.667zM512 789.333c185.045 0 341.333-156.288 341.333-341.333s-156.288-341.333-341.333-341.333-341.333 156.288-341.333 341.333 156.288 341.333 341.333 341.333zM512 234.667c38.443 0 110.123 7.168 158.165 55.125l-60.331 60.416c-18.901-18.901-55.509-30.208-97.835-30.208-69.376 0-128 58.624-128 128s58.624 128 128 128c42.368 0 78.976-11.307 97.835-30.165l60.331 60.331c-48 48-119.723 55.168-158.165 55.168-117.632 0-213.333-95.701-213.333-213.333s95.701-213.333 213.333-213.333z" />
<glyph unicode="&#xe968;" glyph-name="coupon" d="M896 746.667h-768c-23.564 0-42.667-19.103-42.667-42.667v0-170.667c0-23.564 19.103-42.667 42.667-42.667v0c35.285 0 64-28.715 64-64s-28.715-64-64-64c-23.564 0-42.667-19.103-42.667-42.667v0-128c0-23.564 19.103-42.667 42.667-42.667v0h768c23.564 0 42.667 19.103 42.667 42.667v0 128c0 23.564-19.103 42.667-42.667 42.667v0c-35.285 0-64 28.715-64 64s28.715 64 64 64c23.564 0 42.667 19.103 42.667 42.667v0 170.667c0 23.564-19.103 42.667-42.667 42.667v0zM853.333 569.771c-61.611-18.432-106.667-75.563-106.667-143.104s45.056-124.715 106.667-143.104v-48.896h-384v85.333h-85.333v-85.333h-213.333v48.896c61.611 18.432 106.667 75.563 106.667 143.104s-45.056 124.715-106.667 143.104v91.563h213.333v-85.333h85.333v85.333h384v-91.563zM384 490.667h85.333v-85.333h-85.333z" />
<glyph unicode="&#xe969;" glyph-name="credit-card" d="M896 789.333h-768c-23.564 0-42.667-19.103-42.667-42.667v0-597.333c0-23.564 19.103-42.667 42.667-42.667v0h768c23.564 0 42.667 19.103 42.667 42.667v0 597.333c0 23.564-19.103 42.667-42.667 42.667v0zM853.333 704v-85.333h-682.667v85.333h682.667zM170.667 192v256h682.667v-256h-682.667zM256 362.667h256v-85.333h-256z" />
<glyph unicode="&#xe96a;" glyph-name="crop" d="M341.333 874.667h-85.333v-170.667h-170.667v-85.333h170.667v-384c0-23.564 19.103-42.667 42.667-42.667v0h384v-170.667h85.333v170.667h170.667v85.333h-597.333v597.333zM768 362.667v298.667c0 23.564-19.103 42.667-42.667 42.667v0h-298.667v-85.333h256v-256h85.333z" />
<glyph unicode="&#xe96b;" glyph-name="crosshair" d="M512 874.667c-235.264 0-426.667-191.403-426.667-426.667s191.403-426.667 426.667-426.667 426.667 191.403 426.667 426.667-191.403 426.667-426.667 426.667zM554.667 109.611v125.056h-85.333v-125.056c-154.488 20.255-275.468 141.235-295.537 293.993l-0.186 1.73h125.056v85.333h-125.056c20.255 154.488 141.235 275.468 293.993 295.537l1.73 0.186v-125.056h85.333v125.056c154.495-20.24 275.483-141.228 295.537-293.995l0.185-1.728h-125.056v-85.333h125.056c-20.255-154.488-141.235-275.468-293.993-295.537l-1.73-0.186z" />
<glyph unicode="&#xe96c;" glyph-name="crown" d="M170.667 64h682.667c23.564 0 42.667 19.103 42.667 42.667v0 682.667c-0.126 23.516-19.218 42.53-42.751 42.53-13.387 0-25.337-6.153-33.176-15.786l-0.062-0.078-137.344-171.691-137.344 171.691c-16.256 20.267-50.432 20.267-66.688 0l-137.301-171.691-137.344 171.691c-7.901 9.711-19.851 15.864-33.238 15.864-23.533 0-42.626-19.015-42.751-42.518v-682.679c0-23.564 19.103-42.667 42.667-42.667v0zM810.667 149.333h-597.333v85.504l597.333-0.171v-85.333zM308.011 549.333c16.256-20.267 50.432-20.267 66.688 0l137.301 171.691 137.344-171.691c16.256-20.267 50.432-20.267 66.688 0l94.635 118.357v-347.691l-597.333 0.171v347.52l94.677-118.357z" />
<glyph unicode="&#xe96d;" glyph-name="cube" d="M86.144 235.051c0.008-17.087 10.059-31.825 24.571-38.631l0.261-0.11 383.189-176.299c0.64-0.299 1.365-0.171 2.005-0.469 5.12-2.048 10.411-3.456 15.829-3.456s10.667 1.365 15.701 3.413c0.683 0.256 1.408 0.171 2.091 0.469l383.189 175.915c15.147 6.955 24.875 22.144 24.875 38.784v426.709l-0.043 0.256c-0.038 4.013-0.644 7.869-1.739 11.513l0.075-0.292c-0.341 1.195-0.896 2.261-1.323 3.413-0.98 2.699-2.058 4.993-3.315 7.17l0.115-0.216c-0.889 1.361-1.731 2.516-2.626 3.626l0.066-0.085c-2.359 3.139-5.043 5.85-8.051 8.162l-0.099 0.073c-0.896 0.725-1.579 1.536-2.56 2.176-1.109 0.768-2.432 1.109-3.584 1.749-0.811 0.384-1.365 0.981-2.219 1.365l-383.189 170.667c-5.108 2.326-11.078 3.682-17.365 3.682s-12.257-1.356-17.634-3.791l0.269 0.109-383.189-170.667c-0.853-0.384-1.493-0.981-2.261-1.408-1.195-0.64-2.432-1.024-3.541-1.707-0.939-0.64-1.664-1.451-2.56-2.176-3.198-2.279-5.899-5.007-8.078-8.127l-0.071-0.108c-0.829-1.025-1.671-2.18-2.457-3.375l-0.103-0.167c-1.28-2.219-2.304-4.565-3.2-6.955-0.427-1.195-1.024-2.219-1.323-3.413-1.041-3.356-1.648-7.215-1.664-11.213v-0.008l-0.043-0.256v-426.325zM171.477 595.413l297.856-133.717v-336.384l-297.856 137.045v333.056zM852.523 262.059l-297.856-136.747v336.427l297.856 133.717v-333.397zM512 785.28l278.656-124.117-278.656-125.099-278.656 125.099 278.656 124.117z" />
<glyph unicode="&#xe96e;" glyph-name="cut" d="M347.819 344.149c-20.315 11.495-44.582 18.339-70.432 18.517h-0.053c-82.347 0-149.333-66.987-149.333-149.333s66.987-149.333 149.333-149.333 149.333 66.987 149.333 149.333c0 25.643-7.083 49.408-18.517 70.485l103.851 103.851 281.003-281.003h120.661l-505.515 505.515c11.495 20.315 18.339 44.582 18.517 70.432v0.053c0 82.347-66.987 149.333-149.333 149.333s-149.333-66.987-149.333-149.333 66.987-149.333 149.333-149.333c25.643 0 49.408 7.083 70.485 18.517l103.851-103.851-103.851-103.851zM277.333 149.333c-35.285 0-64 28.715-64 64s28.715 64 64 64 64-28.715 64-64-28.715-64-64-64zM213.333 682.667c0 35.285 28.715 64 64 64s64-28.715 64-64-28.715-64-64-64-64 28.715-64 64zM567.168 563.499l60.331-60.331 286.165 286.165h-120.661z" />
<glyph unicode="&#xe96f;" glyph-name="data" d="M170.667 704v-512c0-92.501 156.288-170.667 341.333-170.667s341.333 78.165 341.333 170.667v512c0 92.501-156.288 170.667-341.333 170.667s-341.333-78.165-341.333-170.667zM512 106.667c-157.483 0-253.056 64.299-256 85.333v59.435c63.104-36.139 155.179-59.435 256-59.435s192.896 23.296 256 59.435v-59.179c-2.944-21.291-98.517-85.589-256-85.589zM512 277.333c-157.483 0-253.056 64.299-256 85.333v59.435c63.104-36.139 155.179-59.435 256-59.435s192.896 23.296 256 59.435v-59.179c-2.944-21.291-98.517-85.589-256-85.589zM512 448c-157.483 0-253.056 64.299-256 85.333v59.435c63.104-36.139 155.179-59.435 256-59.435s192.896 23.296 256 59.435v-59.179c-2.944-21.291-98.517-85.589-256-85.589zM768 704.256c-2.944-21.291-98.517-85.589-256-85.589s-253.056 64.299-256 85.077c2.944 21.291 98.517 85.589 256 85.589s253.056-64.299 256-85.077z" />
<glyph unicode="&#xe970;" glyph-name="desktop" d="M896 789.333h-768c-23.564 0-42.667-19.103-42.667-42.667v0-512c0-23.564 19.103-42.667 42.667-42.667v0h341.333v-85.333h-85.333v-85.333h256v85.333h-85.333v85.333h341.333c23.564 0 42.667 19.103 42.667 42.667v0 512c0 23.564-19.103 42.667-42.667 42.667v0zM853.333 704v-384h-682.667v384h682.667z" />
<glyph unicode="&#xe971;" glyph-name="detail" d="M256 661.333h512v-85.333h-512zM256 490.667h383.573v-85.333h-383.573zM256 320h256v-85.333h-256zM896 832h-768c-23.564 0-42.667-19.103-42.667-42.667v0-682.667c0-23.564 19.103-42.667 42.667-42.667v0h768c23.564 0 42.667 19.103 42.667 42.667v0 682.667c0 23.564-19.103 42.667-42.667 42.667v0zM853.333 149.333h-682.667v597.333h682.667v-597.333z" />
<glyph unicode="&#xe972;" glyph-name="diamond" d="M712.832 776.832c-7.696 7.723-18.342 12.501-30.104 12.501-0.022 0-0.043 0-0.065 0h-341.33c-0.018 0-0.040 0-0.062 0-11.762 0-22.408-4.779-30.102-12.5l-213.334-213.334c-7.729-7.716-12.51-18.382-12.51-30.165s4.781-22.449 12.509-30.165l384.001-384.001c7.706-7.749 18.376-12.545 30.165-12.545s22.459 4.796 30.163 12.544l384.002 384.002c7.729 7.716 12.51 18.382 12.51 30.165s-4.781 22.449-12.509 30.165l-213.334 213.334zM512 209.664l-323.669 323.669 170.667 170.667h306.005l170.667-170.667-323.669-323.669z" />
<glyph unicode="&#xe973;" glyph-name="directions" d="M798.165 520.832c-7.696 7.723-18.342 12.501-30.104 12.501-0.022 0-0.043 0-0.065 0h-213.33v341.333h-85.333v-42.667h-213.333c-0.013 0-0.028 0-0.044 0-11.768 0-22.419-4.778-30.12-12.5l-128.001-128.001c-7.729-7.716-12.51-18.382-12.51-30.165s4.781-22.449 12.509-30.165l128.001-128.001c7.702-7.723 18.354-12.501 30.121-12.501 0.015 0 0.031 0 0.046 0h213.331v-469.333h85.333v170.667h213.333c11.349 0 22.187 4.48 30.165 12.501l128 128c7.729 7.716 12.51 18.382 12.51 30.165s-4.781 22.449-12.509 30.165l-128.001 128.001zM273.664 576l-85.333 85.333 85.333 85.333h195.669v-170.667h-195.669zM750.336 277.333h-195.669v170.667h195.669l85.333-85.333-85.333-85.333z" />
<glyph unicode="&#xe974;" glyph-name="discount" d="M896 746.667h-768c-23.564 0-42.667-19.103-42.667-42.667v0-170.667c0-23.564 19.103-42.667 42.667-42.667v0c35.285 0 64-28.715 64-64s-28.715-64-64-64c-23.564 0-42.667-19.103-42.667-42.667v0-128c0-23.564 19.103-42.667 42.667-42.667v0h768c23.564 0 42.667 19.103 42.667 42.667v0 128c0 23.564-19.103 42.667-42.667 42.667v0c-35.285 0-64 28.715-64 64s28.715 64 64 64c23.564 0 42.667 19.103 42.667 42.667v0 170.667c0 23.564-19.103 42.667-42.667 42.667v0zM853.333 569.771c-61.611-18.432-106.667-75.563-106.667-143.104s45.056-124.715 106.667-143.104v-48.896h-682.667v48.896c61.611 18.432 106.667 75.563 106.667 143.104s-45.056 124.715-106.667 143.104v91.563h682.667v-91.563zM426.667 533.333c0-23.564-19.103-42.667-42.667-42.667s-42.667 19.103-42.667 42.667c0 23.564 19.103 42.667 42.667 42.667s42.667-19.103 42.667-42.667zM682.667 362.667c0-23.564-19.103-42.667-42.667-42.667s-42.667 19.103-42.667 42.667c0 23.564 19.103 42.667 42.667 42.667s42.667-19.103 42.667-42.667zM632.832 552.32l-170.667-256-70.997 47.36 170.667 256z" />
<glyph unicode="&#xe975;" glyph-name="dislike" d="M896 832h-640c-17.792 0-33.707-11.051-39.979-27.691l-128-341.333c-1.702-4.428-2.688-9.551-2.688-14.905 0-0.025 0-0.050 0-0.075v0.004-128c0-23.564 19.103-42.667 42.667-42.667v0h282.112l-66.603-199.851c-1.404-4.040-2.215-8.695-2.215-13.541 0-9.355 3.023-18.003 8.144-25.023l-0.084 0.121c8.064-11.136 20.949-17.707 34.645-17.707h128c12.672 0 24.661 5.632 32.768 15.317l200.533 240.427h150.699c23.564 0 42.667 19.103 42.667 42.667v0 469.589c0 23.564-19.103 42.667-42.667 42.667v0zM492.032 106.667h-48.853l66.603 199.851c1.386 4.023 2.186 8.66 2.186 13.483 0 23.553-19.084 42.648-42.633 42.667h-298.668v77.611l114.901 306.389h397.099v-411.435l-190.635-228.565zM853.333 362.453h-85.333v384.213h85.333v-384.213z" />
<glyph unicode="&#xe976;" glyph-name="dock-bottom" d="M853.333 832h-682.667c-23.564 0-42.667-19.103-42.667-42.667v0-682.667c0-23.564 19.103-42.667 42.667-42.667v0h682.667c23.564 0 42.667 19.103 42.667 42.667v0 682.667c0 23.564-19.103 42.667-42.667 42.667v0zM810.667 746.667v-384h-597.333v384h597.333zM213.333 149.333v128h597.333v-128h-597.333z" />
<glyph unicode="&#xe977;" glyph-name="dock-left" d="M896 106.667v682.667c0 23.564-19.103 42.667-42.667 42.667v0h-682.667c-23.564 0-42.667-19.103-42.667-42.667v0-682.667c0-23.564 19.103-42.667 42.667-42.667v0h682.667c23.564 0 42.667 19.103 42.667 42.667v0zM213.333 746.667h128v-597.333h-128v597.333zM810.667 149.333h-384v597.333h384v-597.333z" />
<glyph unicode="&#xe978;" glyph-name="dock-right" d="M853.333 832h-682.667c-23.564 0-42.667-19.103-42.667-42.667v0-682.667c0-23.564 19.103-42.667 42.667-42.667v0h682.667c23.564 0 42.667 19.103 42.667 42.667v0 682.667c0 23.564-19.103 42.667-42.667 42.667v0zM213.333 746.667h384v-597.333h-384v597.333zM810.667 149.333h-128v597.333h128v-597.333z" />
<glyph unicode="&#xe979;" glyph-name="dock-top" d="M128 106.667c0-23.564 19.103-42.667 42.667-42.667v0h682.667c23.564 0 42.667 19.103 42.667 42.667v0 682.667c0 23.564-19.103 42.667-42.667 42.667v0h-682.667c-23.564 0-42.667-19.103-42.667-42.667v0-682.667zM213.333 149.333v384h597.333v-384h-597.333zM810.667 746.667v-128h-597.333v128h597.333z" />
<glyph unicode="&#xe97a;" glyph-name="dollar" d="M554.624 21.845v86.869c156.117 13.952 213.333 104.533 213.333 189.952 0 121.472-120.363 182.656-213.333 190.933v212.608c91.477-7.424 151.040-36.139 151.723-36.437l38.059 76.416c-3.456 1.707-77.184 37.632-189.739 45.483v86.997h-85.333v-87.381c-156.117-13.952-213.333-104.533-213.333-189.952 0-121.472 120.363-182.656 213.333-190.933v-212.651c-91.477 7.467-151.040 36.139-151.595 36.437l-38.187-76.331c3.456-1.707 77.184-37.632 189.739-45.44v-86.528h85.333zM682.624 298.667c0-58.24-46.208-95.019-128-104.192v209.28c58.368-7.424 128-44.075 128-105.088zM341.291 597.333c0 59.264 45.227 95.403 128 104.32v-209.493c-53.504 6.997-128 39.211-128 105.173z" />
<glyph unicode="&#xe97b;" glyph-name="dollar-circle" d="M512 874.667c-235.264 0-426.667-191.403-426.667-426.667s191.403-426.667 426.667-426.667 426.667 191.403 426.667 426.667-191.403 426.667-426.667 426.667zM512 106.667c-188.203 0-341.333 153.131-341.333 341.333s153.131 341.333 341.333 341.333 341.333-153.131 341.333-341.333-153.131-341.333-341.333-341.333zM554.667 490.667h-84.821c-19.712 0.512-43.179 8.32-43.179 42.667s23.467 42.155 42.667 42.667h170.667v85.333h-85.333v42.667h-85.333v-42.667c-51.456 0-128-34.091-128-128s76.544-128 128-128h84.821c19.712-0.512 43.179-8.277 43.179-42.667s-23.467-42.155-42.667-42.667h-170.667v-85.333h85.333v-42.667h85.333v42.667c51.456 0 128 34.091 128 128s-76.544 128-128 128z" />
<glyph unicode="&#xe97c;" glyph-name="dots-horizontal" d="M426.667 533.333h170.667v-170.667h-170.667zM682.667 533.333h170.667v-170.667h-170.667zM170.667 533.333h170.667v-170.667h-170.667z" />
<glyph unicode="&#xe97d;" glyph-name="dots-horizontal-rounded" d="M512 533.333c-46.933 0-85.333-38.4-85.333-85.333s38.4-85.333 85.333-85.333 85.333 38.4 85.333 85.333-38.4 85.333-85.333 85.333zM768 533.333c-46.933 0-85.333-38.4-85.333-85.333s38.4-85.333 85.333-85.333 85.333 38.4 85.333 85.333-38.4 85.333-85.333 85.333zM256 533.333c-46.933 0-85.333-38.4-85.333-85.333s38.4-85.333 85.333-85.333 85.333 38.4 85.333 85.333-38.4 85.333-85.333 85.333z" />
<glyph unicode="&#xe97e;" glyph-name="dots-vertical" d="M426.667 533.333h170.667v-170.667h-170.667zM426.667 789.333h170.667v-170.667h-170.667zM426.667 277.333h170.667v-170.667h-170.667z" />
<glyph unicode="&#xe97f;" glyph-name="dots-vertical-rounded" d="M512 533.333c-46.933 0-85.333-38.4-85.333-85.333s38.4-85.333 85.333-85.333 85.333 38.4 85.333 85.333-38.4 85.333-85.333 85.333zM512 789.333c-46.933 0-85.333-38.4-85.333-85.333s38.4-85.333 85.333-85.333 85.333 38.4 85.333 85.333-38.4 85.333-85.333 85.333zM512 277.333c-46.933 0-85.333-38.4-85.333-85.333s38.4-85.333 85.333-85.333 85.333 38.4 85.333 85.333-38.4 85.333-85.333 85.333z" />
<glyph unicode="&#xe980;" glyph-name="down-arrow-circle" d="M512 874.667c-235.264 0-426.667-191.403-426.667-426.667s191.403-426.667 426.667-426.667 426.667 191.403 426.667 426.667-191.403 426.667-426.667 426.667zM512 106.667c-188.203 0-341.333 153.131-341.333 341.333s153.131 341.333 341.333 341.333 341.333-153.131 341.333-341.333-153.131-341.333-341.333-341.333zM554.667 618.667h-85.333v-170.667h-128l170.667-170.667 170.667 170.667h-128z" />
<glyph unicode="&#xe981;" glyph-name="down-arrow-outline" d="M475.989 169.088c7.718-11.928 20.956-19.709 36.011-19.709s28.292 7.782 35.909 19.542l0.101 0.167 298.667 469.333c8.363 13.141 8.875 29.781 1.408 43.477-7.425 13.271-21.391 22.096-37.418 22.101h-597.334c-23.574-0.019-42.677-19.133-42.677-42.709 0-8.503 2.485-16.425 6.768-23.081l-0.102 0.169 298.667-469.291zM732.971 618.667l-220.971-347.179-220.971 347.179h441.941z" />
<glyph unicode="&#xe982;" glyph-name="download" d="M469.333 789.333v-341.333h-128l170.667-170.667 170.667 170.667h-128v341.333zM853.333 192h-682.667v341.333h-85.333v-384c0-23.564 19.103-42.667 42.667-42.667v0h768c23.564 0 42.667 19.103 42.667 42.667v0 384h-85.333v-341.333z" />
<glyph unicode="&#xe983;" glyph-name="download-alt" d="M170.667 106.667h682.667v85.333h-288l236.8 315.733c5.353 7.048 8.576 15.969 8.576 25.643 0 23.541-19.083 42.624-42.624 42.624-0.030 0-0.060 0-0.090 0h-85.328v170.667c0 23.564-19.103 42.667-42.667 42.667v0h-256c-23.564 0-42.667-19.103-42.667-42.667v0-170.667h-85.333c-23.551-0.048-42.624-19.151-42.624-42.709 0-9.633 3.189-18.521 8.569-25.666l-0.079 0.109 236.8-315.733h-288v-85.333zM384 490.667c23.564 0 42.667 19.103 42.667 42.667v0 170.667h170.667v-170.667c0-23.564 19.103-42.667 42.667-42.667v0h42.667l-170.667-227.541-170.667 227.541h42.667z" />
<glyph unicode="&#xe984;" glyph-name="downvote" d="M640 874.667h-256c-23.564 0-42.667-19.103-42.667-42.667v0-298.667h-170.667c-23.556-0.041-42.637-19.147-42.637-42.709 0-10.107 3.511-19.394 9.379-26.708l-0.065 0.084 341.333-426.667c7.885-9.801 19.877-16.020 33.323-16.020s25.438 6.219 33.258 15.938l0.064 0.082 341.333 426.667c0.022 0 0.047 0 0.073 0 23.588 0 42.709 19.122 42.709 42.709s-19.122 42.709-42.709 42.709c-13.481 0-25.503-6.246-33.33-16.002l-0.065-0.084h-170.667v298.667c0 23.564-19.103 42.667-42.667 42.667v0zM764.544 448l-252.544-315.691-252.544 315.691h124.544c23.564 0 42.667 19.103 42.667 42.667v0 298.667h170.667v-298.667c0-23.564 19.103-42.667 42.667-42.667v0h124.544z" />
<glyph unicode="&#xe985;" glyph-name="dribbble" d="M512 874.667c-231.296 0-426.667-195.371-426.667-426.667s195.371-426.667 426.667-426.667 426.667 195.371 426.667 426.667-195.371 426.667-426.667 426.667zM749.013 690.816c58.795-57.472 97.323-135.296 103.168-220.587-44.394 12.896-95.4 20.353-148.135 20.437h-0.047c-32.427 0-64.085-3.285-94.976-9.131-15.004 33.401-24.822 53.545-34.944 73.508l5.59-12.154c65.818 40.521 121.781 89.665 168.403 146.738l0.941 1.188zM681.216 742.485c-39.912-48.549-86.534-89.699-138.849-122.635l-2.377-1.397c-36.060 65.797-68.763 119.059-103.633 170.739l4.902-7.709c21.245 4.956 45.65 7.814 70.716 7.851h0.025c61.141 0 118.955-17.323 169.216-46.848zM358.571 751.232c32.773-47.349 67.676-103.692 99.913-161.721l5.474-10.737c-67.925-29.013-141.056-45.44-215.936-45.44-20.693 0-42.24 1.92-64.384 4.693 26.197 92.075 90.923 169.6 174.933 213.205zM170.667 448c0 1.92 0.256 3.84 0.299 5.76 26.368-3.413 52.096-5.76 77.056-5.76 88.917 0 175.488 20.011 255.659 55.253 7.253-14.592 14.507-29.653 21.675-45.013-107.989-40.875-201.771-119.509-272.427-229.419-50.987 59.819-82.261 136.533-82.261 219.179zM316.715 170.368c45.824 75.136 123.392 166.656 242.645 209.92 32.384-78.976 59.861-163.968 75.563-249.515-36.363-15.104-78.588-23.946-122.859-24.106h-0.064c-71.979 0-139.52 23.893-195.285 63.701zM713.557 175.104c-16.469 77.909-41.6 154.197-70.187 225.707 19.413 2.645 39.424 4.523 60.629 4.523 47.701 0 95.531-7.979 142.635-22.827-17.067-83.755-66.048-157.312-133.077-207.403z" />
<glyph unicode="&#xe986;" glyph-name="drink" d="M853.333 874.667h-682.667c-0.002 0-0.004 0-0.006 0-23.564 0-42.667-19.103-42.667-42.667 0-9.43 3.059-18.145 8.239-25.207l-0.083 0.119 333.184-458.112v-242.133h-128v-85.333h341.333v85.333h-128v242.133l333.184 458.112c23.562 0.003 42.661 19.105 42.661 42.667 0 23.564-19.103 42.667-42.667 42.667-14.135 0-26.664-6.873-34.428-17.459l-0.083-0.119zM378.581 618.667h266.837l-133.419-183.467-133.419 183.467zM707.499 704h-390.997l-62.037 85.333h515.072l-62.037-85.333z" />
<glyph unicode="&#xe987;" glyph-name="droplet" d="M512 21.333c188.203 0 341.333 153.131 341.333 341.12 1.365 274.987-303.616 495.104-316.587 504.277-6.863 4.96-15.447 7.933-24.725 7.933s-17.862-2.973-24.85-8.019l0.125 0.086c-13.013-9.173-318.037-229.291-316.629-504.064 0-188.203 153.131-341.333 341.333-341.333zM512.043 778.069c68.736-55.637 256.896-225.323 255.957-415.403 0-141.184-114.816-256-256-256s-256 114.816-256 256.213c-0.939 189.397 187.307 359.467 256.043 415.189z" />
<glyph unicode="&#xe988;" glyph-name="duplicate" d="M469.333 533.333h-85.333v-128h-128v-85.333h128v-128h85.333v128h128v85.333h-128zM128 21.333h597.333c23.564 0 42.667 19.103 42.667 42.667v0 597.333c0 23.564-19.103 42.667-42.667 42.667v0h-597.333c-23.564 0-42.667-19.103-42.667-42.667v0-597.333c0-23.564 19.103-42.667 42.667-42.667v0zM170.667 618.667h512v-512h-512v512zM896 874.667h-554.667v-85.333h512v-512h85.333v554.667c0 23.564-19.103 42.667-42.667 42.667v0z" />
<glyph unicode="&#xe989;" glyph-name="edit" d="M798.165 862.165c-7.716 7.729-18.382 12.51-30.165 12.51s-22.449-4.781-30.165-12.509l-341.334-341.334c-5.303-5.31-9.219-12.007-11.156-19.5l-0.065-0.297-42.667-170.667c-0.81-3.109-1.276-6.678-1.276-10.355 0-23.564 19.103-42.667 42.667-42.667 3.665 0 7.222 0.462 10.617 1.331l-0.296-0.064 170.667 42.667c7.509 1.877 14.379 5.76 19.84 11.221l341.333 341.333c7.729 7.716 12.51 18.382 12.51 30.165s-4.781 22.449-12.509 30.165l-128.001 128.001zM532.821 401.195l-90.197-22.528 22.571 90.197 302.805 302.805 67.669-67.669-302.848-302.805zM213.333 106.667h597.333c23.564 0 42.667 19.103 42.667 42.667v0 256h-85.333v-213.333h-512v512h213.333v85.333h-256c-23.564 0-42.667-19.103-42.667-42.667v0-597.333c0-23.564 19.103-42.667 42.667-42.667v0z" />
<glyph unicode="&#xe98a;" glyph-name="eject" d="M260.693 385.792c7.339-14.208 21.973-23.125 37.973-23.125h426.667c23.554 0.045 42.631 19.149 42.631 42.709 0 9.28-2.96 17.87-7.987 24.875l0.087-0.128-213.333 298.667c-16 22.443-53.419 22.443-69.419 0l-213.333-298.667c-4.994-6.897-7.989-15.528-7.989-24.857 0-7.11 1.739-13.814 4.815-19.709l-0.112 0.236zM512 630.571l130.432-182.571h-260.864l130.432 182.571zM256 277.333h512v-85.333h-512z" />
<glyph unicode="&#xe98b;" glyph-name="envelope" d="M896 789.333h-768c-23.564 0-42.667-19.103-42.667-42.667v0-597.333c0-23.564 19.103-42.667 42.667-42.667v0h768c23.564 0 42.667 19.103 42.667 42.667v0 597.333c0 23.564-19.103 42.667-42.667 42.667v0zM853.333 704v-23.552l-341.333-303.36-341.333 303.403v23.509h682.667zM170.667 192v374.315l312.96-278.229c7.51-6.666 17.454-10.737 28.349-10.737 10.917 0 20.88 4.088 28.441 10.817l-0.043-0.038 312.96 278.187v-374.315h-682.667z" />
<glyph unicode="&#xe98c;" glyph-name="eraser" d="M268.501 119.168c7.696-7.723 18.342-12.501 30.104-12.501 0.022 0 0.043 0 0.065 0h511.997v85.333h-195.669l311.168 311.168c7.72 7.721 12.495 18.387 12.495 30.168 0 10.633-3.89 20.358-10.324 27.829l0.047-0.056-256 298.667c-7.518 8.746-18.439 14.384-30.685 14.846l-0.078 0.002c-0.592 0.030-1.285 0.047-1.981 0.047-11.669 0-22.22-4.785-29.799-12.5l-512.006-512.006c-7.729-7.716-12.51-18.382-12.51-30.165s4.781-22.449 12.509-30.165l170.668-170.668zM637.568 769.237l200.277-233.685-91.179-91.179-217.003 216.96 107.904 107.904zM469.333 601.003l217.003-216.96-192.043-192.043h-177.963l-128 128 281.003 281.003z" />
<glyph unicode="&#xe98d;" glyph-name="error" d="M469.333 576h85.333v-213.333h-85.333zM469.333 277.333h85.333v-85.333h-85.333zM549.717 851.968c-14.763 27.904-60.672 27.904-75.435 0l-384-725.333c-3.142-5.795-4.989-12.687-4.989-20.011 0-23.541 19.083-42.624 42.624-42.624 0.029 0 0.058 0 0.087 0h767.995c0.026 0 0.057 0 0.088 0 23.517 0 42.581 19.064 42.581 42.581 0 7.324-1.849 14.217-5.106 20.236l0.111-0.225-383.957 725.376zM198.869 149.333l313.131 591.445 313.131-591.445h-626.261z" />
<glyph unicode="&#xe98e;" glyph-name="error-circle" d="M509.995 874.667c-234.155 0-424.661-191.403-424.661-426.667s191.403-426.667 426.667-426.667 426.667 191.403 426.667 426.667-192.299 426.667-428.672 426.667zM512 106.667c-188.203 0-341.333 153.131-341.333 341.333s152.192 341.333 339.328 341.333c189.355 0 343.339-153.131 343.339-341.333s-153.131-341.333-341.333-341.333zM469.333 661.333h85.333v-256h-85.333zM469.333 320h85.333v-85.333h-85.333z" />
<glyph unicode="&#xe98f;" glyph-name="exclamation" d="M469.333 746.667h85.333v-426.24h-85.333zM469.333 234.795h85.333v-85.461h-85.333z" />
<glyph unicode="&#xe990;" glyph-name="exit-fullscreen" d="M426.667 576v256h-85.333v-213.333h-213.333v-85.333h256c23.564 0 42.667 19.103 42.667 42.667v0zM341.333 64h85.333v256c0 23.564-19.103 42.667-42.667 42.667v0h-256v-85.333h213.333v-213.333zM896 362.667h-256c-23.564 0-42.667-19.103-42.667-42.667v0-256h85.333v213.333h213.333v85.333zM896 618.667h-213.333v213.333h-85.333v-256c0-23.564 19.103-42.667 42.667-42.667v0h256v85.333z" />
<glyph unicode="&#xe991;" glyph-name="expand" d="M670.165 545.835l135.339 135.339 90.496-90.496v241.323h-241.323l90.496-90.496-135.339-135.339zM745.173 154.496l-90.496-90.496h241.323v241.323l-90.496-90.496-135.339 135.339-60.331-60.331zM353.835 350.165l-135.339-135.339-90.496 90.496v-241.323h241.323l-90.496 90.496 135.339 135.339zM278.827 741.504l90.496 90.496h-241.323v-241.323l90.496 90.496 135.339-135.339 60.331 60.331z" />
<glyph unicode="&#xe992;" glyph-name="export" d="M469.333 277.333h85.333v384h128l-170.667 170.667-170.667-170.667h128zM896 576h-256v-85.333h213.333v-298.667h-682.667v298.667h213.333v85.333h-256c-23.564 0-42.667-19.103-42.667-42.667v0-384c0-23.564 19.103-42.667 42.667-42.667v0h768c23.564 0 42.667 19.103 42.667 42.667v0 384c0 23.564-19.103 42.667-42.667 42.667v0z" />
<glyph unicode="&#xe993;" glyph-name="eyedropper" d="M798.165 862.165c-7.716 7.729-18.382 12.51-30.165 12.51s-22.449-4.781-30.165-12.509l-140.63-140.63-55.381 55.296-60.331-60.331 55.381-55.296-353.707-353.707c-5.313-5.319-9.231-12.032-11.157-19.544l-0.064-0.296-42.667-170.667c-0.834-3.147-1.313-6.761-1.313-10.486 0-23.493 19.045-42.539 42.539-42.539 3.725 0 7.339 0.479 10.782 1.378l-0.296-0.066 170.667 42.667c7.509 1.877 14.379 5.76 19.84 11.221l353.792 353.792 55.211-55.125 60.331 60.331-55.211 55.125 140.544 140.544c7.729 7.716 12.51 18.382 12.51 30.165s-4.781 22.449-12.509 30.165l-128.001 128.001zM319.488 187.861l-90.197-22.571 22.571 90.197 345.387 345.387 67.669-67.584-345.429-345.429zM725.248 593.621l-67.669 67.584 110.421 110.464 67.669-67.669-110.421-110.379z" />
<glyph unicode="&#xe994;" glyph-name="facebook" d="M384 21.333h213.333c23.564 0 42.667 19.103 42.667 42.667v0 341.333h42.667c23.564 0 42.667 19.103 42.667 42.667v0 170.667c23.564 0 42.667 19.103 42.667 42.667v0 170.667c0 23.564-19.103 42.667-42.667 42.667v0h-170.667c-73.771 0-213.333-44.587-213.333-213.333h-42.667c-23.564 0-42.667-19.103-42.667-42.667v0-170.667c0-23.564 19.103-42.667 42.667-42.667v0h42.667v-341.333c0-23.564 19.103-42.667 42.667-42.667v0zM341.333 576h42.667c23.564 0 42.667 19.103 42.667 42.667v0 42.667c0 120.448 106.837 127.744 128 128h128v-85.333h-85.333c-23.564 0-42.667-19.103-42.667-42.667v0-42.667c0-23.564 19.103-42.667 42.667-42.667v0h42.667v-85.333h-42.667c-23.564 0-42.667-19.103-42.667-42.667v0-341.333h-128v341.333c0 23.564-19.103 42.667-42.667 42.667v0h-42.667v85.333z" />
<glyph unicode="&#xe995;" glyph-name="facebook-alt" d="M768 832h-512c-70.571 0-128-57.429-128-128v-512c0-70.571 57.429-128 128-128h512c70.571 0 128 57.429 128 128v512c0 70.571-57.429 128-128 128zM810.667 192c0-23.564-19.103-42.667-42.667-42.667v0h-170.667v213.333h85.333v85.333h-85.333v43.947c-0.043 0.213 0.512 20.267 11.349 31.445 2.389 2.475 9.6 9.941 31.317 9.941h85.333v85.333h-85.333c-47.744 0-76.715-19.499-92.544-35.84-36.096-37.163-35.627-87.765-35.456-92.16v-42.667h-85.333v-85.333h85.333v-213.333h-256c-23.564 0-42.667 19.103-42.667 42.667v0 512c0 23.564 19.103 42.667 42.667 42.667v0h512c23.564 0 42.667-19.103 42.667-42.667v0-512z" />
<glyph unicode="&#xe996;" glyph-name="fast-forward" d="M810.667 448l-298.667 213.333v-426.667zM213.333 661.333v-426.667l298.667 213.333z" />
<glyph unicode="&#xe997;" glyph-name="fast-forward-circle" d="M512 874.667c-235.264 0-426.667-191.403-426.667-426.667s191.403-426.667 426.667-426.667 426.667 191.403 426.667 426.667-191.403 426.667-426.667 426.667zM512 106.667c-188.203 0-341.333 153.131-341.333 341.333s153.131 341.333 341.333 341.333 341.333-153.131 341.333-341.333-153.131-341.333-341.333-341.333zM554.667 320l170.667 128-170.667 128zM341.333 320l170.667 128-170.667 128z" />
<glyph unicode="&#xe998;" glyph-name="female" d="M789.333 597.333c0 152.917-124.416 277.333-277.333 277.333s-277.333-124.416-277.333-277.333c0-138.368 101.973-253.099 234.667-273.707v-88.96h-128v-85.333h128v-127.488h85.333v127.488h128v85.333h-128v88.96c132.651 20.608 234.667 135.339 234.667 273.707zM320 597.333c0 105.856 86.144 192 192 192s192-86.144 192-192c-0.121-105.915-85.889-191.758-191.764-192h-0.45c-105.898 0.242-191.666 86.085-191.787 191.988v0.012z" />
<glyph unicode="&#xe999;" glyph-name="file" d="M170.667 832v-768c0-23.564 19.103-42.667 42.667-42.667v0h597.333c23.564 0 42.667 19.103 42.667 42.667v0 512c0 0.896-0.469 1.749-0.555 2.645-0.229 4.025-1.008 7.793-2.264 11.335l0.088-0.284c-0.469 1.365-0.853 2.688-1.408 3.968-2.129 4.836-4.942 8.975-8.373 12.512l0.010-0.011-256 256c-3.524 3.387-7.646 6.184-12.187 8.212l-0.271 0.108c-1.323 0.64-2.688 0.981-4.139 1.451-3.18 1.135-6.86 1.897-10.682 2.128l-0.112 0.005c-0.939 0.085-1.835 0.597-2.773 0.597h-341.333c-23.564 0-42.667-19.103-42.667-42.667v0zM707.669 618.667h-110.336v110.336l110.336-110.336zM256 789.333h256v-213.333c0-23.564 19.103-42.667 42.667-42.667v0h213.333v-426.667h-512v682.667zM341.333 448h341.333v-85.333h-341.333zM341.333 618.667h85.333v-85.333h-85.333zM341.333 277.333h341.333v-85.333h-341.333z" />
<glyph unicode="&#xe99a;" glyph-name="file-add" d="M213.333 21.333h256v85.333h-213.333v682.667h256v-213.333c0-23.564 19.103-42.667 42.667-42.667v0h213.333v-128h85.333v170.667c0 0.896-0.469 1.749-0.555 2.645-0.229 4.025-1.008 7.793-2.264 11.335l0.088-0.284c-0.469 1.365-0.853 2.688-1.408 3.968-2.129 4.836-4.942 8.975-8.373 12.512l0.010-0.011-256 256c-3.516 3.402-7.641 6.201-12.191 8.214l-0.268 0.106c-1.365 0.64-2.688 0.981-4.139 1.451-3.161 1.109-6.823 1.869-10.623 2.126l-0.129 0.007c-0.981 0.085-1.877 0.597-2.816 0.597h-341.333c-23.564 0-42.667-19.103-42.667-42.667v0-768c0-23.564 19.103-42.667 42.667-42.667v0zM707.669 618.667h-110.336v110.336l110.336-110.336zM640 21.333h85.333v128h128v85.333h-128v128h-85.333v-128h-128v-85.333h128z" />
<glyph unicode="&#xe99b;" glyph-name="file-image" d="M213.333 21.333h597.333c23.564 0 42.667 19.103 42.667 42.667v0 512c0 0.896-0.469 1.749-0.555 2.645-0.229 4.025-1.008 7.793-2.264 11.335l0.088-0.284c-0.469 1.365-0.853 2.688-1.408 3.968-2.129 4.836-4.942 8.975-8.373 12.512l0.010-0.011-256 256c-3.524 3.387-7.646 6.184-12.187 8.212l-0.271 0.108c-1.323 0.64-2.688 0.981-4.139 1.451-3.18 1.135-6.86 1.897-10.682 2.128l-0.112 0.005c-0.939 0.085-1.835 0.597-2.773 0.597h-341.333c-23.564 0-42.667-19.103-42.667-42.667v0-768c0-23.564 19.103-42.667 42.667-42.667v0zM707.669 618.667h-110.336v110.336l110.336-110.336zM256 789.333h256v-213.333c0-23.564 19.103-42.667 42.667-42.667v0h213.333v-426.667h-512v682.667zM469.333 277.333l-42.667 42.667-85.333-128h341.333l-128 256zM426.667 405.333c0-23.564-19.103-42.667-42.667-42.667s-42.667 19.103-42.667 42.667c0 23.564 19.103 42.667 42.667 42.667s42.667-19.103 42.667-42.667z" />
<glyph unicode="&#xe99c;" glyph-name="files" d="M341.333 874.667c-23.564 0-42.667-19.103-42.667-42.667v0-597.333c0-23.564 19.103-42.667 42.667-42.667v0h469.333c23.564 0 42.667 19.103 42.667 42.667v0 384h-0.384c0.001 0.133 0.002 0.29 0.002 0.447 0 11.571-4.625 22.063-12.127 29.726l-213.326 213.326c-7.613 7.469-18.054 12.079-29.572 12.079-0.209 0-0.417-0.002-0.624-0.005h0.031v0.427h-256zM640 729.003l67.669-67.669h-67.669v67.669zM768 576v-298.667h-384v512h170.667v-170.667c0-23.564 19.103-42.667 42.667-42.667v0h170.667zM128 618.667v-554.667c0-23.564 19.103-42.667 42.667-42.667v0h512v85.333h-469.333v512h-85.333z" />
<glyph unicode="&#xe99d;" glyph-name="film" d="M896 106.667v682.667c0 23.564-19.103 42.667-42.667 42.667v0h-682.667c-23.564 0-42.667-19.103-42.667-42.667v0-682.667c0-23.564 19.103-42.667 42.667-42.667v0h682.667c23.564 0 42.667 19.103 42.667 42.667v0zM810.667 320h-85.333v85.333h85.333v-85.333zM640 405.333v-256h-256v256h256zM384 490.667v256h256v-256h-256zM810.667 490.667h-85.333v85.333h85.333v-85.333zM810.667 661.333h-85.333v85.333h85.333v-85.333zM213.333 746.667h85.333v-85.333h-85.333v85.333zM213.333 576h85.333v-85.333h-85.333v85.333zM213.333 405.333h85.333v-85.333h-85.333v85.333zM213.333 234.667h85.333v-85.333h-85.333v85.333zM725.333 149.333v85.333h85.333v-85.333h-85.333z" />
<glyph unicode="&#xe99e;" glyph-name="filter" d="M704 597.333c-67.413 0-123.861-45.227-142.379-106.667h-476.288v-85.333h476.288c18.517-61.44 74.965-106.667 142.379-106.667s123.861 45.227 142.379 106.667h92.288v85.333h-92.288c-18.517 61.44-74.965 106.667-142.379 106.667zM704 384c-35.285 0-64 28.715-64 64s28.715 64 64 64 64-28.715 64-64-28.715-64-64-64zM469.333 853.333c-67.413 0-123.861-45.227-142.379-106.667h-241.621v-85.333h241.621c18.517-61.44 74.965-106.667 142.379-106.667s123.861 45.227 142.379 106.667h326.955v85.333h-326.955c-18.517 61.44-74.965 106.667-142.379 106.667zM469.333 640c-35.285 0-64 28.715-64 64s28.715 64 64 64 64-28.715 64-64-28.715-64-64-64zM320 341.333c-67.413 0-123.861-45.227-142.379-106.667h-92.288v-85.333h92.288c18.517-61.44 74.965-106.667 142.379-106.667s123.861 45.227 142.379 106.667h476.288v85.333h-476.288c-18.517 61.44-74.965 106.667-142.379 106.667zM320 128c-35.285 0-64 28.715-64 64s28.715 64 64 64 64-28.715 64-64-28.715-64-64-64z" />
<glyph unicode="&#xe99f;" glyph-name="filter-alt" d="M128 789.333v-128c0-11.349 4.48-22.187 12.501-30.165l328.832-328.832v-238.336h85.333v238.336l328.832 328.832c7.723 7.696 12.501 18.342 12.501 30.104 0 0.022 0 0.043 0 0.065v-0.003 128c0 23.564-19.103 42.667-42.667 42.667v0h-682.667c-23.564 0-42.667-19.103-42.667-42.667v0zM213.333 746.667h597.333v-67.669l-298.667-298.667-298.667 298.667v67.669z" />
<glyph unicode="&#xe9a0;" glyph-name="first-aid" d="M896 704h-170.667v128c0 23.564-19.103 42.667-42.667 42.667v0h-341.333c-23.564 0-42.667-19.103-42.667-42.667v0-128h-170.667c-23.564 0-42.667-19.103-42.667-42.667v0-597.333c0-23.564 19.103-42.667 42.667-42.667v0h768c23.564 0 42.667 19.103 42.667 42.667v0 597.333c0 23.564-19.103 42.667-42.667 42.667v0zM384 789.333h256v-85.333h-256v85.333zM853.333 106.667h-682.667v512h682.667v-512zM554.667 533.333h-85.333v-128h-128v-85.333h128v-128h85.333v128h128v85.333h-128z" />
</font>
</defs>
</svg>
