<?xml version="1.0" standalone="no"?>
<!DOCTYPE svg PUBLIC "-//W3C//DTD SVG 1.1//EN" "http://www.w3.org/Graphics/SVG/1.1/DTD/svg11.dtd" >
<svg xmlns="http://www.w3.org/2000/svg">
<metadata>Generated by IcoMoon</metadata>
<defs>
<font id="boxicons" horiz-adv-x="1024">
<font-face units-per-em="1024" ascent="960" descent="-64" />
<missing-glyph horiz-adv-x="1024" />
<glyph unicode="&#x20;" horiz-adv-x="512" d="" />
<glyph unicode="&#xe900;" glyph-name="bxl-android" d="M782.677 588.373c-30.165 0-54.571-24.405-54.571-54.528v-193.28c0-30.251 24.405-54.613 54.571-54.613s54.571 24.363 54.571 54.613v193.28c0 30.123-24.405 54.528-54.571 54.528zM241.323 588.373c-30.165 0-54.571-24.405-54.571-54.528v-193.28c0-30.251 24.405-54.613 54.571-54.613s54.571 24.363 54.571 54.613v193.28c0.043 30.123-24.405 54.528-54.571 54.528zM620.587 750.891l32.768 59.221c4.096 7.125 1.408 16.085-5.675 20.053-7.168 4.011-16.171 1.408-20.096-5.76l-33.664-60.587c-25.088 10.027-52.736 15.701-81.92 15.701s-56.832-5.632-81.92-15.659l-33.664 60.501c-3.84 7.168-12.843 9.771-20.096 5.76-7.083-3.968-9.685-12.928-5.675-20.053l32.768-59.221c-59.008-33.621-98.432-93.739-98.432-162.475 0-0.469 0-0.896 0.085-1.451-0.085-0.256-0.085-0.555-0.085-0.811v-0.043l413.995 0.043c0 0.256 0 0.555 0 0.811 0 0.555 0 0.981 0 1.451 0.043 68.736-39.381 128.811-98.389 162.517zM416.427 666.923c-8.064 0-14.677 6.656-14.677 14.763s6.571 14.763 14.677 14.763c8.149 0 14.848-6.613 14.848-14.763-0.043-8.107-6.699-14.763-14.848-14.763zM607.573 666.923c-8.149 0-14.763 6.656-14.763 14.763s6.571 14.763 14.763 14.763c8.064 0 14.677-6.613 14.677-14.763 0-8.107-6.571-14.763-14.677-14.763zM304.981 272.213c0-27.563 22.4-49.963 50.091-49.963h25.003v-102.443c0-30.165 24.491-54.528 54.571-54.528s54.571 24.363 54.571 54.528v102.443h45.483v-102.443c0-30.165 24.405-54.528 54.485-54.528 30.251 0 54.656 24.363 54.656 54.528v102.443h25.003c27.648 0 50.091 22.357 50.091 49.963v302.592h-413.952v-302.592z" />
<glyph unicode="&#xe901;" glyph-name="bxl-apple" d="M839.040 242.731c-12.245-28.331-26.752-54.4-43.563-78.379-22.912-32.725-41.728-55.339-56.149-67.925-22.4-20.565-46.464-31.147-72.192-31.744-18.432 0-40.704 5.248-66.645 15.915-26.027 10.624-49.92 15.829-71.808 15.829-22.912 0-47.488-5.205-73.813-15.829-26.283-10.667-47.531-16.256-63.787-16.768-24.619-1.067-49.237 9.771-73.771 32.597-15.659 13.653-35.243 37.12-58.752 70.315-25.173 35.371-45.867 76.544-62.080 123.349-17.365 50.645-26.069 99.627-26.069 147.072 0 54.315 11.733 101.205 35.243 140.459 18.517 31.573 43.093 56.448 73.813 74.709 30.763 18.304 64.043 27.648 99.84 28.245 19.627 0 45.355-6.059 77.227-18.005s52.352-18.005 61.269-18.005c6.741 0 29.397 7.125 67.968 21.248 36.395 13.099 67.115 18.517 92.288 16.384 68.267-5.504 119.509-32.384 153.6-80.853-61.013-36.992-91.179-88.747-90.581-155.179 0.512-51.755 19.328-94.805 56.192-128.981 16.725-15.872 35.371-28.117 56.107-36.821-4.523-13.099-9.301-25.6-14.336-37.632v0zM682.581 858.453c0-40.533-14.848-78.421-44.331-113.451-35.669-41.643-78.763-65.749-125.483-61.952-0.597 4.864-0.896 9.984-0.896 15.36 0 38.955 16.896 80.597 47.061 114.688 15.019 17.237 34.133 31.616 57.301 43.051 23.125 11.264 44.971 17.493 65.536 18.56 0.555-5.461 0.811-10.88 0.811-16.256v0z" />
<glyph unicode="&#xe902;" glyph-name="bxl-behance" d="M332.928 715.477c25.131 0 47.744-2.176 68.48-6.613 20.608-4.395 38.187-11.648 53.035-21.675 14.635-10.027 26.069-23.339 34.304-40.064 7.979-16.512 11.947-37.163 11.947-61.568 0-26.453-5.973-48.555-17.963-66.176-12.075-17.664-29.867-32.128-53.589-43.307 32.299-9.344 56.235-25.685 72.107-48.896 15.957-23.424 23.765-51.456 23.765-84.309 0-26.667-5.077-49.579-15.275-68.821-10.24-19.541-24.277-35.371-41.557-47.531-17.408-12.331-37.376-21.376-59.691-27.307-22.144-5.845-45.099-8.789-68.651-8.789h-254.507v525.056h247.595zM317.952 503.339c20.48 0 37.461 4.864 50.859 14.72 13.312 9.728 19.755 25.771 19.755 47.744 0 12.203-2.176 22.272-6.443 30.165-4.395 7.808-10.325 13.952-17.792 18.261-7.424 4.48-15.744 7.509-25.472 9.173-9.515 1.877-19.499 2.603-29.739 2.603h-108.16v-122.667h116.992zM324.395 279.808c11.392 0 22.229 0.981 32.427 3.285 10.283 2.219 19.413 5.803 27.179 11.136 7.765 5.12 14.165 12.075 18.773 20.949 4.651 8.789 6.912 20.267 6.912 34.048 0 27.051-7.637 46.293-22.741 57.941-15.147 11.52-35.456 17.237-60.331 17.237h-125.653v-144.64h123.435zM689.835 281.557c15.659-15.275 38.229-22.955 67.584-22.955 21.035 0 39.211 5.333 54.528 15.915 15.104 10.624 24.32 21.973 27.861 33.707h91.947c-14.763-45.739-37.163-78.421-67.797-98.091-30.251-19.755-67.072-29.568-110.080-29.568-29.952 0-56.917 4.821-81.067 14.379-24.192 9.685-44.459 23.211-61.397 40.875-16.597 17.749-29.44 38.699-38.613 63.36-9.088 24.491-13.653 51.627-13.653 81.024 0 28.416 4.736 54.997 14.037 79.531 9.515 24.619 22.571 45.867 39.851 63.701 17.28 17.92 37.76 32.043 61.611 42.411 23.851 10.283 50.133 15.445 79.275 15.445 32.171 0 60.288-6.229 84.437-18.773 24.021-12.459 43.776-29.312 59.307-50.432 15.488-21.035 26.539-45.141 33.408-72.149 6.869-26.965 9.259-55.125 7.296-84.608h-274.389c0.043-30.037 10.155-58.496 25.856-73.771zM809.813 481.28c-12.416 13.739-33.408 21.163-59.093 21.163-16.683 0-30.464-2.773-41.557-8.491-10.837-5.675-19.669-12.672-26.453-20.949-6.699-8.405-11.307-17.28-13.995-26.795-2.645-9.259-4.267-17.621-4.736-25.045h169.899c-2.475 26.624-11.605 46.293-24.064 60.117zM642.645 680.235h212.864v-51.84h-212.864z" />
<glyph unicode="&#xe903;" glyph-name="bxl-bitcoin" d="M509.995 583.723l-23.339-93.44c26.411-6.571 107.904-33.451 121.088 19.456 13.739 55.083-71.381 67.371-97.749 73.984zM474.923 443.093l-25.728-103.040c31.701-7.893 129.579-39.296 144.043 18.816 15.147 60.672-86.571 76.331-118.315 84.224zM615.296 861.909c-228.565 56.96-459.947-82.133-516.907-310.699-57.003-228.48 82.091-459.947 310.485-516.949 228.565-56.96 460.075 82.091 516.992 310.656 57.003 228.523-82.091 459.989-310.571 516.992zM700.245 508.843c-6.187-41.557-29.269-61.653-59.819-68.736 42.027-21.845 63.36-55.381 43.051-113.536-25.259-72.149-85.248-78.251-165.12-63.147l-19.371-77.653-46.763 11.648 19.072 76.544c-12.075 3.029-24.491 6.229-37.333 9.728l-19.157-76.971-46.72 11.733 19.371 77.781c-10.965 2.816-22.059 5.803-33.365 8.619l-60.971 15.147 23.296 53.589c0 0 34.475-9.173 34.005-8.491 13.269-3.285 19.115 5.333 21.419 11.136l30.677 122.667c1.707-0.427 3.371-0.853 4.907-1.237-1.877 0.768-3.541 1.237-4.864 1.579l21.845 87.595c0.555 9.984-2.816 22.528-21.803 27.264 0.768 0.469-34.005 8.448-34.005 8.448l12.416 50.005 64.597-16.128-0.043-0.213c9.685-2.432 19.669-4.736 29.867-7.040l19.157 76.885 46.805-11.648-18.773-75.349c12.544-2.859 25.216-5.76 37.504-8.832l18.688 74.88 46.805-11.648-19.157-76.885c59.051-20.437 102.229-50.987 93.781-107.733z" />
<glyph unicode="&#xe904;" glyph-name="bxl-blogger" d="M894.037 504.875c-3.072 13.739-11.605 26.496-21.419 31.787-2.987 1.664-22.272 3.755-42.837 4.651-34.517 1.536-38.315 2.219-49.152 8.576-17.28 10.112-22.016 21.035-22.101 50.645-0.085 56.619-23.637 109.184-70.229 156.587-33.109 33.835-70.187 56.704-112.384 69.504-10.069 3.072-32.768 4.139-108.587 5.035-118.912 1.408-145.28-1.024-185.856-17.152-74.581-29.739-128.341-92.416-147.84-172.8-3.712-15.061-4.395-39.253-5.291-178.219-1.067-174.080 0.171-199.68 11.008-234.155 9.045-28.501 18.133-45.952 36.736-70.699 35.627-47.275 88.875-81.365 142.251-91.008 25.387-4.565 338.389-5.76 370.475-1.365 55.723 7.595 99.456 29.952 140.501 71.851 29.611 30.293 48.171 63.104 60.331 106.624 4.992 18.091 5.419 26.88 6.357 132.992 0.725 80.128 0.085 117.675-1.963 127.147zM341.632 614.059c13.355 13.483 17.024 14.037 100.864 14.037 75.264 0 77.739-0.171 88.789-5.717 16-8.064 22.955-19.456 22.955-37.547 0-16.384-6.528-27.861-21.035-37.077-7.851-4.907-12.501-5.248-86.229-5.675-45.525-0.299-81.749 0.555-87.168 2.048-28.544 7.851-39.168 48.768-18.176 69.931zM670.421 271.147l-25.472-4.181-132.864-1.493c-116.736-1.408-149.803 0.768-155.819 3.413-12.288 5.291-23.637 20.139-25.685 33.28-1.792 12.459 4.437 29.696 14.080 38.4 12.16 10.965 17.451 11.349 166.869 11.52 153.685 0.085 152.875 0.128 167.467-13.44 20.565-19.2 16.256-53.376-8.576-67.499z" />
<glyph unicode="&#xe905;" glyph-name="bxl-discord" d="M409.301 491.904c-23.125 0-41.344-20.267-41.344-45.013 0-24.661 18.645-45.013 41.344-45.013 23.083 0 41.301 20.352 41.301 45.013 0.469 24.789-18.219 45.013-41.301 45.013zM557.269 491.904c-23.125 0-41.344-20.267-41.344-45.013 0-24.661 18.645-45.013 41.344-45.013 23.083 0 41.301 20.352 41.301 45.013-0.043 24.789-18.219 45.013-41.301 45.013zM754.261 832h-543.189c-45.781 0-83.072-37.291-83.072-83.499v-548.011c0-46.208 37.291-83.499 83.072-83.499h459.648l-21.547 75.051 51.925-48.256 49.024-45.397 87.211-77.056v727.168c0 46.208-37.291 83.499-83.072 83.499zM597.76 302.635c0 0-14.592 17.408-26.709 32.896 53.077 15.019 73.344 48.213 73.344 48.213-16.64-10.923-32.427-18.688-46.635-23.979-20.267-8.448-39.68-14.123-58.752-17.408-38.912-7.253-74.581-5.248-105.003 0.427-23.083 4.48-42.923 10.965-59.563 17.493-9.301 3.627-19.499 8.021-29.568 13.696-1.237 0.896-2.432 1.237-3.627 2.048-0.853 0.427-1.237 0.811-1.664 1.28-7.296 4.011-11.349 6.827-11.349 6.827s19.456-32.427 70.955-47.829c-12.16-15.36-27.179-33.664-27.179-33.664-89.557 2.859-123.563 61.611-123.563 61.611 0 130.517 58.368 236.288 58.368 236.288 58.368 43.819 113.877 42.581 113.877 42.581l4.053-4.864c-72.96-21.12-106.624-53.12-106.624-53.12s8.96 4.864 23.936 11.733c43.349 19.029 77.781 24.32 91.989 25.557 2.432 0.384 4.48 0.811 6.912 0.811 24.747 3.243 52.693 4.053 81.835 0.811 38.528-4.48 79.915-15.829 122.027-38.912 0 0-32.043 30.379-100.949 51.456l5.675 6.485c0 0 55.552 1.237 113.877-42.581 0 0 58.368-105.771 58.368-236.288 0 0.043-34.432-58.709-124.032-61.568z" />
<glyph unicode="&#xe906;" glyph-name="bxl-dribbble" d="M881.493 662.187c-38.144 65.408-89.899 117.205-155.349 155.307-65.408 38.101-136.789 57.173-214.144 57.173s-148.736-19.072-214.187-57.173c-65.408-38.101-117.205-89.899-155.307-155.307s-57.173-136.832-57.173-214.187 19.029-148.779 57.173-214.187c38.144-65.451 89.899-117.205 155.349-155.307 65.408-38.101 136.789-57.173 214.144-57.173s148.736 19.072 214.187 57.173c65.408 38.101 117.205 89.856 155.349 155.307 38.101 65.408 57.131 136.832 57.131 214.187s-19.029 148.779-57.173 214.187zM512 803.84c85.333 0 160.939-27.307 226.987-81.877-39.253-50.091-97.536-91.307-174.933-123.733-42.752 77.355-89.088 141.952-139.136 193.707 29.099 7.936 58.027 11.904 87.083 11.904zM235.093 669.867c32.171 40.405 70.656 71.936 115.669 94.72 51.712-51.243 99.2-115.2 142.507-192-85.333-25.6-175.531-38.4-270.549-38.4-24.448 0-42.923 0.555-55.467 1.707 13.099 48.939 35.712 93.568 67.84 133.973zM156.16 448c0 2.304 0.128 5.12 0.427 8.533s0.427 6.229 0.427 8.533c10.837-0.597 27.349-0.853 49.536-0.853 113.749 0 219.563 15.659 317.397 46.933 7.979-15.915 16.256-33.835 24.747-53.76-56.32-12.501-114.091-42.923-173.269-91.307s-102.357-99.285-129.664-152.747c-59.733 67.712-89.6 145.92-89.6 234.667zM512 92.16c-80.811 0-153.344 25.045-217.643 75.051 25.643 50.645 65.024 99.072 118.229 145.109 53.163 46.080 105.941 74.795 158.293 86.187 32.939-91.008 55.168-185.131 66.56-282.453-41.557-15.915-83.371-23.893-125.44-23.893zM814.080 261.12c-28.416-45.483-65.109-82.773-110.080-111.829-10.24 88.747-29.867 175.232-58.837 259.456 39.765 2.816 75.307 4.267 106.667 4.267 34.091 0 71.936-1.451 113.451-4.267-5.717-52.907-22.784-102.101-51.2-147.627zM761.173 474.453c-49.493 0-95.275-2.005-137.387-5.973-10.837 27.861-20.48 50.901-29.013 69.12 88.149 38.656 150.699 85.589 187.691 140.8 51.2-60.331 79.104-129.152 83.627-206.507-34.645 1.707-69.632 2.56-104.917 2.56z" />
<glyph unicode="&#xe907;" glyph-name="bxl-facebook" d="M571.605 64.128v349.696h117.973l17.536 136.917h-135.509v87.211c0 39.509 11.008 66.56 67.712 66.56h71.851v122.069c-34.944 3.755-70.101 5.547-105.259 5.419-104.277 0-175.872-63.659-175.872-180.523v-100.48h-117.205v-136.917h117.461v-349.952h141.312z" />
<glyph unicode="&#xe908;" glyph-name="bxl-facebook-square" d="M853.333 832h-682.667c-23.595 0-42.667-19.115-42.667-42.667v-682.667c0-23.552 19.072-42.667 42.667-42.667h367.573v296.96h-99.755v116.267h99.755v85.333c0 99.2 60.587 153.259 149.333 153.259 29.824 0.085 59.691-1.451 89.387-4.565v-103.253h-61.227c-48.128 0-57.515-22.955-57.515-56.533v-74.027h115.072l-14.933-116.267h-100.181v-297.173h195.157c23.595 0 42.667 19.115 42.667 42.667v682.667c0 23.552-19.072 42.667-42.667 42.667z" />
<glyph unicode="&#xe909;" glyph-name="bxl-github" d="M513.109 874.667c-235.051 0-425.557-190.507-425.557-425.557 0-187.989 121.899-347.52 291.029-403.84 21.291-3.84 28.971 9.259 28.971 20.523 0 10.112-0.341 36.907-0.469 72.363-118.4-25.685-143.403 57.088-143.403 57.088-19.285 49.152-47.232 62.251-47.232 62.251-38.613 26.411 2.944 25.813 2.944 25.813 42.752-2.987 65.152-43.861 65.152-43.861 37.973-65.024 99.669-46.251 123.819-35.371 3.883 27.52 14.976 46.293 27.093 56.917-94.464 10.709-193.792 47.232-193.792 210.347 0 46.379 16.597 84.437 43.691 114.133-4.309 10.795-19.029 54.101 4.224 112.64 0 0 35.712 11.477 116.992-43.563 34.048 9.429 70.357 14.165 106.496 14.336 36.224-0.171 72.576-4.907 106.496-14.336 81.323 55.083 116.992 43.563 116.992 43.563 23.253-58.539 8.661-101.845 4.224-112.64 27.307-29.696 43.691-67.712 43.691-114.133 0-163.541-99.413-199.467-194.219-210.005 15.147-13.141 28.8-39.083 28.8-78.763 0-56.917-0.512-102.827-0.512-116.779 0-11.392 7.595-24.619 29.312-20.437 169.045 56.405 290.816 215.808 290.816 403.755 0 235.051-190.507 425.557-425.557 425.557z" />
<glyph unicode="&#xe90a;" glyph-name="bxl-google" d="M865.408 518.144h-355.285v-147.243h204.459c-19.029-93.568-98.688-147.328-204.459-147.328-124.715 0-225.237 100.523-225.237 225.28 0 124.715 100.523 225.237 225.237 225.237 53.717 0 102.272-19.072 140.373-50.261l110.933 110.891c-67.584 58.923-154.24 95.275-251.307 95.275-211.371 0-381.184-169.771-381.184-381.184s169.771-381.184 381.184-381.184c190.592 0 363.904 138.624 363.904 381.184 0 22.528-3.456 46.805-8.619 69.333z" />
<glyph unicode="&#xe90b;" glyph-name="bxl-google-plus" d="M833.92 318.933v103.296h103.339v77.44h-103.339v103.296h-77.44v-103.296h-103.296v-77.44h103.296v-103.296zM343.552 605.781c48.341 0 80.896-20.651 99.413-38.229l73.472 71.253c-44.715 41.813-103.040 67.413-172.885 67.413-142.421 0.043-258.219-115.669-258.219-258.219s115.797-258.261 258.219-258.261c149.035 0 247.979 104.832 247.979 252.288 0 21.461-2.731 36.693-6.528 52.907h-241.579v-96.256h142.165c-6.741-40.576-43.136-109.056-142.037-109.056-85.461 0-155.179 71.040-155.179 158.037 0 87.125 69.717 158.123 155.179 158.123z" />
<glyph unicode="&#xe90c;" glyph-name="bxl-google-plus-circle" d="M939.264 449.109c-0.768 235.179-191.701 425.557-426.923 425.557-235.307 0-426.197-190.379-426.965-425.557 0 0.427-0.043 0.725-0.043 1.109v-2.304c0 0 0-0.043 0-0.128 0 0 0-0.043 0-0.043v-2.304c0 0.299 0 0.64 0.043 0.981 0.725-235.221 191.616-425.685 426.965-425.685 235.264 0 426.155 190.379 426.923 425.557 0-0.384 0.043-0.725 0.043-1.109v2.304c0 0.043 0 0.128 0 0.213s0 0.128 0 0.213v2.304c0-0.427-0.043-0.725-0.043-1.109zM395.989 253.568c-107.051 0-194.048 86.997-194.048 194.091s86.997 194.091 194.048 194.091c52.48 0 96.341-19.243 129.963-50.688l-55.253-53.547c-13.867 13.184-38.357 28.715-74.709 28.715-64.213 0-116.608-53.376-116.608-118.827 0-65.408 52.437-118.784 116.608-118.784 74.325 0 101.717 51.456 106.752 81.92h-106.837v72.448h181.547c2.816-12.203 4.907-23.637 4.907-39.765 0-110.805-74.325-189.653-186.368-189.653zM842.197 428.288h-77.611v-77.611h-58.197v77.611h-77.653v58.197h77.653v77.653h58.197v-77.653h77.611v-58.197z" />
<glyph unicode="&#xe90d;" glyph-name="bxl-instagram" d="M511.957 645.248c-108.971 0-197.248-88.32-197.248-197.248 0-108.971 88.277-197.291 197.248-197.291 108.885 0 197.248 88.32 197.248 197.291 0 108.928-88.363 197.248-197.248 197.248v0zM511.957 319.829c-70.784 0-128.171 57.387-128.171 128.128 0 70.784 57.387 128.128 128.171 128.128s128.085-57.344 128.085-128.128c0-70.741-57.301-128.128-128.085-128.128v0zM763.051 652.501c0-25.402-20.593-45.995-45.995-45.995s-45.995 20.593-45.995 45.995c0 25.402 20.593 45.995 45.995 45.995s45.995-20.593 45.995-45.995zM876.075 699.264c-20.011 51.584-60.757 92.373-112.341 112.299-29.824 11.221-61.355 17.237-93.269 17.92-41.088 1.792-54.101 2.304-158.293 2.304s-117.547 0-158.293-2.304c-31.829-0.64-63.36-6.656-93.184-17.92-51.627-19.925-92.373-60.715-112.341-112.299-11.221-29.867-17.237-61.355-17.877-93.269-1.835-41.045-2.389-54.059-2.389-158.293 0-104.192 0-117.461 2.389-158.293 0.64-31.915 6.656-63.403 17.877-93.312 20.011-51.541 60.757-92.331 112.384-112.299 29.696-11.605 61.227-18.176 93.227-19.2 41.088-1.792 54.101-2.347 158.293-2.347s117.547 0 158.293 2.347c31.872 0.64 63.403 6.699 93.269 17.877 51.584 20.011 92.331 60.757 112.341 112.341 11.221 29.867 17.237 61.355 17.877 93.269 1.835 41.045 2.389 54.059 2.389 158.293s0 117.461-2.389 158.293c-0.555 32.341-6.528 64.384-17.963 94.592zM824.107 292.565c-0.299-24.576-4.736-48.939-13.269-72.021-13.013-33.579-39.509-60.117-73.045-73.003-22.827-8.491-46.891-12.928-71.253-13.269-40.533-1.877-51.968-2.347-155.904-2.347-104.021 0-114.645 0-155.947 2.347-24.277 0.299-48.427 4.779-71.211 13.269-33.664 12.843-60.331 39.381-73.344 73.003-8.363 22.784-12.885 46.891-13.269 71.211-1.835 40.533-2.261 51.968-2.261 155.904 0 103.979 0 114.603 2.261 155.947 0.299 24.576 4.736 48.896 13.269 71.979 13.013 33.664 39.68 60.16 73.344 73.045 22.784 8.448 46.933 12.928 71.211 13.269 40.576 1.835 51.968 2.347 155.947 2.347s114.645 0 155.904-2.347c24.363-0.299 48.427-4.779 71.253-13.269 33.536-12.928 60.032-39.467 73.045-73.045 8.363-22.784 12.885-46.891 13.269-71.211 1.835-40.576 2.304-51.968 2.304-155.947 0-103.936 0-115.115-1.835-155.904h-0.469z" />
<glyph unicode="&#xe90e;" glyph-name="bxl-linkedin" d="M305.963 746.283c0-51.558-41.796-93.355-93.355-93.355s-93.355 41.796-93.355 93.355c0 51.558 41.796 93.355 93.355 93.355s93.355-41.796 93.355-93.355zM394.112 582.187v-517.931h160.811v256.128c0 67.584 12.715 133.035 96.512 133.035 82.645 0 83.669-77.269 83.669-137.301v-251.904h160.896v284.032c0 139.52-30.037 246.741-193.109 246.741-78.293 0-130.773-42.965-152.235-83.627h-2.176v70.827h-154.368zM132.053 582.187h161.067v-517.931h-161.067z" />
<glyph unicode="&#xe90f;" glyph-name="bxl-linkedin-square" d="M839.168 832h-654.507c-31.275 0-56.661-24.789-56.661-55.381v-657.195c0-30.549 25.387-55.424 56.661-55.424h654.507c31.275 0 56.789 24.832 56.789 55.424v657.195c0 30.592-25.515 55.381-56.789 55.381zM355.797 177.621h-114.005v366.507h114.005v-366.507zM298.795 594.176c-36.523 0-66.048 29.611-66.048 66.048s29.483 66.048 66.048 66.048c36.437 0 66.048-29.568 66.048-66.048s-29.611-66.048-66.048-66.048zM782.421 177.621h-113.877v178.219c0 42.496-0.768 97.152-59.221 97.152-59.307 0-68.309-46.336-68.309-94.165v-181.248h-113.792v366.507h109.227v-50.091h1.579c15.147 28.8 52.352 59.179 107.691 59.179 115.371 0 136.661-75.861 136.661-174.592v-200.96z" />
<glyph unicode="&#xe910;" glyph-name="bxl-medium" d="M182.827 649.856c0.981 9.899-2.773 19.755-10.24 26.411l-75.52 91.008v13.653h234.581l181.333-397.653 159.403 397.653h223.616v-13.611l-64.64-61.909c-5.547-4.267-8.235-11.264-7.168-18.133v-455.083c-1.067-6.912 1.621-13.867 7.168-18.133l63.104-61.909v-13.611h-317.269v13.611l65.237 63.445c6.485 6.4 6.485 8.32 6.485 18.091v367.872l-181.717-461.525h-24.533l-211.541 461.525v-309.291c-1.749-13.013 2.56-26.112 11.733-35.541l84.992-103.125v-13.611h-240.981v13.611l84.992 103.125c9.045 9.429 13.141 22.613 10.965 35.541v357.589z" />
<glyph unicode="&#xe911;" glyph-name="bxl-medium-square" d="M128 832v-768h768v768h-768zM766.037 650.027l-41.216-39.467c-3.541-2.688-5.291-7.125-4.523-11.563v-290.176c-0.768-4.395 0.981-8.875 4.523-11.563l40.192-39.509v-8.704h-202.283v8.704l41.685 40.448c4.139 4.096 4.139 5.333 4.139 11.563v234.581l-115.883-294.229h-15.701l-134.869 294.229v-197.205c-1.067-8.277 1.664-16.64 7.509-22.656l54.229-65.749v-8.661h-153.771v8.661l54.229 65.749c5.803 6.016 8.363 14.421 6.997 22.656v228.011c0.64 6.315-1.749 12.587-6.485 16.853l-48.213 58.027v8.661h149.589l115.627-253.568 101.632 253.568h142.635v-8.661z" />
<glyph unicode="&#xe912;" glyph-name="bxl-messenger" d="M512 832c-209.92 0-380.16-159.104-380.16-355.499 0-111.616 55.083-211.285 141.269-276.437v-136.064l129.749 71.979c34.603-9.728 71.168-14.933 109.184-14.933 209.92 0 380.16 159.147 380.16 355.456-0.043 196.395-170.283 355.499-380.203 355.499zM552.021 355.328l-98.347 102.144-189.355-104.704 207.573 220.288 98.347-102.187 189.397 104.747-207.616-220.288z" />
<glyph unicode="&#xe913;" glyph-name="bxl-pinterest" d="M511.573 874.667c-235.435 0-426.24-190.848-426.24-426.24 0-180.565 112.341-334.933 270.933-397.056-3.755 33.707-7.083 85.589 1.451 122.368 7.765 33.28 50.005 211.883 50.005 211.883s-12.757 25.557-12.757 63.317c0 59.221 34.347 103.467 77.141 103.467 36.395 0 53.931-27.307 53.931-60.032 0-36.608-23.296-91.264-35.285-141.952-10.027-42.411 21.291-77.013 63.104-77.013 75.733 0 134.016 79.872 134.016 195.2 0 102.059-73.344 173.397-178.048 173.397-121.301 0-192.512-90.965-192.512-184.96 0-36.608 14.123-75.904 31.744-97.28 3.456-4.224 3.968-7.893 2.944-12.203-3.243-13.44-10.453-42.411-11.819-48.341-1.877-7.808-6.187-9.472-14.293-5.717-53.205 24.789-86.485 102.613-86.485 165.163 0 134.443 97.664 257.92 281.643 257.92 147.883 0 262.784-105.344 262.784-246.187 0-146.944-92.629-265.088-221.184-265.088-43.221 0-83.797 22.4-97.707 48.896 0 0-21.376-81.365-26.581-101.291-9.6-37.035-35.584-83.456-52.949-111.787 39.893-12.331 82.261-18.987 126.208-18.987 235.392 0 426.24 190.848 426.24 426.24s-190.891 426.283-426.283 426.283z" />
<glyph unicode="&#xe914;" glyph-name="bxl-play-store" d="M552.704 464.384l126.165 126.165-407.509 229.035c-27.008 14.592-52.309 16.64-74.496 0.683l355.84-355.883zM700.373 316.672l131.157 73.771c25.6 14.336 39.637 34.645 39.637 57.173 0 22.485-14.037 42.837-39.595 57.173l-118.741 66.688-133.675-133.632 121.216-121.173zM174.933 789.248c-2.731-8.405-4.267-17.792-4.267-28.075v-627.413c0-16.256 3.584-30.251 10.069-41.387l345.472 345.515-351.275 351.36zM552.704 411.435l-343.552-343.595c6.571-2.517 13.653-3.84 21.12-3.84 13.312 0 27.179 3.925 41.301 11.776l394.88 221.739-113.749 113.92z" />
<glyph unicode="&#xe915;" glyph-name="bxl-pocket" d="M824.619 790.059h-622.123c-40.405 0-74.069-30.976-74.069-71.381v-230.229c0-208.725 172.373-382.464 385.109-382.464 211.413 0 382.464 173.739 382.464 382.464v230.229c0 40.405-32.341 71.381-71.381 71.381zM731.691 504.576l-183.168-172.373c-9.429-10.795-24.192-14.848-34.987-14.848-13.44 0-26.923 4.053-37.717 14.848l-180.437 172.373c-18.816 20.181-21.504 53.845 0 75.435 20.267 18.816 53.888 21.504 74.069 0l144.085-138.709 146.773 138.709c18.816 21.504 52.48 18.816 71.381 0 18.859-21.589 18.859-55.253 0-75.435z" />
<glyph unicode="&#xe916;" glyph-name="bxl-reddit" d="M455.296 405.333c0-23.588-19.122-42.709-42.709-42.709s-42.709 19.122-42.709 42.709c0 23.588 19.122 42.709 42.709 42.709s42.709-19.122 42.709-42.709zM601.173 303.36c-25.899-18.603-57.344-27.776-89.173-26.027-31.744-1.451-63.104 8.064-88.789 26.88-4.224 3.456-10.325 3.456-14.592 0-4.907-4.053-5.632-11.307-1.579-16.213 30.293-22.827 67.499-34.475 105.429-32.853 37.845-1.621 75.093 9.984 105.387 32.853v-1.707c4.651 4.565 4.736 12.16 0.256 16.896-4.693 4.693-12.245 4.779-16.939 0.171zM610.091 446.293c-23.552 0-42.624-19.115-42.624-42.709 0-23.552 19.072-42.624 42.624-42.624l-0.341-1.664c0.683-0.085 1.408 0 2.176 0 23.509 0.896 41.771 20.779 40.875 44.288 0 23.595-19.072 42.709-42.709 42.709zM512 874.667c-235.563 0-426.667-191.019-426.667-426.667 0-235.563 191.104-426.667 426.667-426.667s426.667 191.104 426.667 426.667c0 235.648-191.104 426.667-426.667 426.667zM762.027 391.253c0.469-6.229 0.469-12.501 0-18.731 0-95.616-111.36-173.312-248.747-173.312-137.429 0-248.747 77.653-248.747 173.312-0.512 6.229-0.512 12.501 0 18.731-6.187 2.816-11.733 6.613-16.725 11.264-25.045 23.595-26.197 63.019-2.688 88.021 23.552 25.088 63.019 26.283 88.021 2.688 49.152 33.323 107.051 51.584 166.357 52.48l31.701 148.053c0 0.043 0 0.085 0 0.171 1.579 7.125 8.619 11.605 15.787 10.069l104.491-20.907c6.827 11.733 18.816 19.541 32.341 20.992 23.467 2.517 44.459-14.421 47.019-37.888 2.517-23.424-14.421-44.459-37.931-46.976-23.381-2.517-44.416 14.421-47.019 37.845l-91.221 19.2-27.691-133.12c58.667-1.237 115.712-19.499 164.267-52.48 11.051 10.581 25.557 16.768 40.832 17.323 34.432 1.237 63.275-25.6 64.512-59.989 0.384-23.979-13.099-46.080-34.56-56.747z" />
<glyph unicode="&#xe917;" glyph-name="bxl-skype" d="M505.899 216.875c-125.739 0-183.211 65.024-183.211 112.683 0 11.349 4.608 22.229 12.715 30.080 8.107 7.808 19.072 11.904 30.293 11.264 53.803 0 39.723-81.92 140.203-81.92 51.328 0 81.493 31.403 81.493 60.8 0 17.707-9.984 37.931-43.861 46.037l-112.171 28.715c-90.069 23.253-105.771 74.112-105.771 121.259 0 97.835 88.235 133.291 172.203 133.291 77.397 0 169.387-43.349 169.387-102.016 0-25.259-20.821-38.827-45.013-38.827-45.995 0-38.272 65.536-130.688 65.536-45.952 0-70.187-21.888-70.187-52.48s35.797-40.96 67.157-47.915l82.816-18.987c90.709-20.736 114.816-74.709 114.816-126.421 0-79.573-60.715-141.013-180.309-141.013zM853.035 385.152c3.669 20.907 5.461 42.069 5.461 63.232 0.427 106.453-45.696 207.616-125.952 276.224-80.171 68.651-186.24 97.621-289.621 79.189-31.701 18.56-67.712 28.288-104.363 28.203-75.221-0.427-144.512-41.387-182.187-107.477-37.589-66.091-37.845-147.499-0.64-213.803-20.779-115.797 15.616-234.539 97.365-317.995 81.792-83.413 198.613-120.96 312.875-100.48 31.701-18.56 67.669-28.288 104.235-28.245 75.264 0.469 144.469 41.387 182.144 107.435 37.632 66.048 37.931 147.413 0.683 213.717z" />
<glyph unicode="&#xe918;" glyph-name="bxl-slack" d="M893.227 420.437c-11.947 35.925-50.389 55.467-86.272 44.117l-69.632-22.699c-15.147 46.891-31.36 96.768-46.592 143.573 0.043 0.043 0.128 0.043 0.256 0.085-0.043 0.085-0.128 0.256-0.171 0.341 41.941 13.568 68.821 22.315 68.821 22.315 35.925 11.989 55.467 50.432 44.16 86.315-11.989 35.925-50.517 55.467-86.4 44.117l-69.163-22.485c-13.44 41.643-22.144 68.437-22.144 68.437-11.989 35.925-50.389 55.467-86.357 44.117-35.925-11.947-55.424-50.389-44.075-86.357l22.272-68.651-143.701-46.592c-13.568 41.813-22.357 68.736-22.357 68.736-11.904 35.883-50.432 55.467-86.272 44.117-35.968-11.947-55.509-50.432-44.117-86.315l22.357-68.949-70.912-23.083c-33.365-11.989-52.267-48.555-42.155-83.2 10.667-36.523 49.152-58.581 84.437-46.592 0.256 0 28.075 8.917 71.040 22.869l46.891-144.469h-0.085v-0.085l-71.253-23.253c-33.365-11.947-52.267-48.512-42.112-83.157 10.667-36.565 49.067-58.624 84.437-46.635 0.299 0 28.117 9.003 71.040 22.955l0.128-0.213c0.085 0 0.256 0.043 0.341 0.085l22.997-70.699c11.989-33.408 48.555-52.309 83.157-42.197 36.565 10.667 58.581 49.109 46.677 84.437 0 0.256-8.917 27.904-22.741 70.571v0c-0.043 0.128-0.085 0.256-0.128 0.384 47.104 15.275 97.109 31.531 144.043 46.848l23.168-71.168c11.947-33.365 48.555-52.267 83.157-42.197 36.523 10.709 58.624 49.152 46.592 84.437 0 0.299-8.917 28.117-22.827 70.955 0.299 0.085 0.555 0.171 0.811 0.256-0.043 0.085-0.085 0.213-0.128 0.299 41.771 13.525 68.651 22.272 68.651 22.272 35.968 11.989 55.509 50.432 44.16 86.357zM463.36 352.512c-15.317 47.019-31.531 97.152-46.805 144.085 0.085 0 0.213 0.043 0.213 0.043 0 0.085 0 0.171 0 0.256 46.848 15.189 96.768 31.36 143.488 46.592l46.848-144.085-143.744-46.891z" />
<glyph unicode="&#xe919;" glyph-name="bxl-slack-rounded" d="M580.009 414.865l-102.528-34.313-33.135 99.008 102.528 34.313zM864.171 553.472c-79.232 264.149-193.493 325.547-457.643 246.272-264.107-79.189-325.589-193.451-246.357-457.557 79.232-264.149 193.493-325.547 457.685-246.315 264.064 79.232 325.547 193.451 246.315 457.6zM730.837 382.080l-49.707-16.555 17.195-51.584c6.741-20.907-4.352-43.605-25.216-50.389-4.309-1.237-9.216-2.475-13.525-1.877-15.915 0.64-31.275 11.093-36.864 27.051l-17.109 51.584-102.613-34.389 17.237-51.584c6.741-20.864-4.352-43.605-25.216-50.347-4.352-1.237-9.259-2.475-13.525-1.835-16 0.64-31.275 11.051-36.864 27.051l-17.152 51.584-49.749-16.597c-4.352-1.237-9.259-2.475-13.525-1.835-15.957 0.597-31.275 11.051-36.821 27.008-6.741 20.907 4.309 43.605 25.216 50.389l49.707 16.597-33.152 98.901-49.877-16.64c-4.309-1.237-9.173-2.475-13.483-1.835-16 0.64-31.317 11.051-36.864 27.051-6.784 20.864 4.309 43.605 25.173 50.347l49.835 16.64-17.28 51.499c-6.784 20.907 4.309 43.605 25.173 50.389 20.907 6.784 43.605-4.309 50.389-25.173l17.195-51.584 102.613 34.389-17.195 51.584c-6.784 20.907 4.267 43.605 25.131 50.389 20.907 6.741 43.648-4.309 50.389-25.173l17.195-51.584 49.792 16.597c20.864 6.784 43.563-4.267 50.347-25.173s-4.309-43.605-25.131-50.389l-49.835-16.597 33.237-98.901 49.707 16.64c20.907 6.741 43.605-4.309 50.432-25.173 6.699-20.992-4.352-43.691-25.259-50.475z" />
<glyph unicode="&#xe91a;" glyph-name="bxl-tumblr" d="M600.661 66.005c-114.859 0-200.491 59.093-200.491 200.533v226.475h-104.448v122.667c114.944 29.824 163.029 128.725 168.533 214.315h119.296v-194.475h139.221v-142.507h-139.221v-197.205c0-59.136 29.824-79.531 77.355-79.531h67.413v-150.272h-127.659z" />
<glyph unicode="&#xe91b;" glyph-name="bxl-twitch" d="M181.973 832l-53.973-138.069v-564.181h192.085v-65.749l107.989-36.267 102.059 102.016h156.075l210.048 210.091v492.16h-714.283zM824.192 375.851l-120.021-120.064h-192.085l-102.016-102.016v102.016h-162.048v504.192h576.171v-384.128zM704.213 621.909v-210.048h-72.021v210.048h72.021zM512.128 621.909v-210.048h-72.021v210.048h72.021z" />
<glyph unicode="&#xe91c;" glyph-name="bxl-twitter" d="M837.675 618.795c0.555-7.467 0.555-14.891 0.555-22.315 0-227.2-172.928-489.003-488.96-489.003-97.365 0-187.819 28.203-263.936 77.184 13.824-1.579 27.136-2.133 41.515-2.133 80.341 0 154.283 27.136 213.376 73.429-75.563 1.579-138.88 51.072-160.725 119.168 10.624-1.579 21.291-2.645 32.469-2.645 15.403 0 30.891 2.133 45.269 5.845-78.805 15.957-137.813 85.12-137.813 168.661v2.133c22.912-12.757 49.493-20.736 77.653-21.803-46.293 30.805-76.629 83.499-76.629 143.104 0 31.915 8.491 61.184 23.381 86.699 84.608-104.235 211.797-172.373 354.389-179.84-2.645 12.8-4.267 26.069-4.267 39.381 0 94.72 76.629 171.861 171.861 171.861 49.493 0 94.165-20.736 125.568-54.272 38.827 7.467 76.032 21.845 109.056 41.515-12.757-39.893-39.936-73.429-75.563-94.72 34.603 3.755 68.139 13.312 98.944 26.624-23.381-34.048-52.608-64.384-86.144-88.875z" />
<glyph unicode="&#xe91d;" glyph-name="bxl-twitter-square" d="M800 64h-576c-52.992 0-96 43.008-96 96v576c0 52.992 43.008 96 96 96h576c52.992 0 96-43.008 96-96v-576c0-52.992-43.008-96-96-96zM422.912 252.928c181.035 0 280.149 150.187 280.149 280.107 0 4.267 0 8.448-0.256 12.672 19.2 13.824 35.925 31.275 49.152 51.072-17.664-7.893-36.651-13.056-56.619-15.573 20.352 12.117 35.883 31.488 43.392 54.571-18.987-11.349-40.107-19.413-62.592-23.851-18.091 19.2-43.563 31.104-71.808 31.104-54.315 0-98.56-44.16-98.56-98.517 0-7.68 0.981-15.147 2.56-22.443-81.792 4.011-154.411 43.392-202.965 102.912-8.448-14.549-13.184-31.445-13.184-49.493 0-34.176 17.493-64.299 43.733-81.963-16.085 0.597-31.275 4.992-44.544 12.288 0-0.384 0-0.768 0-1.365 0-47.616 34.005-87.552 78.976-96.555-8.277-2.304-16.896-3.456-25.941-3.456-6.315 0-12.459 0.555-18.432 1.749 12.501-39.168 48.939-67.584 91.947-68.352-33.792-26.496-76.245-42.24-122.283-42.24-7.893 0-15.744 0.384-23.467 1.323 43.392-27.648 95.232-43.989 150.741-43.989z" />
<glyph unicode="&#xe91e;" glyph-name="bxl-vimeo" d="M898.645 515.669c-86.869-185.557-296.491-438.059-428.971-438.059-130.56 0-149.376 278.485-220.715 463.744-35.115 91.221-57.771 70.229-123.563 24.192l-40.064 51.797c95.915 84.309 191.957 182.272 250.88 187.691 66.517 6.315 107.392-39.083 122.581-136.235 20.267-127.744 48.512-326.016 97.749-326.016 38.4 0 132.992 157.269 137.899 213.504 8.661 82.347-60.629 84.864-120.661 59.179 95.061 311.253 490.411 253.867 324.864-99.797z" />
<glyph unicode="&#xe91f;" glyph-name="bxl-vk" d="M920.704 667.52c5.973 19.84 0 34.389-28.245 34.389h-93.568c-23.808 0-34.688-12.587-40.661-26.411 0 0-47.573-116.011-114.987-191.232-21.76-21.888-31.701-28.8-43.563-28.8-5.931 0-14.549 6.912-14.549 26.752v185.301c0 23.808-6.869 34.389-26.709 34.389h-147.029c-14.848 0-23.808-11.008-23.808-21.504 0-22.528 33.707-27.733 37.163-91.221v-137.728c0-30.165-5.419-35.669-17.365-35.669-31.701 0-108.843 116.437-154.624 249.728-8.917 25.899-17.92 36.352-41.813 36.352h-93.525c-26.752 0-32.085-12.587-32.085-26.411 0-24.832 31.701-147.712 147.669-310.229 77.312-110.976 186.155-171.136 285.312-171.136 59.435 0 66.773 13.355 66.773 36.395v83.883c0 26.709 5.675 32.085 24.491 32.085 13.824 0 37.632-6.997 93.141-60.459 63.403-63.403 73.899-91.861 109.525-91.861h93.525c26.709 0 40.064 13.355 32.384 39.723-8.405 26.24-38.699 64.427-78.891 109.611-21.845 25.771-54.485 53.504-64.427 67.371-13.867 17.877-9.856 25.771 0 41.643 0.043-0.043 114.005 160.469 125.867 215.040z" />
<glyph unicode="&#xe920;" glyph-name="bxl-whatsapp" d="M785.195 719.659c-72.32 72.405-168.491 112.299-270.933 112.341-211.115 0-382.976-171.819-383.061-383.019 0-67.499 17.621-133.376 51.115-191.488l-54.315-198.443 203.051 53.291c55.979-30.507 118.955-46.592 183.040-46.635h0.171c211.072 0 382.933 171.819 383.019 383.019 0 102.315-39.765 198.528-112.085 270.933zM514.261 130.347h-0.128c-57.131 0.043-113.152 15.36-162.048 44.416l-11.605 6.912-120.491-31.616 32.128 117.461-7.552 12.032c-31.872 50.688-48.683 109.269-48.683 169.429 0.085 175.531 142.891 318.336 318.507 318.336 85.035-0.043 164.949-33.195 225.067-93.355 60.075-60.203 93.184-140.16 93.141-225.237-0.085-175.531-142.891-318.379-318.336-318.379zM688.896 368.811c-9.6 4.821-56.619 27.947-65.408 31.147-8.747 3.2-15.104 4.779-21.504-4.779s-24.747-31.104-30.336-37.504-11.179-7.168-20.736-2.389-40.405 14.891-76.971 47.488c-28.459 25.387-47.659 56.704-53.248 66.304s-0.597 14.763 4.224 19.541c4.309 4.267 9.557 11.179 14.336 16.768s6.357 9.557 9.557 15.957 1.621 11.989-0.811 16.768c-2.389 4.821-21.547 51.925-29.525 71.083-7.723 18.56-15.616 16.085-21.504 16.341-5.547 0.256-11.947 0.341-18.304 0.341-6.4 0-16.768-2.389-25.557-11.947-8.789-9.6-33.493-32.725-33.493-79.829s34.304-92.629 39.083-99.029c4.779-6.4 67.499-103.040 163.499-144.512 22.869-9.856 40.704-15.744 54.571-20.181 22.912-7.296 43.776-6.229 60.288-3.797 18.389 2.731 56.619 23.125 64.597 45.483s7.979 41.515 5.589 45.525c-2.389 4.011-8.832 6.443-18.347 11.221z" />
<glyph unicode="&#xe921;" glyph-name="bxl-windows" d="M128 722.901l313.899 42.752 0.171-302.805-313.771-1.792-0.299 261.845zM441.771 427.947l0.256-303.061-313.771 43.136v261.973l313.515-2.048zM479.829 771.243l416.213 60.757v-365.312l-416.213-3.285v307.84zM896.171 425.088l-0.128-363.648-416.213 58.795-0.597 305.536 416.939-0.683z" />
<glyph unicode="&#xe922;" glyph-name="bxl-youtube" d="M921.301 652.672c-9.813 36.608-38.613 65.493-75.179 75.349-66.816 18.347-334.123 18.645-334.123 18.645s-267.264 0.299-334.123-17.237c-35.84-9.771-65.451-39.296-75.349-75.861-17.621-66.816-17.792-205.397-17.792-205.397s-0.171-139.264 17.323-205.397c9.813-36.565 38.613-65.451 75.221-75.307 67.499-18.347 334.080-18.645 334.080-18.645s267.307-0.299 334.123 17.195c36.523 9.813 65.451 38.656 75.392 75.221 17.664 66.773 17.792 205.312 17.792 205.312s0.853 139.307-17.365 206.123zM426.496 319.787l0.213 256 222.165-128.213-222.379-127.787z" />
<glyph unicode="&#xe923;" glyph-name="bxs-adjust" d="M512 874.667c-231.296 0-426.667-195.413-426.667-426.667s195.371-426.667 426.667-426.667 426.667 195.413 426.667 426.667-195.371 426.667-426.667 426.667zM512 149.333v597.333c163.371 0 298.667-135.211 298.667-298.667 0-163.328-135.296-298.667-298.667-298.667z" />
<glyph unicode="&#xe924;" glyph-name="bxs-alarm" d="M512 789.333c-208.171 0-384-175.829-384-384s175.829-384 384-384 384 175.829 384 384-175.829 384-384 384zM725.333 362.667h-256v256h85.333v-170.667h170.667v-85.333zM737.445 801.836l60.253 60.426 128.405-128.038-60.253-60.426zM285.778 801.834l-127.586-127.952-60.426 60.253 127.586 127.952z" />
<glyph unicode="&#xe925;" glyph-name="bxs-alarm-off" d="M797.68 862.196l128.43-128.014-60.242-60.438-128.43 128.014zM828.587 191.744c42.197 61.568 67.413 135.168 67.413 213.589 0 208.171-175.829 384-384 384-78.421 0-152.021-25.216-213.589-67.413l-46.251 46.251 33.621 33.707-60.416 60.245-33.536-33.621-33.664 33.664-60.331-60.331 768-768 60.331 60.331-97.579 97.579zM725.333 362.667h-67.669l-85.333 85.333h153.003v-85.333zM469.333 618.667h85.333v-153.003l-85.333 85.333v67.669zM183.68 600.491c-35.029-57.6-55.68-124.416-55.68-195.157 0-208.171 175.829-384 384-384 70.741 0 137.557 20.651 195.157 55.68l-523.477 523.477z" />
<glyph unicode="&#xe926;" glyph-name="bxs-album" d="M512 874.667c-235.264 0-426.667-191.403-426.667-426.667s191.403-426.667 426.667-426.667 426.667 191.403 426.667 426.667-191.403 426.667-426.667 426.667zM341.333 448h-85.333c0 141.184 114.816 256 256 256v-85.333c-94.123 0-170.667-76.544-170.667-170.667zM511.701 362.667c-47.275 0-85.632 38.315-85.632 85.632s38.315 85.632 85.632 85.632 85.632-38.357 85.632-85.632-38.315-85.632-85.632-85.632z" />
<glyph unicode="&#xe927;" glyph-name="bxs-archive" d="M932.096 597.504l0.597 0.341-127.616 213.376c-7.723 12.885-21.76 20.779-36.693 20.779h-512c-14.976 0-28.843-7.851-36.565-20.651l-128.384-213.333 0.64-0.384c-3.925-6.443-6.741-13.568-6.741-21.632v-426.667c0-23.595 19.072-42.667 42.667-42.667h768c23.595 0 42.667 19.072 42.667 42.667v426.667c0 8.021-2.731 15.104-6.571 21.504zM280.491 746.667h463.659l76.587-128h-617.259l77.013 128zM725.333 320c0-23.595 0-42.667 0-42.667h-384c-23.595 0-42.667 0-42.667 0v170.667h85.333v-85.333h256v85.333h85.333v-128z" />
<glyph unicode="&#xe928;" glyph-name="bxs-archive-in" d="M932.608 597.973l-127.616 213.291c-7.68 12.843-21.632 20.736-36.608 20.736h-512c-14.976 0-28.843-7.851-36.565-20.651l-128.384-213.333 0.64-0.384c-3.925-6.443-6.741-13.568-6.741-21.632v-426.667c0-23.595 19.072-42.667 42.667-42.667h768c23.595 0 42.667 19.072 42.667 42.667v426.667c0 8.021-2.816 15.147-6.656 21.589l0.597 0.384zM280.491 746.667h463.659l76.587-128h-617.259l77.013 128zM554.667 320v-128h-85.333v128h-128l170.667 170.667 170.667-170.667h-128z" />
<glyph unicode="&#xe929;" glyph-name="bxs-archive-out" d="M932.992 597.333l-122.667 213.291c-7.637 13.227-21.76 21.376-36.992 21.376h-512c-14.72 0-28.373-7.595-36.181-20.053l-133.333-213.333 0.64-0.384c-4.139-6.571-7.125-13.909-7.125-22.229v-426.667c0-23.595 19.072-42.667 42.667-42.667h768c23.595 0 42.667 19.072 42.667 42.667v426.667c0 7.808-2.688 14.72-6.272 20.949l0.597 0.384zM285.013 746.667h463.659l73.6-128h-617.259l80 128zM512 192l-170.667 170.667h128v128h85.333v-128h128l-170.667-170.667z" />
<glyph unicode="&#xe92a;" glyph-name="bxs-area" d="M853.333 832h-682.667c-23.552 0-42.667-19.072-42.667-42.667v-682.667c0-23.595 19.115-42.667 42.667-42.667h682.667c23.595 0 42.667 19.072 42.667 42.667v682.667c0 23.595-19.072 42.667-42.667 42.667zM512 192h-213.333c-23.552 0-42.667 0-42.667 0v256h85.333v-170.667h170.667v-85.333zM768 448h-85.333v170.667h-170.667v85.333h213.333c23.595 0 42.667 0 42.667 0v-256z" />
<glyph unicode="&#xe92b;" glyph-name="bxs-award" d="M512 874.667c-164.693 0-298.667-133.973-298.667-298.624 0-164.693 134.016-298.709 298.667-298.709s298.667 134.016 298.667 298.709c0 164.651-133.973 298.624-298.667 298.624zM640 576.043c0 70.528-57.429 127.957-128 127.957v85.333c117.589 0 213.333-95.659 213.333-213.291h-85.333zM512 277.333c83.541 0 159.061 34.603 213.333 90.027v37.973h-426.667v-37.931c54.272-55.467 129.792-90.069 213.333-90.069zM512 192c-78.891 0-152.277 23.979-213.333 64.939v-192.939c0-14.805 7.68-28.501 20.224-36.309 12.587-7.851 28.331-8.448 41.515-1.877l151.595 75.819 151.595-75.776c6.016-3.029 12.544-4.523 19.072-4.523 7.808 0 15.573 2.133 22.4 6.357 12.587 7.808 20.267 21.504 20.267 36.309v192.896c-61.056-40.917-134.4-64.896-213.333-64.896z" />
<glyph unicode="&#xe92c;" glyph-name="bxs-ball" d="M894.763 799.659c-3.84 15.275-15.744 27.221-31.019 31.061-2.987 0.768-73.856 18.304-171.904 18.304-121.429 0-293.419-27.349-423.381-157.525-227.755-228.224-142.933-580.309-139.179-595.157 3.797-15.232 15.744-27.221 31.061-31.019 2.944-0.768 73.643-18.176 171.435-18.176 121.557 0 293.717 27.349 423.765 157.355 227.584 227.627 142.933 580.267 139.221 595.157zM678.997 554.667l55.168-55.168-60.331-60.331-55.168 55.168-46.336-46.336 55.168-55.168-60.331-60.331-55.168 55.168-46.336-46.336 55.168-55.168-60.331-60.331-55.168 55.168-76.501-76.501-60.331 60.331 76.501 76.501-55.168 55.168 60.331 60.331 55.168-55.168 46.336 46.336-55.168 55.168 60.331 60.331 55.168-55.168 46.336 46.336-55.168 55.168 60.331 60.331 55.168-55.168 76.501 76.501 60.331-60.331-76.501-76.501z" />
<glyph unicode="&#xe92d;" glyph-name="bxs-bar-chart-square" d="M853.333 832h-682.667c-23.595 0-42.667-19.115-42.667-42.667v-682.667c0-23.552 19.072-42.667 42.667-42.667h682.667c23.595 0 42.667 19.115 42.667 42.667v682.667c0 23.552-19.072 42.667-42.667 42.667zM384 234.667h-85.333v213.333h85.333v-213.333zM554.667 234.667h-85.333v426.667h85.333v-426.667zM725.333 234.667h-85.333v298.667h85.333v-298.667z" />
<glyph unicode="&#xe92e;" glyph-name="bxs-barcode" d="M896 789.333h-768c-23.552 0-42.667-19.115-42.667-42.667v-597.333c0-23.552 19.115-42.667 42.667-42.667h768c23.595 0 42.667 19.115 42.667 42.667v597.333c0 23.552-19.072 42.667-42.667 42.667zM341.333 277.333h-85.333v341.333h85.333v-341.333zM426.667 277.333h-42.667v341.333h42.667v-341.333zM512 277.333h-42.667v341.333h42.667v-341.333zM682.667 277.333h-128v341.333h128v-341.333zM768 277.333h-42.667v341.333h42.667v-341.333z" />
<glyph unicode="&#xe92f;" glyph-name="bxs-bath" d="M896 533.333h-554.667v170.667c0 47.061 38.272 85.333 85.333 85.333s85.333-38.272 85.333-85.333h85.333c0 94.123-76.544 170.667-170.667 170.667s-170.667-76.544-170.667-170.667v-170.667h-128c-23.595 0-42.667-19.115-42.667-42.667v-42.667c0-5.973 1.109-146.773 97.835-243.499 23.68-23.68 50.005-41.6 76.331-55.168h-3.499v-128h85.333v97.408c46.848-11.733 82.432-12.075 85.333-12.075h170.667c2.901 0 38.485 0.341 85.333 12.075v-97.408h85.333v128h-3.499c26.325 13.568 52.651 31.488 76.331 55.168 96.725 96.725 97.835 196.608 97.835 200.832v85.333c0 23.552-19.072 42.667-42.667 42.667z" />
<glyph unicode="&#xe930;" glyph-name="bxs-battery" d="M128 192h682.667c23.595 0 42.667 19.072 42.667 42.667v128h85.333v170.667h-85.333v128c0 23.595-19.072 42.667-42.667 42.667h-682.667c-23.595 0-42.667-19.072-42.667-42.667v-426.667c0-23.595 19.072-42.667 42.667-42.667z" />
<glyph unicode="&#xe931;" glyph-name="bxs-battery-charging" d="M853.333 533.333v128c0 23.595-19.072 42.667-42.667 42.667h-682.667c-23.595 0-42.667-19.072-42.667-42.667v-426.667c0-23.595 19.072-42.667 42.667-42.667h682.667c23.595 0 42.667 19.072 42.667 42.667v128h85.333v170.667h-85.333zM384 234.667l85.333 165.973-170.667 47.36 256 213.333-85.333-165.973 170.667-47.36-256-213.333z" />
<glyph unicode="&#xe932;" glyph-name="bxs-battery-full" d="M853.333 661.333c0 23.595-19.072 42.667-42.667 42.667h-682.667c-23.595 0-42.667-19.072-42.667-42.667v-426.667c0-23.595 19.072-42.667 42.667-42.667h682.667c23.595 0 42.667 19.072 42.667 42.667v128h85.333v170.667h-85.333v128zM682.667 362.667h-426.667v170.667h426.667v-170.667z" />
<glyph unicode="&#xe933;" glyph-name="bxs-battery-low" d="M853.333 533.333v128c0 23.595-19.072 42.667-42.667 42.667h-682.667c-23.595 0-42.667-19.072-42.667-42.667v-426.667c0-23.595 19.072-42.667 42.667-42.667h682.667c23.595 0 42.667 19.072 42.667 42.667v128h85.333v170.667h-85.333zM256 362.667v170.667h85.333l170.667-170.667h-256z" />
<glyph unicode="&#xe934;" glyph-name="bxs-bed" d="M896 576h-42.667v298.667h-85.333v-128h-512v128h-85.333v-298.667h-42.667c-23.552 0-42.667-19.115-42.667-42.667v-298.667c0-23.595 19.115-42.667 42.667-42.667h42.667v-170.667h85.333v170.667h512v-170.667h85.333v170.667h42.667c23.595 0 42.667 19.072 42.667 42.667v298.667c0 23.552-19.072 42.667-42.667 42.667zM768 661.333v-85.333h-213.333v85.333h213.333zM256 661.333h213.333v-85.333h-213.333v85.333z" />
<glyph unicode="&#xe935;" glyph-name="bxs-bell" d="M512 42.667c59.179 0 106.667 47.488 106.667 106.667h-213.333c0-59.179 47.488-106.667 106.667-106.667zM558.677 871.040l-43.221 3.499c-2.304 0.171-4.565 0.171-6.869 0l-45.355-3.712c-166.784-23.979-292.565-169.088-292.565-337.493v-163.755l-40.448-121.429c-4.395-13.013-2.176-27.349 5.845-38.443 8.021-11.136 20.907-17.707 34.603-17.707h682.667c0.341-0.043 0.683-0.043 0.853 0 23.595 0 42.667 19.072 42.667 42.667 0 7.68-2.005 14.891-5.589 21.12l-37.931 113.792v163.755c0 168.107-125.525 313.173-294.656 337.707z" />
<glyph unicode="&#xe936;" glyph-name="bxs-bell-minus" d="M853.333 369.579v163.755c0 168.107-125.525 313.173-294.656 337.707l-43.221 3.499c-2.304 0.171-4.565 0.171-6.869 0l-45.355-3.712c-166.784-23.979-292.565-169.088-292.565-337.493v-163.755l-40.448-121.429c-4.395-13.013-2.176-27.349 5.845-38.443 8.021-11.136 20.907-17.707 34.603-17.707h682.667c0.341 0 0.64-0.043 0.853 0 23.595 0 42.667 19.072 42.667 42.667 0 7.68-2.005 14.891-5.589 21.12l-37.931 113.792zM682.667 490.667h-341.333v85.333h341.333v-85.333zM512 42.667c59.179 0 106.667 47.488 106.667 106.667h-213.333c0-59.179 47.488-106.667 106.667-106.667z" />
<glyph unicode="&#xe937;" glyph-name="bxs-bell-off" d="M512 42.667c59.179 0 106.667 47.488 106.667 106.667h-213.333c0-59.179 47.488-106.667 106.667-106.667zM853.333 192c0.299-0.043 0.64-0.043 0.853 0 23.595 0 42.667 19.072 42.667 42.667 0 7.68-2.005 14.891-5.589 21.12l-37.931 113.792v163.755c0 168.107-125.525 313.173-294.656 337.707l-43.221 3.499c-2.304 0.171-4.565 0.171-6.869 0l-45.355-3.712c-80.981-11.648-152.107-52.096-204.075-109.653l-100.992 100.992-60.331-60.331 768-768 60.331 60.331-97.835 97.835h25.003zM170.667 533.333v-163.755l-40.448-121.429c-4.395-13.013-2.176-27.349 5.845-38.443 8.021-11.136 20.907-17.707 34.603-17.707h421.504l-413.397 413.355c-5.12-23.296-8.107-47.36-8.107-72.021z" />
<glyph unicode="&#xe938;" glyph-name="bxs-bell-plus" d="M853.333 369.579v163.755c0 168.107-125.525 313.173-294.656 337.707l-43.221 3.499c-2.304 0.171-4.565 0.171-6.869 0l-45.355-3.712c-166.784-23.979-292.565-169.088-292.565-337.493v-163.755l-40.448-121.429c-4.395-13.013-2.176-27.349 5.845-38.443 8.021-11.136 20.907-17.707 34.603-17.707h682.667c0.299 0 0.64-0.043 0.853 0 23.595 0 42.667 19.072 42.667 42.667 0 7.68-2.005 14.891-5.589 21.12l-37.931 113.792zM682.667 490.667h-128v-128h-85.333v128h-128v85.333h128v128h85.333v-128h128v-85.333zM512 42.667c59.179 0 106.667 47.488 106.667 106.667h-213.333c0-59.179 47.488-106.667 106.667-106.667z" />
<glyph unicode="&#xe939;" glyph-name="bxs-bell-ring" d="M768 372.736v117.931c0 126.123-94.123 234.923-221.653 253.355l-30.933 2.517c-2.261 0.171-4.523 0.171-6.827 0l-33.195-2.688c-125.056-18.048-219.392-126.891-219.392-253.184v-117.931l-38.187-76.331c-6.613-13.227-5.888-28.928 1.877-41.515s21.504-20.224 36.309-20.224h512c0.341-0.043 0.64-0.043 0.853 0 23.595 0 42.667 19.072 42.667 42.667 0 9.771-3.243 18.731-8.747 25.899l-34.773 69.504zM512 106.667c47.104 0 85.333 38.229 85.333 85.333h-170.667c0-47.104 38.229-85.333 85.333-85.333zM225.92 819.627c-140.587-139.648-140.587-240.853-140.587-371.627h42.667l42.667 2.688c0 124.928 0 193.749 115.413 308.352l-60.16 60.587zM798.037 819.627l-60.075-60.587c115.371-114.603 115.371-183.424 115.371-311.040l85.333 2.688c0 128.085 0 229.291-140.629 368.939z" />
<glyph unicode="&#xe93a;" glyph-name="bxs-bolt" d="M587.221 859.563c-8.107 9.6-20.011 15.104-32.555 15.104h-256c-21.931 0-40.277-16.597-42.453-38.4l-42.667-426.667c-1.195-11.989 2.731-23.979 10.837-32.896 8.064-8.96 19.584-14.037 31.616-14.037h128v-298.667c0-18.773 12.288-35.371 30.293-40.832 4.096-1.237 8.235-1.835 12.373-1.835 13.995 0 27.477 6.912 35.499 18.987l341.333 512c8.704 13.099 9.557 29.909 2.133 43.776s-21.888 22.571-37.632 22.571h-205.611l34.389 206.293c2.048 12.373-1.451 25.045-9.557 34.603z" />
<glyph unicode="&#xe93b;" glyph-name="bxs-book" d="M763.051 851.157c-7.253 14.421-22.016 23.509-38.144 23.509h-426.24c-51.456 0-128-34.091-128-128v-597.333c0-93.909 76.544-128 128-128h512c23.595 0 42.667 19.115 42.667 42.667v597.333c0 6.912-2.005 13.184-4.907 18.944l0.384 0.171-85.76 170.709zM256 746.667c0 34.347 23.467 42.155 43.179 42.667h399.445l42.88-85.333h-442.325c-19.712 0.512-43.179 8.32-43.179 42.667zM682.667 448h-298.667v85.333h298.667v-85.333z" />
<glyph unicode="&#xe93c;" glyph-name="bxs-book-bookmark" d="M853.333 661.333c0 6.656-1.835 12.8-4.523 18.432l0.256 0.128-82.261 170.667c-7.040 14.72-22.016 24.107-38.4 24.107h-429.739c-51.456 0-128-34.091-128-128v-597.333c0-93.909 76.544-128 128-128h512c23.595 0 42.667 19.072 42.667 42.667v597.333zM256 746.667c0 34.389 23.467 42.155 42.667 42.667h402.944l41.131-85.333h-443.563c-19.712 0.512-43.179 8.277-43.179 42.667zM682.667 362.667l-85.333 42.667-85.333-42.667v256h170.667v-256z" />
<glyph unicode="&#xe93d;" glyph-name="bxs-bookmark" d="M234.496 26.965l277.504 158.592 277.504-158.592c6.528-3.755 13.867-5.632 21.163-5.632 7.424 0 14.805 1.92 21.419 5.76 13.184 7.637 21.248 21.717 21.248 36.907v768c0 23.595-19.072 42.667-42.667 42.667h-597.333c-23.595 0-42.667-19.072-42.667-42.667v-768c0-15.189 8.064-29.269 21.248-36.907 13.184-7.595 29.397-7.68 42.581-0.128z" />
<glyph unicode="&#xe93e;" glyph-name="bxs-bookmark-minus" d="M191.915 27.093c13.141-7.637 29.355-7.68 42.581-0.128l277.504 158.549 277.504-158.549c6.528-3.755 13.867-5.632 21.163-5.632 7.424 0 14.805 1.92 21.419 5.76 13.184 7.637 21.248 21.717 21.248 36.907v768c0 23.552-19.072 42.667-42.667 42.667h-597.333c-23.552 0-42.667-19.115-42.667-42.667v-768c0-15.189 8.107-29.269 21.248-36.907zM341.333 576h341.333v-85.333h-341.333v85.333z" />
<glyph unicode="&#xe93f;" glyph-name="bxs-bookmark-plus" d="M213.333 874.667c-23.595 0-42.667-19.115-42.667-42.667v-768c0-15.189 8.064-29.269 21.248-36.907s29.355-7.68 42.581-0.128l277.504 158.549 277.504-158.549c6.528-3.755 13.867-5.632 21.163-5.632 7.424 0 14.805 1.92 21.419 5.76 13.184 7.637 21.248 21.717 21.248 36.907v768c0 23.552-19.072 42.667-42.667 42.667h-597.333zM682.667 490.667h-128v-128h-85.333v128h-128v85.333h128v128h85.333v-128h128v-85.333z" />
<glyph unicode="&#xe940;" glyph-name="bxs-bookmarks" d="M682.667 704h-426.667c-23.595 0-42.667-19.072-42.667-42.667v-597.333c0-15.317 8.235-29.483 21.632-37.12 13.397-7.595 29.781-7.339 43.008 0.555l191.36 114.816 191.317-114.816c6.869-4.053 14.421-6.101 22.016-6.101 7.253 0 14.507 1.835 21.035 5.547 13.397 7.637 21.632 21.803 21.632 37.12v597.333c0 23.595-19.072 42.667-42.667 42.667zM853.333 874.667h-426.667v-85.333h384v-42.667c0-117.333 0-469.333 0-469.333h85.333v554.667c0 23.595-19.072 42.667-42.667 42.667z" />
<glyph unicode="&#xe941;" glyph-name="bxs-bookmark-star" d="M191.915 27.093c13.184-7.637 29.397-7.723 42.581-0.128l277.504 158.549 277.504-158.549c6.528-3.755 13.867-5.632 21.163-5.632 7.424 0 14.805 1.92 21.419 5.76 13.184 7.637 21.248 21.717 21.248 36.907v768c0 23.552-19.072 42.667-42.667 42.667h-597.333c-23.595 0-42.667-19.115-42.667-42.667v-768c0-15.189 8.064-29.269 21.248-36.907zM455.125 590.208l56.875 113.792 56.875-113.792 113.792-14.208-94.848-80.597 37.973-132.736-113.792 75.861-113.792-75.861 37.973 132.736-94.848 80.597 113.792 14.208z" />
<glyph unicode="&#xe942;" glyph-name="bxs-book-open" d="M896 832c-77.909 0-292.48-7.808-384-85.803-91.52 77.995-306.091 85.803-384 85.803-23.595 0-42.667-19.115-42.667-42.667v-554.667c0-23.552 19.072-42.667 42.667-42.667 233.259 0 352.811-114.517 354.005-115.627l0.299 0.299c3.84-3.755 8.107-7.083 13.269-9.259 5.333-2.219 10.923-3.328 16.469-3.328 11.008 0 21.888 4.267 29.995 12.245 1.152 1.152 120.704 115.669 353.963 115.669 23.595 0 42.667 19.115 42.667 42.667v554.667c0 23.552-19.072 42.667-42.667 42.667zM853.333 276.181c-137.984-7.424-237.525-49.792-298.667-85.931v471.083c0 44.459 150.016 78.763 298.667 84.48v-469.632z" />
<glyph unicode="&#xe943;" glyph-name="bxs-bot" d="M938.667 490.667h-42.667v170.667c0 23.595-19.072 42.667-42.667 42.667h-298.667v55.979c13.013 11.691 21.333 28.501 21.333 47.36 0 35.328-28.672 64-64 64s-64-28.672-64-64c0-18.859 8.32-35.669 21.333-47.36v-55.979h-298.667c-23.595 0-42.667-19.072-42.667-42.667v-170.667h-42.667v-170.667h42.667v-256c0-23.595 19.072-42.667 42.667-42.667h682.667c23.595 0 42.667 19.072 42.667 42.667v256h42.667v170.667zM298.667 448c0 47.104 28.672 85.333 64 85.333s64-38.229 64-85.333-28.672-85.333-64-85.333-64 38.229-64 85.333zM682.581 192c-42.709 0.128-341.205 0-341.248 0v85.333c0 0 298.709 0.085 341.419 0l-0.171-85.333zM661.333 362.667c-35.328 0-64 38.229-64 85.333s28.672 85.333 64 85.333 64-38.229 64-85.333-28.672-85.333-64-85.333z" />
<glyph unicode="&#xe944;" glyph-name="bxs-box" d="M896 832h-768c-23.595 0-42.667-19.072-42.667-42.667v-128c0-23.595 19.072-42.667 42.667-42.667h768c23.595 0 42.667 19.072 42.667 42.667v128c0 23.595-19.072 42.667-42.667 42.667zM853.333 533.333h-725.333v-426.667c0-23.595 19.072-42.667 42.667-42.667h682.667c23.595 0 42.667 19.072 42.667 42.667v426.667h-42.667zM682.667 320h-341.333v85.333h341.333v-85.333z" />
<glyph unicode="&#xe945;" glyph-name="bxs-briefcase" d="M896 704h-170.667v128c0 23.552-19.072 42.667-42.667 42.667h-298.667c-23.595 0-42.667-19.115-42.667-42.667v-128h-213.333c-23.595 0-42.667-19.115-42.667-42.667v-128h853.333v128c0 23.552-19.072 42.667-42.667 42.667zM426.667 789.333h213.333v-85.333h-213.333v85.333zM597.333 362.667h-170.667v85.333h-341.333v-298.667c0-23.552 19.072-42.667 42.667-42.667h768c23.595 0 42.667 19.115 42.667 42.667v298.667h-341.333v-85.333z" />
<glyph unicode="&#xe946;" glyph-name="bxs-briefcase-alt" d="M128 106.667h768c23.595 0 42.667 19.115 42.667 42.667v512c0 23.552-19.072 42.667-42.667 42.667h-213.333v128c0 23.552-19.072 42.667-42.667 42.667h-256c-23.595 0-42.667-19.115-42.667-42.667v-128h-213.333c-23.595 0-42.667-19.115-42.667-42.667v-512c0-23.552 19.072-42.667 42.667-42.667zM768 192h-85.333v426.667h85.333v-426.667zM426.667 789.333h170.667v-85.333h-170.667v85.333zM256 618.667h85.333v-426.667h-85.333v426.667z" />
<glyph unicode="&#xe947;" glyph-name="bxs-bug" d="M938.667 276.864v85.333h-98.517c2.773 21.035 4.608 42.496 4.608 64.469 0 21.845-1.835 43.093-4.523 64h95.829v85.333h-114.987c-16.512 50.517-41.003 96.128-71.765 134.315l91.52 91.52-60.331 60.331-92.288-92.288c-51.157 39.125-111.445 62.123-176.213 62.123s-125.056-22.997-176.213-62.123l-92.288 92.288-60.331-60.331 91.52-91.52c-30.763-38.187-55.253-83.797-71.765-134.315h-117.589v-85.333h98.432c-2.731-20.907-4.565-42.155-4.565-64 0-21.973 1.835-43.435 4.608-64.469h-98.475v-85.333h117.717c9.728-29.568 22.187-57.429 37.035-83.115l-99.584-99.584 60.331-60.331 90.368 90.368c58.837-63.744 136.064-102.869 220.8-102.869s161.963 39.125 220.8 102.869l90.368-90.368 60.331 60.331-99.584 99.584c14.891 25.685 27.349 53.547 37.035 83.115h117.717zM269.525 490.667c4.736 30.208 12.928 58.837 23.765 85.333h437.419c10.837-26.496 18.987-55.125 23.765-85.333h-484.949zM469.333 111.787v293.547h85.333v-293.547c-13.867-3.157-28.075-5.12-42.667-5.12s-28.8 1.963-42.667 5.12z" />
<glyph unicode="&#xe948;" glyph-name="bxs-building" d="M213.333 21.333h213.333v170.667h170.667v-170.667h213.333c23.595 0 42.667 19.115 42.667 42.667v768c0 23.552-19.072 42.667-42.667 42.667h-597.333c-23.595 0-42.667-19.115-42.667-42.667v-768c0-23.552 19.072-42.667 42.667-42.667zM554.667 704h128v-85.333h-128v85.333zM554.667 533.333h128v-85.333h-128v85.333zM554.667 362.667h128v-85.333h-128v85.333zM341.333 704h128v-85.333h-128v85.333zM341.333 533.333h128v-85.333h-128v85.333zM341.333 362.667h128v-85.333h-128v85.333z" />
<glyph unicode="&#xe949;" glyph-name="bxs-bulb" d="M384 106.667h256v-85.333h-256zM512 874.667c-164.651 0-298.667-134.016-298.667-298.667 0-97.493 45.525-150.528 89.643-201.813 15.275-17.835 31.104-36.309 46.251-57.557 8.619-12.416 25.173-74.112 35.456-132.096l6.229-35.2h242.133l6.272 35.157c10.368 58.027 27.008 119.893 35.584 132.309 15.061 21.461 31.019 40.107 46.421 58.155 43.947 51.456 89.344 104.661 89.344 201.045 0 164.651-134.016 298.667-298.667 298.667zM633.003 582.997c0 66.731-54.315 121.003-121.003 121.003v85.333c113.792 0 206.336-92.544 206.336-206.336h-85.333z" />
<glyph unicode="&#xe94a;" glyph-name="bxs-buoy" d="M512 874.667c-235.264 0-426.667-191.403-426.667-426.667s191.403-426.667 426.667-426.667 426.667 191.403 426.667 426.667-191.403 426.667-426.667 426.667zM181.931 362.667h134.827c21.504-49.024 60.885-88.405 109.909-109.909v-134.869c-119.637 30.976-213.803 125.141-244.736 244.779zM426.667 778.112v-134.869c-49.024-21.504-88.405-60.885-109.909-109.909h-134.827c30.933 119.637 125.099 213.803 244.736 244.779zM512 320c-70.571 0-128 57.429-128 128s57.429 128 128 128 128-57.429 128-128-57.429-128-128-128zM597.333 252.757c49.024 21.504 88.405 60.885 109.909 109.909h134.827c-30.976-119.637-125.141-213.803-244.736-244.779v134.869zM707.243 533.333c-21.504 49.024-60.885 88.405-109.909 109.909v134.869c119.637-30.976 213.803-125.141 244.736-244.779h-134.827z" />
<glyph unicode="&#xe94b;" glyph-name="bxs-bus" d="M938.667 576h-42.667v127.104c0.128 6.229-0.299 62.507-55.467 116.693-54.315 53.333-109.099 54.869-115.2 54.869h-426.837c-10.197 0-63.701-2.688-115.541-55.552-53.419-54.443-54.955-109.099-54.955-115.115v-128h-42.667v-128h42.667v-298.667c0-23.595 19.072-42.667 42.667-42.667h42.667v-42.667c0-23.595 19.072-42.667 42.667-42.667h85.333c23.595 0 42.667 19.072 42.667 42.667v42.667h256v-42.667c0-23.595 19.072-42.667 42.667-42.667h85.333c23.595 0 42.667 19.072 42.667 42.667v42.667h42.667c23.595 0 42.667 19.072 42.667 42.667v298.667h42.667v128zM469.333 618.667v-213.333h-256v213.333h256zM256 320h85.333v-84.949h-85.333v84.949zM768 235.051h-85.333v84.949h85.333v-84.949zM554.667 405.333v213.333h256v-213.333h-256z" />
<glyph unicode="&#xe94c;" glyph-name="bxs-calculator" d="M853.333 832h-682.667c-23.595 0-42.667-19.115-42.667-42.667v-682.667c0-23.595 19.072-42.667 42.667-42.667h682.667c23.595 0 42.667 19.072 42.667 42.667v682.667c0 23.552-19.072 42.667-42.667 42.667zM810.667 746.667v-170.667h-597.333v170.667h597.333zM384 320v-85.333h-85.333v85.333h85.333zM298.667 405.333v85.333h85.333v-85.333h-85.333zM554.667 320v-85.333h-85.333v85.333h85.333zM469.333 405.333v85.333h85.333v-85.333h-85.333zM640 234.667v256h85.333v-256h-85.333z" />
<glyph unicode="&#xe94d;" glyph-name="bxs-calendar" d="M896 832h-170.667v42.667h-85.333v-42.667h-256v42.667h-85.333v-42.667h-170.667c-23.595 0-42.667-19.115-42.667-42.667v-725.333c0-23.552 19.072-42.667 42.667-42.667h768c23.595 0 42.667 19.115 42.667 42.667v725.333c0 23.552-19.072 42.667-42.667 42.667zM298.667 746.667v-42.667h85.333v42.667h256v-42.667h85.333v42.667h128v-128h-682.667v128h128zM384 277.333v-85.333h-85.333v85.333h85.333zM298.667 362.667v85.333h85.333v-85.333h-85.333zM554.667 277.333v-85.333h-85.333v85.333h85.333zM469.333 362.667v85.333h85.333v-85.333h-85.333zM640 192v85.333h85.333v-85.333h-85.333zM725.333 362.667h-85.333v85.333h85.333v-85.333z" />
<glyph unicode="&#xe94e;" glyph-name="bxs-calendar-alt" d="M896 832h-170.667v42.667h-85.333v-42.667h-256v42.667h-85.333v-42.667h-170.667c-23.595 0-42.667-19.072-42.667-42.667v-725.333c0-23.595 19.072-42.667 42.667-42.667h768c23.595 0 42.667 19.072 42.667 42.667v725.333c0 23.595-19.072 42.667-42.667 42.667zM298.667 746.667v-42.667h85.333v42.667h256v-42.667h85.333v42.667h128v-128h-682.667v128h128z" />
<glyph unicode="&#xe94f;" glyph-name="bxs-calendar-check" d="M896 832h-170.667v42.667h-85.333v-42.667h-256v42.667h-85.333v-42.667h-170.667c-23.595 0-42.667-19.072-42.667-42.667v-725.333c0-23.595 19.072-42.667 42.667-42.667h768c23.595 0 42.667 19.072 42.667 42.667v725.333c0 23.595-19.072 42.667-42.667 42.667zM298.667 746.667v-42.667h85.333v42.667h256v-42.667h85.333v42.667h128v-128h-682.667v128h128zM469.333 174.336l-136.832 136.832 60.331 60.331 76.501-76.501 183.168 183.168 60.331-60.331-243.499-243.499z" />
<glyph unicode="&#xe950;" glyph-name="bxs-calendar-minus" d="M896 832h-170.667v42.667h-85.333v-42.667h-256v42.667h-85.333v-42.667h-170.667c-23.595 0-42.667-19.072-42.667-42.667v-725.333c0-23.595 19.072-42.667 42.667-42.667h768c23.595 0 42.667 19.072 42.667 42.667v725.333c0 23.595-19.072 42.667-42.667 42.667zM298.667 746.667v-42.667h85.333v42.667h256v-42.667h85.333v42.667h128v-128h-682.667v128h128zM682.667 277.333h-341.333v85.333h341.333v-85.333z" />
<glyph unicode="&#xe951;" glyph-name="bxs-calendar-plus" d="M896 832h-170.667v42.667h-85.333v-42.667h-256v42.667h-85.333v-42.667h-170.667c-23.595 0-42.667-19.072-42.667-42.667v-725.333c0-23.595 19.072-42.667 42.667-42.667h768c23.595 0 42.667 19.072 42.667 42.667v725.333c0 23.595-19.072 42.667-42.667 42.667zM298.667 746.667v-42.667h85.333v42.667h256v-42.667h85.333v42.667h128v-128h-682.667v128h128zM682.667 277.333h-128v-128h-85.333v128h-128v85.333h128v128h85.333v-128h128v-85.333z" />
<glyph unicode="&#xe952;" glyph-name="bxs-calendar-x" d="M896 832h-170.667v42.667h-85.333v-42.667h-256v42.667h-85.333v-42.667h-170.667c-23.595 0-42.667-19.072-42.667-42.667v-725.333c0-23.595 19.072-42.667 42.667-42.667h768c23.595 0 42.667 19.072 42.667 42.667v725.333c0 23.595-19.072 42.667-42.667 42.667zM170.667 746.667h128v-42.667h85.333v42.667h256v-42.667h85.333v42.667h128v-128h-682.667v128zM670.165 222.165l-60.331-60.331-97.835 97.835-97.835-97.835-60.331 60.331 97.835 97.835-97.835 97.835 60.331 60.331 97.835-97.835 97.835 97.835 60.331-60.331-97.835-97.835 97.835-97.835z" />
<glyph unicode="&#xe953;" glyph-name="bxs-camera" d="M512 533.333c-45.44 0-85.333-39.893-85.333-85.333s39.893-85.333 85.333-85.333 85.333 39.893 85.333 85.333-39.893 85.333-85.333 85.333zM896 746.667h-153.003l-115.499 115.499c-7.979 8.021-18.816 12.501-30.165 12.501h-170.667c-11.349 0-22.187-4.48-30.165-12.501l-115.499-115.499h-153.003c-23.595 0-42.667-19.115-42.667-42.667v-554.667c0-23.595 19.072-42.667 42.667-42.667h768c23.595 0 42.667 19.072 42.667 42.667v554.667c0 23.552-19.072 42.667-42.667 42.667zM512 277.333c-92.501 0-170.667 78.165-170.667 170.667s78.165 170.667 170.667 170.667 170.667-78.165 170.667-170.667c0-92.501-78.165-170.667-170.667-170.667z" />
<glyph unicode="&#xe954;" glyph-name="bxs-camera-alt" d="M597.333 448c0 45.44-39.893 85.333-85.333 85.333s-85.333-39.893-85.333-85.333 39.893-85.333 85.333-85.333 85.333 39.893 85.333 85.333zM896 789.333h-85.333v42.667h-128v-42.667h-298.667v85.333h-170.667v-85.333h-85.333c-23.595 0-42.667-19.115-42.667-42.667v-213.333h280.448c30.080 50.389 84.693 85.333 146.219 85.333s116.139-34.944 146.219-85.333h280.448v213.333c0 23.552-19.072 42.667-42.667 42.667zM810.667 618.667h-85.333v85.333h85.333v-85.333zM512 277.333c-92.501 0-170.667 78.165-170.667 170.667h-256v-298.667c0-23.552 19.072-42.667 42.667-42.667h768c23.595 0 42.667 19.115 42.667 42.667v298.667h-256c0-92.501-78.165-170.667-170.667-170.667z" />
<glyph unicode="&#xe955;" glyph-name="bxs-camera-off" d="M128 106.667h549.504l-171.264 171.264c-87.936 3.157-161.152 76.373-164.309 164.309l-256.597 256.597v-549.504c0-23.595 19.072-42.667 42.667-42.667zM896 746.667h-153.003l-115.499 115.499c-7.979 8.021-18.816 12.501-30.165 12.501h-170.667c-11.349 0-22.187-4.48-30.165-12.501l-115.499-115.499h-7.339l-115.499 115.499-60.331-60.331 768-768 60.331 60.331-15.445 15.445c16.256 6.016 27.947 21.333 27.947 39.723v554.667c0 23.552-19.072 42.667-42.667 42.667zM593.877 426.453c2.048 6.955 3.456 14.123 3.456 21.547 0 45.44-39.893 85.333-85.333 85.333-7.424 0-14.592-1.451-21.547-3.456l-64.043 64.043c25.344 15.36 54.485 24.747 85.589 24.747 92.501 0 170.667-78.165 170.667-170.667 0-31.104-9.429-60.245-24.747-85.589l-64.043 64.043z" />
<glyph unicode="&#xe956;" glyph-name="bxs-capsule" d="M512.597 144.981l304.384 304.341c83.157 83.2 83.115 218.581-0.043 301.739-40.32 40.277-93.867 62.421-150.869 62.421-56.96 0-110.507-22.187-150.784-62.464l-304.384-304.341c-83.115-83.157-83.157-218.539-0.043-301.739 40.32-40.277 93.909-62.421 150.912-62.421 56.917 0 110.507 22.187 150.827 62.464zM575.573 690.688c24.149 24.149 56.277 37.461 90.453 37.461 34.219 0 66.389-13.312 90.539-37.461 49.92-49.877 49.92-131.115 0.043-181.035l-123.435-123.392-180.992 181.077 123.392 123.349z" />
<glyph unicode="&#xe957;" glyph-name="bxs-captions" d="M896 789.333h-768c-23.595 0-42.667-19.072-42.667-42.667v-597.333c0-23.595 19.072-42.667 42.667-42.667h768c23.595 0 42.667 19.072 42.667 42.667v597.333c0 23.595-19.072 42.667-42.667 42.667zM469.333 533.333h-128v-170.667h128v-85.333h-170.667c-23.595 0-42.667 0-42.667 0v341.333c0 0 19.072 0 42.667 0h170.667v-85.333zM768 533.333h-128v-170.667h128v-85.333h-170.667c-23.595 0-42.667 0-42.667 0v341.333c0 0 19.072 0 42.667 0h170.667v-85.333z" />
<glyph unicode="&#xe958;" glyph-name="bxs-car" d="M896 533.333h-49.195l-36.693 220.331c-3.456 20.565-21.248 35.669-42.112 35.669h-512c-20.864 0-38.656-15.104-42.069-35.669l-36.736-220.331h-49.195c-23.595 0-42.667-19.072-42.667-42.667v-256c0-23.595 19.072-42.667 42.667-42.667h42.667v-85.333c0-23.595 19.072-42.667 42.667-42.667h42.667c23.595 0 42.667 19.072 42.667 42.667v85.333h426.667v-85.333c0-23.595 19.072-42.667 42.667-42.667h42.667c23.595 0 42.667 19.072 42.667 42.667v85.333h42.667c23.595 0 42.667 19.072 42.667 42.667v256c0 23.595-19.072 42.667-42.667 42.667zM810.667 405.333v-85.333h-85.333v85.333h85.333zM292.139 704h439.765l28.416-170.667h-496.597l28.416 170.667zM298.667 320h-85.333v85.333h85.333v-85.333z" />
<glyph unicode="&#xe959;" glyph-name="bxs-carousel" d="M298.667 64h426.667c23.595 0 42.667 19.115 42.667 42.667v682.667c0 23.552-19.072 42.667-42.667 42.667h-426.667c-23.595 0-42.667-19.115-42.667-42.667v-682.667c0-23.552 19.072-42.667 42.667-42.667zM128 149.333h42.667v597.333h-42.667c-23.595 0-42.667-19.115-42.667-42.667v-512c0-23.552 19.072-42.667 42.667-42.667zM896 746.667h-42.667v-597.333h42.667c23.595 0 42.667 19.115 42.667 42.667v512c0 23.552-19.072 42.667-42.667 42.667z" />
<glyph unicode="&#xe95a;" glyph-name="bxs-cart" d="M152.405 722.261l192.256-461.355c6.613-15.872 22.144-26.24 39.381-26.24h383.957c17.792 0 33.707 11.051 39.979 27.648l128 341.333c4.907 13.141 3.072 27.776-4.864 39.296-8.021 11.52-21.12 18.389-35.115 18.389h-625.792l-60.16 144.427c-6.613 15.872-22.144 26.24-39.381 26.24h-85.333v-85.333h42.667l24.405-24.405zM512 85.333c0-35.346-28.654-64-64-64s-64 28.654-64 64c0 35.346 28.654 64 64 64s64-28.654 64-64zM765.355 85.333c0-35.346-28.654-64-64-64s-64 28.654-64 64c0 35.346 28.654 64 64 64s64-28.654 64-64z" />
<glyph unicode="&#xe95b;" glyph-name="bxs-cart-alt" d="M930.091 772.395c-8.107 10.667-20.736 16.939-34.091 16.939h-810.667v-85.333h98.133l160.469-441.259c6.101-16.853 22.101-28.075 40.064-28.075h384v85.333h-354.133l-31.061 85.333h427.861c19.029 0 35.797 12.629 41.045 30.976l85.333 298.667c3.669 12.843 1.067 26.709-6.955 37.419zM512 85.333c0-35.346-28.654-64-64-64s-64 28.654-64 64c0 35.346 28.654 64 64 64s64-28.654 64-64zM768 85.333c0-35.346-28.654-64-64-64s-64 28.654-64 64c0 35.346 28.654 64 64 64s64-28.654 64-64z" />
<glyph unicode="&#xe95c;" glyph-name="bxs-categories" d="M170.667 405.333h256c23.552 0 42.667 19.072 42.667 42.667v341.333c0 23.595-19.115 42.667-42.667 42.667h-256c-23.552 0-42.667-19.072-42.667-42.667v-341.333c0-23.595 19.115-42.667 42.667-42.667zM170.667 21.333h256c23.552 0 42.667 19.072 42.667 42.667v213.333c0 23.595-19.115 42.667-42.667 42.667h-256c-23.552 0-42.667-19.072-42.667-42.667v-213.333c0-23.595 19.115-42.667 42.667-42.667zM597.333 21.333h256c23.595 0 42.667 19.072 42.667 42.667v341.333c0 23.595-19.072 42.667-42.667 42.667h-256c-23.595 0-42.667-19.072-42.667-42.667v-341.333c0-23.595 19.072-42.667 42.667-42.667zM597.333 533.333h256c23.595 0 42.667 19.072 42.667 42.667v213.333c0 23.595-19.072 42.667-42.667 42.667h-256c-23.595 0-42.667-19.072-42.667-42.667v-213.333c0-23.595 19.072-42.667 42.667-42.667z" />
<glyph unicode="&#xe95d;" glyph-name="bxs-certification" d="M885.333 448l47.104 81.451c11.776 20.395 4.779 46.507-15.616 58.283l-81.451 47.104v93.824c0 23.552-19.072 42.667-42.667 42.667h-93.824l-47.061 81.451c-5.675 9.813-15.019 16.939-25.899 19.883s-22.571 1.451-32.384-4.267l-81.536-47.061-81.451 47.104c-20.395 11.861-46.507 4.821-58.283-15.573l-47.104-81.493h-93.824c-23.595 0-42.667-19.115-42.667-42.667v-93.824l-81.451-47.147c-9.813-5.675-16.939-14.976-19.883-25.899s-1.365-22.571 4.309-32.384l47.061-81.451-47.104-81.451c-5.675-9.771-7.211-21.419-4.309-32.384s10.027-20.267 19.883-25.899l81.451-47.104v-93.824c0-23.552 19.072-42.667 42.667-42.667h93.824l47.104-81.493c7.936-13.653 22.229-21.333 36.992-21.333 7.253 0 14.592 1.835 21.291 5.717l81.493 47.104 81.493-47.104c9.771-5.675 21.504-7.168 32.384-4.267 10.923 2.901 20.267 10.069 25.899 19.883l47.061 81.451h93.824c23.595 0 42.667 19.115 42.667 42.667v93.824l81.451 47.104c20.437 11.776 27.435 37.888 15.616 58.283l-47.061 81.493z" />
<glyph unicode="&#xe95e;" glyph-name="bxs-chart" d="M853.333 832h-682.667c-23.595 0-42.667-19.115-42.667-42.667v-682.667c0-23.552 19.072-42.667 42.667-42.667h682.667c23.595 0 42.667 19.115 42.667 42.667v682.667c0 23.552-19.072 42.667-42.667 42.667zM613.589 349.483l-170.667 85.333-107.648-179.456-73.173 43.904 148.352 247.211 170.667-85.333 107.648 179.456 73.173-43.904-148.352-247.211z" />
<glyph unicode="&#xe95f;" glyph-name="bxs-checkbox" d="M768 746.667h-512c-23.595 0-42.667-19.072-42.667-42.667v-512c0-23.595 19.072-42.667 42.667-42.667h512c23.595 0 42.667 19.072 42.667 42.667v512c0 23.595-19.072 42.667-42.667 42.667z" />
<glyph unicode="&#xe960;" glyph-name="bxs-checkbox-checked" d="M768 746.667h-512c-23.595 0-42.667-19.072-42.667-42.667v-512c0-23.595 19.072-42.667 42.667-42.667h512c23.595 0 42.667 19.072 42.667 42.667v512c0 23.595-19.072 42.667-42.667 42.667zM469.333 302.336l-115.499 115.499 60.331 60.331 55.168-55.168 161.835 161.835 60.331-60.331-222.165-222.165z" />
<glyph unicode="&#xe961;" glyph-name="bxs-check-circle" d="M512 874.667c-235.264 0-426.667-191.403-426.667-426.667s191.403-426.667 426.667-426.667 426.667 191.403 426.667 426.667c0 235.264-191.403 426.667-426.667 426.667zM426.709 259.712l-158.421 158.080 60.245 60.416 98.091-97.92 247.211 247.211 60.331-60.331-307.456-307.456z" />
<glyph unicode="&#xe962;" glyph-name="bxs-chip" d="M853.333 746.667c0 23.595-19.072 42.667-42.667 42.667h-85.333v85.333h-85.333v-85.333h-85.333v85.333h-85.333v-85.333h-85.333v85.333h-85.333v-85.333h-85.333c-23.595 0-42.667-19.072-42.667-42.667v-85.333h-85.333v-85.333h85.333v-85.333h-85.333v-85.333h85.333v-85.333h-85.333v-85.333h85.333v-85.333c0-23.595 19.072-42.667 42.667-42.667h85.333v-85.333h85.333v85.333h85.333v-85.333h85.333v85.333h85.333v-85.333h85.333v85.333h85.333c23.595 0 42.667 19.072 42.667 42.667v85.333h85.333v85.333h-85.333v85.333h85.333v85.333h-85.333v85.333h85.333v85.333h-85.333v85.333zM384 576h256v-256h-256v256z" />
<glyph unicode="&#xe963;" glyph-name="bxs-circle" d="M512 874.667c-235.264 0-426.667-191.403-426.667-426.667s191.403-426.667 426.667-426.667 426.667 191.403 426.667 426.667-191.403 426.667-426.667 426.667z" />
<glyph unicode="&#xe964;" glyph-name="bxs-clipboard" d="M810.667 789.333h-128v42.667c0 23.595-19.072 42.667-42.667 42.667h-256c-23.595 0-42.667-19.072-42.667-42.667v-42.667h-128c-23.595 0-42.667-19.072-42.667-42.667v-682.667c0-23.595 19.072-42.667 42.667-42.667h597.333c23.595 0 42.667 19.072 42.667 42.667v682.667c0 23.595-19.072 42.667-42.667 42.667zM426.667 789.333h170.667v-85.333h-170.667v85.333z" />
<glyph unicode="&#xe965;" glyph-name="bxs-cloud" d="M808.277 485.888c-18.645 146.859-144.384 260.779-296.277 260.779-117.589 0-219.733-68.736-266.368-177.067-91.648-27.392-160.299-113.92-160.299-206.933 0-117.632 95.701-213.333 213.333-213.333h469.333c94.123 0 170.667 76.544 170.667 170.667 0 80.213-55.68 147.712-130.389 165.888z" />
<glyph unicode="&#xe966;" glyph-name="bxs-cloud-download" d="M808.277 485.888c-18.645 146.859-144.384 260.779-296.277 260.779-117.589 0-219.733-68.693-266.368-177.024-91.648-27.435-160.299-113.963-160.299-206.976 0-113.365 89.131-205.44 200.875-212.096v-1.237h481.792c94.123 0 170.667 76.544 170.667 170.667 0 80.256-55.68 147.712-130.389 165.888zM341.333 405.333h128v128h85.333v-128h128l-170.667-170.667-170.667 170.667z" />
<glyph unicode="&#xe967;" glyph-name="bxs-cloud-upload" d="M808.277 485.888c-18.645 146.859-144.384 260.779-296.277 260.779-117.589 0-219.733-68.736-266.368-177.067-91.648-27.392-160.299-113.92-160.299-206.933 0-117.632 95.701-213.333 213.333-213.333h469.333c94.123 0 170.667 76.544 170.667 170.667 0 80.213-55.68 147.712-130.389 165.888zM554.667 362.667v-128h-85.333v128h-128l170.667 170.667 170.667-170.667h-128z" />
<glyph unicode="&#xe968;" glyph-name="bxs-code-block" d="M896 789.333h-768c-23.595 0-42.667-19.072-42.667-42.667v-597.333c0-23.595 19.072-42.667 42.667-42.667h768c23.595 0 42.667 19.072 42.667 42.667v597.333c0 23.595-19.072 42.667-42.667 42.667zM456.832 264.832l-60.331-60.331-158.165 158.165 158.165 158.165 60.331-60.331-97.835-97.835 97.835-97.835zM627.499 204.501l-60.331 60.331 97.835 97.835-97.835 97.835 60.331 60.331 158.165-158.165-158.165-158.165zM853.333 618.667h-682.667v85.333h682.667v-85.333z" />
<glyph unicode="&#xe969;" glyph-name="bxs-coffee" d="M170.667 64h512c23.595 0 42.667 19.072 42.667 42.667v85.333h128c23.595 0 42.667 19.072 42.667 42.667v298.667c0 23.595-19.072 42.667-42.667 42.667h-128v42.667c0 23.595-19.072 42.667-42.667 42.667h-512c-23.595 0-42.667-19.072-42.667-42.667v-512c0-23.595 19.072-42.667 42.667-42.667zM810.667 490.667v-213.333h-85.333v213.333h85.333zM213.333 874.667h85.333v-128h-85.333zM384 874.667h85.333v-128h-85.333zM554.667 874.667h85.333v-128h-85.333z" />
<glyph unicode="&#xe96a;" glyph-name="bxs-cog" d="M95.744 340.821c-2.901-10.923-1.365-22.571 4.267-32.384l85.333-147.627c11.776-20.352 37.931-27.349 58.283-15.616l59.563 34.389c24.747-19.499 52.096-35.499 80.853-47.445v-68.139c0-23.552 19.072-42.667 42.667-42.667h170.667c23.595 0 42.667 19.115 42.667 42.667v68.181c28.757 11.947 56.064 27.947 80.853 47.445l59.563-34.389c20.309-11.733 46.464-4.736 58.283 15.616l85.333 147.627c5.632 9.771 7.168 21.419 4.267 32.384s-10.069 20.267-19.883 25.899l-58.496 33.792c2.219 15.744 3.371 31.616 3.371 47.445s-1.152 31.701-3.456 47.445l58.496 33.792c9.771 5.632 16.939 14.976 19.883 25.899s1.365 22.571-4.267 32.384l-85.333 147.627c-11.819 20.395-38.016 27.392-58.283 15.616l-59.563-34.389c-24.747 19.499-52.053 35.541-80.811 47.445v68.181c0 23.552-19.072 42.667-42.667 42.667h-170.667c-23.595 0-42.667-19.115-42.667-42.667v-68.181c-28.757-11.947-56.064-27.947-80.853-47.445l-59.52 34.389c-20.395 11.819-46.507 4.779-58.283-15.616l-85.333-147.627c-5.632-9.771-7.168-21.419-4.267-32.384s10.069-20.224 19.883-25.899l58.496-33.792c-2.304-15.744-3.456-31.616-3.456-47.445s1.152-31.701 3.456-47.445l-58.496-33.792c-9.813-5.675-16.939-14.976-19.883-25.941zM512 618.667c94.123 0 170.667-76.544 170.667-170.667s-76.544-170.667-170.667-170.667-170.667 76.544-170.667 170.667 76.544 170.667 170.667 170.667z" />
<glyph unicode="&#xe96b;" glyph-name="bxs-collection" d="M853.333 533.333h-682.667c-23.595 0-42.667-19.072-42.667-42.667v-426.667c0-23.595 19.072-42.667 42.667-42.667h682.667c23.595 0 42.667 19.072 42.667 42.667v426.667c0 23.595-19.072 42.667-42.667 42.667zM213.333 704h597.333v-85.333h-597.333zM298.667 874.667h426.667v-85.333h-426.667z" />
<glyph unicode="&#xe96c;" glyph-name="bxs-columns" d="M896 789.333h-768c-23.595 0-42.667-19.072-42.667-42.667v-597.333c0-23.595 19.072-42.667 42.667-42.667h768c23.595 0 42.667 19.072 42.667 42.667v597.333c0 23.595-19.072 42.667-42.667 42.667zM170.667 192v341.333h170.667v-341.333h-170.667zM426.667 192v341.333h170.667v-341.333h-170.667zM682.667 192v341.333h170.667v-341.333h-170.667z" />
<glyph unicode="&#xe96d;" glyph-name="bxs-compass" d="M512 874.667c-235.264 0-426.667-191.403-426.667-426.667s191.403-426.667 426.667-426.667 426.667 191.403 426.667 426.667-191.403 426.667-426.667 426.667zM596.949 363.051l-255.616-85.717 85.333 256 256 85.333-85.717-255.616z" />
<glyph unicode="&#xe96e;" glyph-name="bxs-contact" d="M896 874.667h-682.667c-23.595 0-42.667-19.072-42.667-42.667v-170.667h-85.333v-85.333h85.333v-85.333h-85.333v-85.333h85.333v-85.333h-85.333v-85.333h85.333v-170.667c0-23.595 19.072-42.667 42.667-42.667h682.667c23.595 0 42.667 19.072 42.667 42.667v768c0 23.595-19.072 42.667-42.667 42.667zM699.093 234.667h-288.853c-19.968 0-68.907 0-68.907 0 0 85.333 42.667 213.333 141.952 238.891-33.152 22.784-54.997 60.928-54.997 104.064 0 69.675 56.704 126.379 126.379 126.379s126.379-56.704 126.379-126.379c0-43.179-21.845-81.28-54.997-104.064 99.285-25.557 141.952-136.875 141.952-238.891 0 0-48.939 0-68.907 0z" />
<glyph unicode="&#xe96f;" glyph-name="bxs-conversation" d="M725.333 448v341.333c0 23.595-19.072 42.667-42.667 42.667h-512c-23.595 0-42.667-19.072-42.667-42.667v-512c0-16.427 9.429-31.317 24.149-38.443 5.931-2.859 12.245-4.224 18.517-4.224 9.515 0 18.944 3.157 26.667 9.344l201.643 161.323h283.691c23.595 0 42.667 19.072 42.667 42.667zM810.667 618.667v-256c0 0 0-42.667-42.667-42.667h-341.333v-85.333h198.357l201.643-161.323c7.723-6.187 17.152-9.344 26.667-9.344 6.272 0 12.629 1.365 18.517 4.224 14.72 7.125 24.149 22.016 24.149 38.443v512h-85.333z" />
<glyph unicode="&#xe970;" glyph-name="bxs-copy" d="M640 618.667h-512c-23.552 0-42.667-19.115-42.667-42.667v-512c0-23.595 19.115-42.667 42.667-42.667h512c23.595 0 42.667 19.072 42.667 42.667v512c0 23.552-19.072 42.667-42.667 42.667zM896 874.667h-512c-23.595 0-42.667-19.072-42.667-42.667v-128h384c42.667 0 42.667-19.072 42.667-42.667v-384h128c23.595 0 42.667 19.072 42.667 42.667v512c0 23.595-19.072 42.667-42.667 42.667z" />
<glyph unicode="&#xe971;" glyph-name="bxs-copyright" d="M512 21.333c231.296 0 426.667 195.371 426.667 426.667s-195.371 426.667-426.667 426.667-426.667-195.371-426.667-426.667 195.371-426.667 426.667-426.667zM512 661.333c38.443 0 110.165-7.168 158.165-55.168l-60.331-60.331c-18.859 18.859-55.467 30.165-97.835 30.165-69.376 0-128-58.624-128-128s58.624-128 128-128c42.325 0 78.933 11.307 97.835 30.208l60.331-60.416c-48.043-47.957-119.723-55.125-158.165-55.125-117.632 0-213.333 95.701-213.333 213.333s95.701 213.333 213.333 213.333z" />
<glyph unicode="&#xe972;" glyph-name="bxs-coupon" d="M896 746.667h-768c-23.595 0-42.667-19.072-42.667-42.667v-170.667c0-23.595 19.072-42.667 42.667-42.667 35.285 0 64-28.715 64-64s-28.715-64-64-64c-23.595 0-42.667-19.072-42.667-42.667v-128c0-23.595 19.072-42.667 42.667-42.667h768c23.595 0 42.667 19.072 42.667 42.667v128c0 23.595-19.072 42.667-42.667 42.667-35.285 0-64 28.715-64 64s28.715 64 64 64c23.595 0 42.667 19.072 42.667 42.667v170.667c0 23.595-19.072 42.667-42.667 42.667zM469.333 234.667h-85.333v85.333h85.333v-85.333zM469.333 405.333h-85.333v85.333h85.333v-85.333zM469.333 576h-85.333v85.333h85.333v-85.333z" />
<glyph unicode="&#xe973;" glyph-name="bxs-credit-card" d="M896 789.333h-768c-23.595 0-42.667-19.072-42.667-42.667v-128h853.333v128c0 23.595-19.072 42.667-42.667 42.667zM85.333 149.333c0-23.595 19.072-42.667 42.667-42.667h768c23.595 0 42.667 19.072 42.667 42.667v298.667h-853.333v-298.667zM256 362.667h256v-85.333h-256v85.333z" />
<glyph unicode="&#xe974;" glyph-name="bxs-crown" d="M896 789.333c0 18.133-11.477 34.261-28.544 40.277-17.067 5.888-36.096 0.512-47.445-13.611l-137.344-171.691-137.344 171.691c-16.256 20.267-50.432 20.267-66.688 0l-137.301-171.691-137.344 171.691c-11.349 14.165-30.421 19.584-47.445 13.611-17.067-6.016-28.544-22.144-28.544-40.277v-469.333h768v469.333zM170.667 64h682.667c23.595 0 42.667 19.115 42.667 42.667v128h-768v-128c0-23.552 19.072-42.667 42.667-42.667z" />
<glyph unicode="&#xe975;" glyph-name="bxs-cube" d="M494.635 870.955l-342.613-152.576 359.979-180.011 360.021 180.011-342.613 152.576c-11.136 4.907-23.68 4.907-34.773 0zM937.856 234.667v421.248l-383.189-191.616v-432.896l358.315 164.48c15.189 6.955 24.875 22.101 24.875 38.784zM86.144 235.051c0-16.683 9.728-31.787 24.832-38.741l358.357-164.907v432.896l-383.189 191.616v-420.864z" />
<glyph unicode="&#xe976;" glyph-name="bxs-dashboard" d="M813.696 749.696c-80.853 80.853-187.947 125.355-301.653 125.355-113.749 0-220.928-44.544-301.739-125.355-166.357-166.315-166.357-437.035 0-603.392 80.853-80.853 187.989-125.355 301.739-125.355s220.885 44.501 301.653 125.312c166.4 166.315 166.4 437.035 0 603.435zM469.333 789.333h85.333v-85.333h-85.333v85.333zM511.957 576.384c9.003 0 17.536-1.792 25.728-4.395l169.771 153.045 57.173-63.403-169.472-152.789c1.152-5.589 1.835-11.435 1.835-17.365 0-46.976-38.101-85.035-84.992-85.035s-84.949 38.101-84.949 85.035c-0.043 46.805 38.016 84.907 84.907 84.907zM296.832 723.499l64-63.957-60.331-60.331-64 63.957 60.331 60.331zM170.667 405.333v85.333h85.333v-85.333h-85.333zM512 106.667c-213.333 0-298.667 170.667-298.667 170.667h597.333c0 0-85.333-170.667-298.667-170.667zM768 405.333v85.333h85.333v-85.333h-85.333z" />
<glyph unicode="&#xe977;" glyph-name="bxs-detail" d="M896 832h-768c-23.595 0-42.667-19.072-42.667-42.667v-682.667c0-23.595 19.072-42.667 42.667-42.667h768c23.595 0 42.667 19.072 42.667 42.667v682.667c0 23.595-19.072 42.667-42.667 42.667zM512 234.667h-256v85.333h256v-85.333zM640 405.333h-384v85.333h384v-85.333zM768 576h-512v85.333h512v-85.333z" />
<glyph unicode="&#xe978;" glyph-name="bxs-diamond" d="M619.093 576l-106.667 298.667h-0.427l-107.093-298.667zM630.059 490.667h-236.117l118.059-469.333zM394.752 139.904l-88.789 350.763h-198.187zM314.325 576l106.667 298.667h-79.659c-13.781 0-26.709-6.656-34.688-17.877l-200.619-280.789h208.299zM718.037 490.667l-88.789-350.763 286.976 350.763zM709.675 576h208.299l-200.576 280.789c-8.021 11.221-20.949 17.877-34.731 17.877h-79.659l106.667-298.667z" />
<glyph unicode="&#xe979;" glyph-name="bxs-directions" d="M923.349 416.811l-128 106.667c-7.68 6.357-17.365 9.856-27.349 9.856h-213.333v341.333h-85.333v-85.333h-213.333c-9.984 0-19.627-3.499-27.307-9.856l-128-106.667c-9.728-8.149-15.36-20.139-15.36-32.811s5.632-24.661 15.36-32.811l128-106.667c7.68-6.357 17.323-9.856 27.307-9.856h213.333v-469.333h85.333v213.333h213.333c9.984 0 19.669 3.499 27.349 9.856l128 106.667c9.685 8.149 15.317 20.139 15.317 32.811s-5.632 24.661-15.317 32.811z" />
<glyph unicode="&#xe97a;" glyph-name="bxs-discount" d="M896 746.667h-768c-23.595 0-42.667-19.072-42.667-42.667v-170.667c0-23.595 19.072-42.667 42.667-42.667 35.285 0 64-28.715 64-64s-28.715-64-64-64c-23.595 0-42.667-19.072-42.667-42.667v-128c0-23.595 19.072-42.667 42.667-42.667h768c23.595 0 42.667 19.072 42.667 42.667v128c0 23.595-19.072 42.667-42.667 42.667-35.285 0-64 28.715-64 64s28.715 64 64 64c23.595 0 42.667 19.072 42.667 42.667v170.667c0 23.595-19.072 42.667-42.667 42.667zM341.333 533.333c0 23.595 19.072 42.667 42.667 42.667s42.667-19.072 42.667-42.667-19.072-42.667-42.667-42.667-42.667 19.072-42.667 42.667zM391.168 343.68l170.667 256 70.997-47.317-170.667-256-70.997 47.317zM640 320c-23.595 0-42.667 19.072-42.667 42.667s19.072 42.667 42.667 42.667 42.667-19.072 42.667-42.667-19.072-42.667-42.667-42.667z" />
<glyph unicode="&#xe97b;" glyph-name="bxs-dislike" d="M810.667 277.333h85.333c23.595 0 42.667 19.115 42.667 42.667v469.333c0 23.552-19.072 42.667-42.667 42.667h-85.333v-554.667zM128 277.333h282.112l-66.603-199.851c-4.395-13.013-2.176-27.307 5.845-38.443 8.064-11.136 20.949-17.707 34.645-17.707h128c12.672 0 24.661 5.632 32.811 15.36l180.523 216.619v578.688h-469.333c-17.792 0-33.707-11.051-39.979-27.691l-128-341.333c-1.792-4.779-2.688-9.856-2.688-14.976v-128c0-23.552 19.072-42.667 42.667-42.667z" />
<glyph unicode="&#xe97c;" glyph-name="bxs-dock-bottom" d="M853.333 832h-682.667c-23.595 0-42.667-19.072-42.667-42.667v-682.667c0-23.595 19.072-42.667 42.667-42.667h682.667c23.595 0 42.667 19.072 42.667 42.667v682.667c0 23.595-19.072 42.667-42.667 42.667zM810.667 746.667v-384h-597.333v384h597.333z" />
<glyph unicode="&#xe97d;" glyph-name="bxs-dock-left" d="M170.667 64h682.667c23.595 0 42.667 19.072 42.667 42.667v682.667c0 23.595-19.072 42.667-42.667 42.667h-682.667c-23.595 0-42.667-19.072-42.667-42.667v-682.667c0-23.595 19.072-42.667 42.667-42.667zM810.667 149.333h-384v597.333h384v-597.333z" />
<glyph unicode="&#xe97e;" glyph-name="bxs-dock-right" d="M853.333 832h-682.667c-23.595 0-42.667-19.072-42.667-42.667v-682.667c0-23.595 19.072-42.667 42.667-42.667h682.667c23.595 0 42.667 19.072 42.667 42.667v682.667c0 23.595-19.072 42.667-42.667 42.667zM213.333 746.667h384v-597.333h-384v597.333z" />
<glyph unicode="&#xe97f;" glyph-name="bxs-dock-top" d="M128 106.667c0-23.595 19.072-42.667 42.667-42.667h682.667c23.595 0 42.667 19.072 42.667 42.667v682.667c0 23.595-19.072 42.667-42.667 42.667h-682.667c-23.595 0-42.667-19.072-42.667-42.667v-682.667zM213.333 149.333v384h597.333v-384h-597.333z" />
<glyph unicode="&#xe980;" glyph-name="bxs-documentation" d="M256 21.333h597.333c23.595 0 42.667 19.072 42.667 42.667v767.957c0 23.595-19.072 42.667-42.667 42.667h-597.333c-51.456 0-128-34.091-128-128v-597.333c0.043-93.867 76.544-127.957 128-127.957zM341.333 704h384v-85.376h-384v85.376zM810.667 192v-85.333h-554.155c-19.712 0.512-43.179 8.277-43.179 42.667s23.467 42.155 43.179 42.667h554.155z" />
<glyph unicode="&#xe981;" glyph-name="bxs-dollar-circle" d="M512 874.667c-235.264 0-426.667-191.403-426.667-426.667s191.403-426.667 426.667-426.667 426.667 191.403 426.667 426.667-191.403 426.667-426.667 426.667zM554.667 237.568v-45.568h-85.333v46.763c-67.072 11.733-110.507 46.677-112.64 48.469l54.571 65.579c0.213-0.128 41.387-32.811 100.736-32.811 38.912 0 85.291 7.424 85.291 42.667 0 16.981 0 42.667-85.291 42.667-141.056 0-170.624 69.632-170.624 128 0 54.272 34.603 111.787 127.957 125.099v45.056h85.333v-46.251c67.072-11.733 110.507-46.677 112.64-48.469l-54.315-65.792c-0.469 0.341-41.643 33.024-100.992 33.024-38.912 0-85.291-7.424-85.291-42.667 0-18.005 0-42.667 85.291-42.667 141.056 0 170.624-69.632 170.624-128 0-54.272-34.603-111.787-127.957-125.099z" />
<glyph unicode="&#xe982;" glyph-name="bxs-down-arrow" d="M810.667 704h-597.333c-15.573 0-29.909-8.491-37.419-22.144-7.467-13.653-6.955-30.293 1.408-43.477l298.667-469.333c7.851-12.245 21.419-19.712 36.011-19.712s28.16 7.467 36.011 19.755l298.667 469.333c8.363 13.141 8.875 29.781 1.408 43.477-7.509 13.611-21.845 22.101-37.419 22.101z" />
<glyph unicode="&#xe983;" glyph-name="bxs-down-arrow-circle" d="M512 874.667c-235.264 0-426.667-191.403-426.667-426.667s191.403-426.667 426.667-426.667c235.264 0 426.667 191.403 426.667 426.667s-191.403 426.667-426.667 426.667zM512 277.333l-170.667 170.667h128v170.667h85.333v-170.667h128l-170.667-170.667z" />
<glyph unicode="&#xe984;" glyph-name="bxs-download-alt" d="M170.667 106.667h682.667v85.333h-288l236.8 315.733c9.728 12.928 11.264 30.208 4.053 44.672-7.253 14.464-22.016 23.595-38.187 23.595h-85.333v170.667c0 23.595-19.072 42.667-42.667 42.667h-256c-23.595 0-42.667-19.072-42.667-42.667v-170.667h-85.333c-16.171 0-30.933-9.131-38.187-23.595-7.168-14.464-5.632-31.744 4.053-44.672l236.8-315.733h-288v-85.333z" />
<glyph unicode="&#xe985;" glyph-name="bxs-downvote" d="M640 874.667h-256c-23.595 0-42.667-19.072-42.667-42.667v-298.667h-170.667c-16.427 0-31.317-9.429-38.443-24.149-7.083-14.805-5.12-32.341 5.12-45.184l341.333-426.667c8.107-10.112 20.352-16 33.323-16s25.216 5.888 33.323 16l341.333 426.667c10.24 12.843 12.203 30.379 5.12 45.184-7.125 14.72-22.016 24.149-38.443 24.149h-170.667v298.667c0 23.595-19.072 42.667-42.667 42.667z" />
<glyph unicode="&#xe986;" glyph-name="bxs-drink" d="M887.851 764.245c9.472 12.971 10.795 30.165 3.499 44.459-7.253 14.293-21.973 23.296-38.016 23.296h-682.667c-16.043 0-30.763-9.003-38.016-23.296-7.296-14.293-5.931-31.488 3.499-44.459l333.184-458.112v-199.467h-128v-85.333h341.333v85.333h-128v199.467l333.184 458.112zM769.536 746.667l-62.037-85.333h-390.997l-62.037 85.333h515.072z" />
<glyph unicode="&#xe987;" glyph-name="bxs-droplet" d="M536.747 866.731c-14.805 10.581-34.688 10.581-49.451 0-13.013-9.173-318.037-229.291-316.629-504.064 0-188.203 153.131-341.333 341.333-341.333s341.333 153.131 341.333 341.12c1.365 274.987-303.616 495.104-316.587 504.277zM512 149.333c-117.632 0-213.333 95.701-213.333 213.333h85.333c0-70.571 57.429-128 128-128v-85.333z" />
<glyph unicode="&#xe988;" glyph-name="bxs-duplicate" d="M128 21.333h597.333c23.595 0 42.667 19.072 42.667 42.667v597.333c0 23.552-19.072 42.667-42.667 42.667h-597.333c-23.595 0-42.667-19.115-42.667-42.667v-597.333c0-23.595 19.072-42.667 42.667-42.667zM256 405.333h128v128h85.333v-128h128v-85.333h-128v-128h-85.333v128h-128v85.333zM896 874.667h-554.667v-85.333h512v-512h85.333v554.667c0 23.552-19.072 42.667-42.667 42.667z" />
<glyph unicode="&#xe989;" glyph-name="bxs-edit" d="M926.165 776.832l-85.333 85.333c-16.683 16.683-43.648 16.683-60.331 0l-384-384c-4.651-4.651-8.192-10.368-10.283-16.683l-42.667-128c-5.12-15.317-1.109-32.256 10.283-43.648 8.107-8.107 19.029-12.501 30.165-12.501 4.48 0 9.088 0.725 13.483 2.219l128 42.667c6.272 2.091 11.989 5.632 16.683 10.283l384 384c16.683 16.683 16.683 43.648 0 60.331zM768 192h-512v512h256v85.333h-298.667c-23.595 0-42.667-19.072-42.667-42.667v-597.333c0-23.595 19.072-42.667 42.667-42.667h597.333c23.595 0 42.667 19.072 42.667 42.667v298.667h-85.333v-256z" />
<glyph unicode="&#xe98a;" glyph-name="bxs-eject" d="M298.667 362.667h426.667c16 0 30.635 8.917 37.973 23.125 7.296 14.251 6.059 31.317-3.243 44.331l-213.333 298.667c-16 22.443-53.419 22.443-69.419 0l-213.333-298.667c-9.301-13.013-10.539-30.080-3.243-44.331 7.296-14.208 21.931-23.125 37.931-23.125zM256 277.333h512v-85.333h-512z" />
<glyph unicode="&#xe98b;" glyph-name="bxs-envelope" d="M512 377.685l423.467 384.939c-6.357 15.616-21.547 26.709-39.467 26.709h-768c-17.877 0-33.109-11.093-39.424-26.709l423.424-384.939zM512 262.315l-426.667 387.883v-500.864c0-23.595 19.115-42.667 42.667-42.667h768c23.595 0 42.667 19.072 42.667 42.667v500.864l-426.667-387.883z" />
<glyph unicode="&#xe98c;" glyph-name="bxs-eraser" d="M926.165 563.499l-298.667 298.667c-16.683 16.683-43.648 16.683-60.331 0l-469.333-469.333c-16.683-16.683-16.683-43.648 0-60.331l213.333-213.333c7.979-8.021 18.816-12.501 30.165-12.501h469.333v85.333h-195.669l311.168 311.168c16.683 16.683 16.683 43.648 0 60.331zM494.336 192h-135.339l-170.667 170.667 238.336 238.336 238.336-238.336-170.667-170.667z" />
<glyph unicode="&#xe98d;" glyph-name="bxs-error" d="M549.717 851.968c-14.763 27.904-60.672 27.904-75.435 0l-384-725.333c-6.997-13.227-6.571-29.184 1.152-41.941 7.723-12.843 21.589-20.693 36.565-20.693h768c14.976 0 28.843 7.851 36.523 20.651 7.765 12.8 8.149 28.757 1.152 41.941l-383.957 725.376zM554.667 192h-85.333v85.333h85.333v-85.333zM554.667 362.667h-85.333v213.333h85.333v-213.333z" />
<glyph unicode="&#xe98e;" glyph-name="bxs-error-circle" d="M509.995 874.667c-234.155 0-424.661-191.403-424.661-426.667s191.403-426.667 426.667-426.667 426.667 191.403 426.667 426.667-192.299 426.667-428.672 426.667zM554.667 234.667h-85.333v85.333h85.333v-85.333zM554.667 405.333h-85.333v256h85.333v-256z" />
<glyph unicode="&#xe98f;" glyph-name="bxs-fast-forward-circle" d="M512 874.667c-235.264 0-426.667-191.403-426.667-426.667s191.403-426.667 426.667-426.667 426.667 191.403 426.667 426.667-191.403 426.667-426.667 426.667zM341.333 320v256l170.667-128-170.667-128zM554.667 320v256l170.667-128-170.667-128z" />
<glyph unicode="&#xe990;" glyph-name="bxs-file" d="M810.667 21.333c23.595 0 42.667 19.115 42.667 42.667v512c0 11.307-4.48 22.187-12.501 30.165l-256 256c-7.979 8.021-18.816 12.501-30.165 12.501h-341.333c-23.595 0-42.667-19.115-42.667-42.667v-768c0-23.552 19.072-42.667 42.667-42.667h597.333zM554.667 789.333l213.333-213.333h-170.667c-23.595 0-42.667 0-42.667 0v213.333zM341.333 618.667h85.333v-85.333h-85.333v85.333zM341.333 448h341.333v-85.333h-341.333v85.333zM341.333 277.333h341.333v-85.333h-341.333v85.333z" />
<glyph unicode="&#xe991;" glyph-name="bxs-file-blank" d="M840.832 606.165l-256 256c-7.979 8.021-18.816 12.501-30.165 12.501h-341.333c-23.595 0-42.667-19.072-42.667-42.667v-768c0-23.595 19.072-42.667 42.667-42.667h597.333c23.595 0 42.667 19.072 42.667 42.667v512c0 11.349-4.48 22.187-12.501 30.165zM597.333 576c-23.595 0-42.667 0-42.667 0v213.333l213.333-213.333h-170.667z" />
<glyph unicode="&#xe992;" glyph-name="bxs-file-image" d="M840.832 606.165l-256 256c-7.979 8.021-18.816 12.501-30.165 12.501h-341.333c-23.595 0-42.667-19.115-42.667-42.667v-768c0-23.552 19.072-42.667 42.667-42.667h597.333c23.595 0 42.667 19.115 42.667 42.667v512c0 11.307-4.48 22.187-12.501 30.165zM384 448c23.595 0 42.667-19.115 42.667-42.667s-19.072-42.667-42.667-42.667-42.667 19.115-42.667 42.667 19.072 42.667 42.667 42.667zM554.667 192h-213.333l85.333 128 42.667-42.667 85.333 170.667 128-256h-128zM597.333 576c-23.595 0-42.667 0-42.667 0v213.333l213.333-213.333h-170.667z" />
<glyph unicode="&#xe993;" glyph-name="bxs-file-plus" d="M840.832 606.165l-256 256c-7.979 8.021-18.816 12.501-30.165 12.501h-341.333c-23.595 0-42.667-19.072-42.667-42.667v-768c0-23.595 19.072-42.667 42.667-42.667h597.333c23.595 0 42.667 19.072 42.667 42.667v512c0 11.349-4.48 22.187-12.501 30.165zM682.667 277.333h-128v-128h-85.333v128h-128v85.333h128v128h85.333v-128h128v-85.333zM597.333 576c-23.595 0-42.667 0-42.667 0v213.333l213.333-213.333h-170.667z" />
<glyph unicode="&#xe994;" glyph-name="bxs-files" d="M128 618.667v-554.667c0-23.552 19.072-42.667 42.667-42.667h512v85.333h-469.333v512h-85.333zM853.333 234.667v384c0 11.307-4.48 22.187-12.501 30.165l-213.333 213.333c-7.979 8.021-18.816 12.501-30.165 12.501h-256c-23.595 0-42.667-19.115-42.667-42.667v-597.333c0-23.552 19.072-42.667 42.667-42.667h469.333c23.595 0 42.667 19.115 42.667 42.667zM640 618.667c-23.595 0-42.667 0-42.667 0v170.667l170.667-170.667h-128z" />
<glyph unicode="&#xe995;" glyph-name="bxs-film" d="M810.667 832v-85.333h-85.333v85.333h-426.667v-85.333h-85.333v85.333h-85.333v-768h85.333v85.333h85.333v-85.333h426.667v85.333h85.333v-85.333h85.333v768h-85.333zM213.333 661.333h85.333v-85.333h-85.333v85.333zM213.333 490.667h85.333v-85.333h-85.333v85.333zM213.333 234.667v85.333h85.333v-85.333h-85.333zM725.333 234.667v85.333h85.333v-85.333h-85.333zM810.667 405.333h-85.333v85.333h85.333v-85.333zM725.333 576v85.333h85.333v-85.333h-85.333z" />
<glyph unicode="&#xe996;" glyph-name="bxs-filter-alt" d="M853.333 832h-682.667c-23.595 0-42.667-19.072-42.667-42.667v-128c0-11.349 4.48-22.187 12.501-30.165l328.832-328.832v-281.003l85.333 85.333v195.669l328.832 328.832c8.021 7.979 12.501 18.816 12.501 30.165v128c0 23.595-19.072 42.667-42.667 42.667z" />
<glyph unicode="&#xe997;" glyph-name="bxs-first-aid" d="M896 704h-170.667v128c0 23.552-19.072 42.667-42.667 42.667h-341.333c-23.595 0-42.667-19.115-42.667-42.667v-128h-170.667c-23.595 0-42.667-19.115-42.667-42.667v-597.333c0-23.552 19.072-42.667 42.667-42.667h768c23.595 0 42.667 19.115 42.667 42.667v597.333c0 23.552-19.072 42.667-42.667 42.667zM384 789.333h256v-85.333h-256v85.333zM682.667 320h-128v-128h-85.333v128h-128v85.333h128v128h85.333v-128h128v-85.333z" />
<glyph unicode="&#xe998;" glyph-name="bxs-flag" d="M213.333 874.667v-768h-85.333v-85.333h256v85.333h-85.333v213.333h469.333c23.595 0 42.667 19.115 42.667 42.667v341.333c0 23.552-19.072 42.667-42.667 42.667h-469.333v128h-85.333z" />
<glyph unicode="&#xe999;" glyph-name="bxs-flag-alt" d="M170.667 874.667v-853.333h85.333v298.667h554.667c15.744 0 30.208 8.661 37.632 22.528s6.571 30.72-2.133 43.776l-112.213 168.363 112.213 168.32c8.704 13.099 9.557 29.909 2.133 43.776s-21.888 22.571-37.632 22.571h-554.667v85.333h-85.333z" />
<glyph unicode="&#xe99a;" glyph-name="bxs-flask" d="M851.797 53.888c0.427 1.579 0.939 3.072 1.152 4.693 0.256 1.835 0.085 3.669 0.085 5.547 0 1.536 0.213 3.029 0 4.565-0.256 2.347-0.939 4.608-1.579 6.912-0.299 0.939-0.341 2.005-0.725 2.944l-0.085 0.213c0 0.043 0 0.128-0.043 0.213l-0.896 2.347-167.040 459.52v248.491h42.667v85.333h-426.667v-85.333h42.667v-248.491l-167.979-461.867c-0.043-0.085-0.043-0.171-0.043-0.213l-0.085-0.213c-0.341-0.939-0.427-1.92-0.683-2.859-0.683-2.347-1.365-4.608-1.621-6.997-0.171-1.451 0-2.901 0-4.395 0-1.963-0.171-3.883 0.085-5.76 0.171-1.579 0.768-3.029 1.109-4.523 0.427-1.792 0.683-3.627 1.323-5.333 0.597-1.408 1.451-2.688 2.133-4.053 0.896-1.664 1.536-3.413 2.645-4.949 0.043-0.043 0.085-0.085 0.085-0.085 0-0.043 0.043-0.043 0.043-0.085 1.024-1.493 2.389-2.688 3.584-3.968 1.067-1.195 2.048-2.603 3.243-3.627 1.749-1.536 3.755-2.731 5.76-3.968 0.896-0.597 1.664-1.323 2.645-1.792 2.304-1.195 4.779-2.005 7.296-2.773 0.768-0.213 1.451-0.64 2.219-0.853 3.328-0.768 6.741-1.195 10.24-1.195h597.333c3.499 0 6.912 0.427 10.24 1.237 0.768 0.213 1.451 0.64 2.219 0.853 2.517 0.811 4.992 1.579 7.296 2.773 0.939 0.469 1.749 1.195 2.645 1.792 2.005 1.195 4.011 2.432 5.76 3.968 1.195 1.024 2.176 2.432 3.243 3.627 1.195 1.28 2.56 2.475 3.584 3.968 0 0.043 0.043 0.043 0.043 0.085 0 0 0.043 0.043 0.085 0.085 1.024 1.493 1.664 3.157 2.517 4.736 0.768 1.408 1.664 2.773 2.261 4.267 0.555 1.664 0.811 3.456 1.237 5.163zM597.333 789.333v-256c0-4.949 0.896-9.899 2.603-14.592l25.685-70.741h-227.243l25.728 70.741c1.664 4.693 2.56 9.643 2.56 14.592v256h170.667z" />
<glyph unicode="&#xe99b;" glyph-name="bxs-folder" d="M896 746.667h-373.931l-161.664 80.853c-5.888 2.944-12.459 4.48-19.072 4.48h-213.333c-23.552 0-42.667-19.115-42.667-42.667v-682.667c0-23.595 19.115-42.667 42.667-42.667h768c23.595 0 42.667 19.072 42.667 42.667v597.333c0 23.552-19.072 42.667-42.667 42.667z" />
<glyph unicode="&#xe99c;" glyph-name="bxs-folder-minus" d="M896 746.667h-373.931l-161.664 80.853c-5.888 2.944-12.459 4.48-19.072 4.48h-213.333c-23.595 0-42.667-19.115-42.667-42.667v-682.667c0-23.595 19.072-42.667 42.667-42.667h768c23.595 0 42.667 19.072 42.667 42.667v597.333c0 23.552-19.072 42.667-42.667 42.667zM682.667 362.667h-341.333v85.333h341.333v-85.333z" />
<glyph unicode="&#xe99d;" glyph-name="bxs-folder-open" d="M931.627 471.509c-7.936 11.947-21.291 19.157-35.627 19.157h-640c-17.067 0-32.512-10.155-39.211-25.856l-128-298.667c-5.675-13.184-4.309-28.288 3.584-40.277 7.936-11.989 21.291-19.2 35.627-19.2h640c17.067 0 32.512 10.155 39.211 25.856l128 298.667c5.675 13.184 4.309 28.331-3.584 40.32zM175.147 552.405c7.253 14.464 22.016 23.595 38.187 23.595h640v85.333c0 23.595-19.072 42.667-42.667 42.667h-330.155l-141.952 79.829c-6.4 3.627-13.611 5.504-20.949 5.504h-189.611c-23.595 0-42.667-19.072-42.667-42.667v-373.931l89.813 179.669z" />
<glyph unicode="&#xe99e;" glyph-name="bxs-folder-plus" d="M896 746.667h-373.931l-161.664 80.853c-5.888 2.944-12.459 4.48-19.072 4.48h-213.333c-23.595 0-42.667-19.115-42.667-42.667v-682.667c0-23.595 19.072-42.667 42.667-42.667h768c23.595 0 42.667 19.072 42.667 42.667v597.333c0 23.552-19.072 42.667-42.667 42.667zM682.667 362.667h-128v-128h-85.333v128h-128v85.333h128v128h85.333v-128h128v-85.333z" />
<glyph unicode="&#xe99f;" glyph-name="bxs-gift" d="M768 362.667h-213.333v-298.667h256c23.595 0 42.667 19.072 42.667 42.667v256h-85.333zM213.333 362.667h-42.667v-256c0-23.595 19.115-42.667 42.667-42.667h256v298.667h-256zM896 618.667h-94.251c5.589 17.536 8.917 38.571 8.917 64 0 82.347-66.987 149.333-149.333 149.333-72.064 0-119.595-61.184-149.333-122.965-29.739 61.781-77.227 122.965-149.333 122.965-82.347 0-149.333-66.987-149.333-149.333 0-25.429 3.371-46.464 8.917-64h-94.251c-23.552 0-42.667-19.115-42.667-42.667v-85.333c0-23.552 19.115-42.667 42.667-42.667h341.333v85.333h85.333v-85.333h341.333c23.595 0 42.667 19.115 42.667 42.667v85.333c0 23.552-19.072 42.667-42.667 42.667zM661.333 746.667c35.285 0 64-28.715 64-64 0-64-26.709-64-42.667-64h-114.944c19.243 58.368 53.376 128 93.611 128zM298.667 682.667c0 35.285 28.715 64 64 64 37.888 0 73.131-65.067 93.781-128h-115.115c-15.957 0-42.667 0-42.667 64z" />
<glyph unicode="&#xe9a0;" glyph-name="bxs-globe-alt" d="M625.365 817.365c133.077-133.12 133.077-349.653 0-482.731-133.077-133.035-349.653-133.12-482.731 0l-60.331-60.331c83.2-83.157 192.427-124.757 301.696-124.757 28.587 0 57.173 2.987 85.333 8.704v-51.584h-85.333v-85.333h256v85.333h-85.333v78.72c47.531 20.693 92.203 50.091 131.029 88.917 166.315 166.315 166.315 437.035 0 603.435l-60.331-60.373zM384 320c141.184 0 256 114.816 256 256s-114.816 256-256 256-256-114.816-256-256 114.816-256 256-256z" />
</font>
</defs>
</svg>
